{ "angleData": [0, 0, 0, 0, 0, 270, 180, 0, 0, 0, 0, 270, 180, 999, 0, 0, 0, 0, 0, 270, 180, 0, 0, 0, 0, 270, 180, 180, 180, 180, 180, 180, 270, 0, -180, 180, 180, 180, 270, 0, 0, 0, 0, 0, 0, 270, 180, 0, 0, 0, 0, 270, 0, 0, 0, 0, 0, 0, 90, 180, 0, 0, 0, 0, 90, 180, 999, 0, 0, 0, 0, 0, 90, 180, 0, 0, 0, 0, 90, 0, 0, 0, 0, 0, 0, 90, 180, 0, 0, 0, 0, 90, 180, 180, 180, 180, 180, 180, 90, 0, -180, 180, 180, 180, 90, 0, 0, 90, 180, 180, 90, 0, 0, 90, 180, 135, 0, 90, 0, 0, 90, 0, 0, 270, 0, 0, 90, 0, 315, 180, 270, 0, 0, 90, 0, 0, 270, 0, 0, 90, 0, 315, 180, 270, 0, 0, 0, 0, 0, 0, 0, 0, 0, 0, 0, 0, 0, 0, 90, 180, 180, 180, 180, 180, 180, 180, 180, 90, 0, 0, 0, 0, 0, 0, 0, 0, 90, 180, 180, 180, 180, 180, 180, 180, 180, 180, 180, 180, 180, 180, 180, 180, 180, 90, 0, 0, 0, 0, 0, 0, 0, 0, 90, 180, 180, 180, 180, 180, 180, 180, 180, 90, 0, 0, 0, 0, 0, 0, 0, 0, 0, 0, 0, 0, 0, 0, 90, 0, 90, 0, 0, 0, 0, 270, 0, 270, 0, 0, 0, 0, 90, 0, 90, 0, 270, 0, 0, 90, 999, 0, 0, 90, 999, 0, 0, 90, 999, 0, 45, 999, 0, 999, 270, 0, 0, 90, 999, 0, 90, 90, 90, 90, 90, 90, 90, 90, 180, 90, 180, 90, 90, 90, 90, 315, 999, 0, 999, 45, 999, 90, 90, 90, 90, 90, 90, 90, 90, 90, 90, 90, 90, 0, 999, 90, 0, 999, 90, 0, 999, 90, 90, 180, 45, 180, 180, 270, 135, 270, 135, 270, 135, 270, 0, 999, 270, 270, 270, 270, 270, 270, 270, 270, 270, 270, 270, 270, 270, 270, 270, 270, 180, 315, 180, 180, 180, 180, 180, 180, 180, 180, 180, 180, 180, 180, 180, 180, 180, 180, 180, 180, 180, 180, 180, 180, 180, 180, 180, 180, 90, 0, 270, 180, 180, 180, 180, 180, 180, 180, 90, 0, 270, 180, 180, 180, 180, 180, 180, 180, 90, 0, 270, 180, 180, 180, 180, 180, 180, 180, 180, 180, 180, 180, 180, 180, 180, 180, 90, 0, 270, 180, 180, 180, 180, 180, 180, 180, 90, 0, 270, 180, 180, 180, 180, 180, 180, 180, 90, 0, 270, 180, 180, 180, 180, 180, 180, 180, 180, 180, 180, 180, 180, 180, 180, 180, 90, 0, 270, 180, 180, 180, 180, 180, 180, 180, 180, 180, 180, 180, 180, 180, 90, 0, 270, 180, 180, 180, 180, 180, 180, 180, 180, 180, 180, 180, 180, 180, 180, 180, 90, 0, 270, 180, 180, 180, 180, 180, 180, 180, 90, 0, 270, 180, 180, 180, 180, 180, 180, 180, 90, 0, 270, 180, 180, 180, 180, 180, 180, 180, 180, 180, 180, 180, 180, 180, 180, 180, 180, 180, 180, 180, 180, 180, 180, 90, 999, 180, 90, 999, 180, 90, 999, 180, 90, 999, 180, 180, 180, 180, 90, 999, 180, 180, 180, 90, 999, 180, 90, 999, 180, 90, 999, 180, 90, 999, 180, 180, 180, 180, 180, 180, 180, 180, 180, 180, 180, 180, 180, 90, 999, 180, 90, 999, 180, 90, 999, 180, 90, 999, 180, 180, 180, 180, 90, 999, 180, 180, 180, 270, 0, 270, 180, 270, 0, 270, 180, 180, 180, 180, 180, 270, 0, 0, 0, 0, 0, 0, 270, 180, 180, 180, 180, 180, 180, 270, 0, 0, 0, 0, 0, 0, 270, 180, 180, 180, 180, 180, 180, 270, 0, 0, 0, 0, 0, 0, 270, 180, 180, 180, 180, 180, 180, 270, 0, 0, 0, 0, 0, 0, 270, 180, 180, 180, 180, 180, 270, 0, 0, 270, 180, 180, 270, 0, 0, 270, 180, 180, 270, 999, 180, 270, 999, 180, 270, 999, 180, 180, 180, 180, 180, 180, 180, 180, 180, 180, 180, 180, 180, 180, 180, 180, 180, 180, 180, 180, 180, 180, 180, 180, 180, 90, 180, 180, 180, 180, 180, 180, 180, 180, 180, 180, 180, 270, 0, 270, 180, 270, 0, 270, 180, 270, 0, 270, 0, 0, 0, 0, 0, 0, 0, 0, 0, 0, 0, 270, 0, 0, 0, 0, 0, 0, 0, 0, 0, 0, 0, 0, 0, 0, 0, 270, 180, 0, 0, 0, 0, 270, 180, 180, 180, 180, 180, 180, 270, 0, -180, 180, 180, 180, 270, 0, 0, 0, 0, 0, 0, 270, 180, 0, 0, 0, 0, 270, 180, 180, 180, 180, 180, 180, 270, 0, -180, 180, 180, 180, 270, 0], "settings": { "version": 9 , "artist": "toby", "specialArtistType": "AuthorIsArtist", "artistPermission": "", "song": "undertale", "author": "atlas", "separateCountdownTime": "Enabled", "previewImage": "UTOST.jpg", "previewIcon": "", "previewIconColor": "003f52", "previewSongStart": 0, "previewSongDuration": 10, "seizureWarning": "Disabled", "levelDesc": "just layout", "levelTags": "", "artistLinks": "", "difficulty": 1, "songFilename": "toby fox - UNDERTALE Soundtrack - 71 Undertale.ogg", "bpm": 203.85, "volume": 100, "offset": 60, "pitch": 100, "hitsound": "Kick", "hitsoundVolume": 100, "countdownTicks": 4, "trackColorType": "Single", "trackColor": "debb7b", "secondaryTrackColor": "ffffff", "trackColorAnimDuration": 2, "trackColorPulse": "None", "trackPulseLength": 10, "trackStyle": "Standard", "trackAnimation": "None", "beatsAhead": 3, "trackDisappearAnimation": "None", "beatsBehind": 4, "backgroundColor": "000000", "showDefaultBGIfNoImage": "Enabled", "bgImage": "", "bgImageColor": "ffffff", "parallax": [100, 100], "bgDisplayMode": "FitToScreen", "lockRot": "Disabled", "loopBG": "Disabled", "unscaledSize": 100, "relativeTo": "Player", "position": [0, 0], "rotation": 0, "zoom": 100, "bgVideo": "", "loopVideo": "Disabled", "vidOffset": 0, "floorIconOutlines": "Disabled", "stickToFloors": "Disabled", "planetEase": "Linear", "planetEaseParts": 1, "customClass": "", "legacyFlash": false , "legacySpriteTiles": false }, "actions": [ { "floor": 28, "eventType": "Twirl" }, { "floor": 41, "eventType": "Twirl" }, { "floor": 52, "eventType": "Twirl" }, { "floor": 79, "eventType": "Twirl" }, { "floor": 81, "eventType": "Twirl" }, { "floor": 94, "eventType": "Twirl" }, { "floor": 107, "eventType": "SetSpeed", "speedType": "Multiplier", "beatsPerMinute": 100, "bpmMultiplier": 0.125 }, { "floor": 107, "eventType": "ColorTrack", "trackColorType": "Single", "trackColor": "2c34d6ff", "secondaryTrackColor": "ffffff", "trackColorAnimDuration": 2, "trackColorPulse": "None", "trackPulseLength": 10, "trackStyle": "Standard", "trackTexture": "", "trackTextureScale": 1 }, { "floor": 109, "eventType": "Twirl" }, { "floor": 112, "eventType": "Twirl" }, { "floor": 115, "eventType": "Twirl" }, { "floor": 117, "eventType": "Twirl" }, { "floor": 118, "eventType": "Twirl" }, { "floor": 120, "eventType": "Twirl" }, { "floor": 121, "eventType": "Twirl" }, { "floor": 124, "eventType": "Twirl" }, { "floor": 127, "eventType": "Twirl" }, { "floor": 130, "eventType": "Twirl" }, { "floor": 134, "eventType": "Twirl" }, { "floor": 137, "eventType": "Twirl" }, { "floor": 140, "eventType": "Twirl" }, { "floor": 143, "eventType": "Twirl" }, { "floor": 145, "eventType": "SetSpeed", "speedType": "Multiplier", "beatsPerMinute": 100, "bpmMultiplier": 8 }, { "floor": 145, "eventType": "ColorTrack", "trackColorType": "Single", "trackColor": "ffffffff", "secondaryTrackColor": "ffffff", "trackColorAnimDuration": 2, "trackColorPulse": "None", "trackPulseLength": 10, "trackStyle": "Standard", "trackTexture": "", "trackTextureScale": 1 }, { "floor": 153, "eventType": "ColorTrack", "trackColorType": "Single", "trackColor": "debb7bff", "secondaryTrackColor": "ffffff", "trackColorAnimDuration": 2, "trackColorPulse": "None", "trackPulseLength": 10, "trackStyle": "Standard", "trackTexture": "", "trackTextureScale": 1 }, { "floor": 166, "eventType": "Twirl" }, { "floor": 175, "eventType": "Twirl" }, { "floor": 184, "eventType": "Twirl" }, { "floor": 201, "eventType": "Twirl" }, { "floor": 210, "eventType": "Twirl" }, { "floor": 223, "eventType": "ColorTrack", "trackColorType": "Single", "trackColor": "66da31ff", "secondaryTrackColor": "ffffff", "trackColorAnimDuration": 2, "trackColorPulse": "None", "trackPulseLength": 10, "trackStyle": "Standard", "trackTexture": "", "trackTextureScale": 1 }, { "floor": 223, "eventType": "SetSpeed", "speedType": "Multiplier", "beatsPerMinute": 100, "bpmMultiplier": 0.25 }, { "floor": 223, "eventType": "Twirl" }, { "floor": 226, "eventType": "SetSpeed", "speedType": "Multiplier", "beatsPerMinute": 100, "bpmMultiplier": 2 }, { "floor": 227, "eventType": "Twirl" }, { "floor": 228, "eventType": "Twirl" }, { "floor": 229, "eventType": "Twirl" }, { "floor": 230, "eventType": "SetSpeed", "speedType": "Multiplier", "beatsPerMinute": 100, "bpmMultiplier": 0.5 }, { "floor": 233, "eventType": "SetSpeed", "speedType": "Multiplier", "beatsPerMinute": 100, "bpmMultiplier": 2 }, { "floor": 234, "eventType": "Twirl" }, { "floor": 235, "eventType": "Twirl" }, { "floor": 236, "eventType": "Twirl" }, { "floor": 237, "eventType": "SetSpeed", "speedType": "Multiplier", "beatsPerMinute": 100, "bpmMultiplier": 0.5 }, { "floor": 240, "eventType": "SetSpeed", "speedType": "Multiplier", "beatsPerMinute": 100, "bpmMultiplier": 2 }, { "floor": 241, "eventType": "Twirl" }, { "floor": 242, "eventType": "Twirl" }, { "floor": 243, "eventType": "Twirl" }, { "floor": 244, "eventType": "SetSpeed", "speedType": "Multiplier", "beatsPerMinute": 100, "bpmMultiplier": 0.25 }, { "floor": 245, "eventType": "Twirl" }, { "floor": 269, "eventType": "SetSpeed", "speedType": "Multiplier", "beatsPerMinute": 100, "bpmMultiplier": 8 }, { "floor": 273, "eventType": "SetSpeed", "speedType": "Multiplier", "beatsPerMinute": 100, "bpmMultiplier": 0.25 }, { "floor": 276, "eventType": "SetSpeed", "speedType": "Multiplier", "beatsPerMinute": 100, "bpmMultiplier": 2 }, { "floor": 277, "eventType": "Twirl" }, { "floor": 278, "eventType": "Twirl" }, { "floor": 279, "eventType": "Twirl" }, { "floor": 280, "eventType": "SetSpeed", "speedType": "Multiplier", "beatsPerMinute": 100, "bpmMultiplier": 0.5 }, { "floor": 292, "eventType": "SetSpeed", "speedType": "Multiplier", "beatsPerMinute": 100, "bpmMultiplier": 4 }, { "floor": 292, "eventType": "ColorTrack", "trackColorType": "Single", "trackColor": "debb7b", "secondaryTrackColor": "ffffff", "trackColorAnimDuration": 2, "trackColorPulse": "None", "trackPulseLength": 10, "trackStyle": "Standard", "trackTexture": "", "trackTextureScale": 1 }, { "floor": 300, "eventType": "SetSpeed", "speedType": "Multiplier", "beatsPerMinute": 100, "bpmMultiplier": 0.25 }, { "floor": 300, "eventType": "ColorTrack", "trackColorType": "Single", "trackColor": "2ededbff", "secondaryTrackColor": "ffffff", "trackColorAnimDuration": 2, "trackColorPulse": "None", "trackPulseLength": 10, "trackStyle": "Standard", "trackTexture": "", "trackTextureScale": 1 }, { "floor": 311, "eventType": "SetSpeed", "speedType": "Multiplier", "beatsPerMinute": 100, "bpmMultiplier": 2 }, { "floor": 313, "eventType": "Twirl" }, { "floor": 314, "eventType": "SetSpeed", "speedType": "Multiplier", "beatsPerMinute": 100, "bpmMultiplier": 0.25 }, { "floor": 316, "eventType": "Twirl" }, { "floor": 317, "eventType": "Twirl" }, { "floor": 318, "eventType": "Twirl" }, { "floor": 319, "eventType": "Twirl" }, { "floor": 320, "eventType": "Twirl" }, { "floor": 321, "eventType": "Twirl" }, { "floor": 325, "eventType": "SetSpeed", "speedType": "Multiplier", "beatsPerMinute": 100, "bpmMultiplier": 4 }, { "floor": 329, "eventType": "Twirl" }, { "floor": 329, "eventType": "ColorTrack", "trackColorType": "Single", "trackColor": "ad7308ff", "secondaryTrackColor": "ffffff", "trackColorAnimDuration": 2, "trackColorPulse": "None", "trackPulseLength": 10, "trackStyle": "Standard", "trackTexture": "", "trackTextureScale": 1 }, { "floor": 341, "eventType": "Twirl" }, { "floor": 342, "eventType": "Twirl" }, { "floor": 363, "eventType": "ColorTrack", "trackColorType": "Single", "trackColor": "19e615ff", "secondaryTrackColor": "ffffff", "trackColorAnimDuration": 2, "trackColorPulse": "None", "trackPulseLength": 10, "trackStyle": "Standard", "trackTexture": "", "trackTextureScale": 1 }, { "floor": 363, "eventType": "SetSpeed", "speedType": "Multiplier", "beatsPerMinute": 100, "bpmMultiplier": 2 }, { "floor": 439, "eventType": "ColorTrack", "trackColorType": "Single", "trackColor": "e3a22bff", "secondaryTrackColor": "ffffff", "trackColorAnimDuration": 2, "trackColorPulse": "None", "trackPulseLength": 10, "trackStyle": "Standard", "trackTexture": "", "trackTextureScale": 1 }, { "floor": 453, "eventType": "SetSpeed", "speedType": "Multiplier", "beatsPerMinute": 100, "bpmMultiplier": 0.5 }, { "floor": 455, "eventType": "SetSpeed", "speedType": "Multiplier", "beatsPerMinute": 100, "bpmMultiplier": 2 }, { "floor": 504, "eventType": "ColorTrack", "trackColorType": "Single", "trackColor": "535151ff", "secondaryTrackColor": "ffffff", "trackColorAnimDuration": 2, "trackColorPulse": "None", "trackPulseLength": 10, "trackStyle": "Standard", "trackTexture": "", "trackTextureScale": 1 }, { "floor": 511, "eventType": "ColorTrack", "trackColorType": "Single", "trackColor": "7f2bcfff", "secondaryTrackColor": "ffffff", "trackColorAnimDuration": 2, "trackColorPulse": "None", "trackPulseLength": 10, "trackStyle": "Standard", "trackTexture": "", "trackTextureScale": 1 }, { "floor": 511, "eventType": "SetSpeed", "speedType": "Multiplier", "beatsPerMinute": 100, "bpmMultiplier": 0.5 }, { "floor": 535, "eventType": "SetSpeed", "speedType": "Multiplier", "beatsPerMinute": 100, "bpmMultiplier": 0.5 }, { "floor": 543, "eventType": "SetSpeed", "speedType": "Multiplier", "beatsPerMinute": 100, "bpmMultiplier": 2 }, { "floor": 579, "eventType": "SetSpeed", "speedType": "Multiplier", "beatsPerMinute": 100, "bpmMultiplier": 0.5 }, { "floor": 585, "eventType": "Twirl" }, { "floor": 587, "eventType": "SetSpeed", "speedType": "Multiplier", "beatsPerMinute": 100, "bpmMultiplier": 2 }, { "floor": 589, "eventType": "Twirl" }, { "floor": 591, "eventType": "Twirl" }, { "floor": 593, "eventType": "Twirl" }, { "floor": 595, "eventType": "SetSpeed", "speedType": "Multiplier", "beatsPerMinute": 100, "bpmMultiplier": 2 }, { "floor": 595, "eventType": "ColorTrack", "trackColorType": "Single", "trackColor": "debb7b", "secondaryTrackColor": "ffffff", "trackColorAnimDuration": 2, "trackColorPulse": "None", "trackPulseLength": 10, "trackStyle": "Standard", "trackTexture": "", "trackTextureScale": 1 }, { "floor": 602, "eventType": "Twirl" }, { "floor": 609, "eventType": "Twirl" }, { "floor": 616, "eventType": "Twirl" }, { "floor": 623, "eventType": "Twirl" }, { "floor": 630, "eventType": "Twirl" }, { "floor": 637, "eventType": "Twirl" }, { "floor": 644, "eventType": "Twirl" }, { "floor": 650, "eventType": "Twirl" }, { "floor": 651, "eventType": "ColorTrack", "trackColorType": "Single", "trackColor": "7bd7deff", "secondaryTrackColor": "ffffff", "trackColorAnimDuration": 2, "trackColorPulse": "None", "trackPulseLength": 10, "trackStyle": "Standard", "trackTexture": "", "trackTextureScale": 1 }, { "floor": 651, "eventType": "SetSpeed", "speedType": "Multiplier", "beatsPerMinute": 100, "bpmMultiplier": 0.25 }, { "floor": 653, "eventType": "Twirl" }, { "floor": 656, "eventType": "Twirl" }, { "floor": 659, "eventType": "Twirl" }, { "floor": 662, "eventType": "Twirl" }, { "floor": 665, "eventType": "Twirl" }, { "floor": 676, "eventType": "Twirl" }, { "floor": 677, "eventType": "SetSpeed", "speedType": "Multiplier", "beatsPerMinute": 100, "bpmMultiplier": 2 }, { "floor": 689, "eventType": "SetSpeed", "speedType": "Multiplier", "beatsPerMinute": 100, "bpmMultiplier": 2 }, { "floor": 697, "eventType": "SetSpeed", "speedType": "Multiplier", "beatsPerMinute": 100, "bpmMultiplier": 0.25 }, { "floor": 698, "eventType": "Twirl" }, { "floor": 703, "eventType": "SetSpeed", "speedType": "Multiplier", "beatsPerMinute": 100, "bpmMultiplier": 4 }, { "floor": 711, "eventType": "SetSpeed", "speedType": "Multiplier", "beatsPerMinute": 0.5, "bpmMultiplier": 0.25 }, { "floor": 713, "eventType": "Twirl" }, { "floor": 715, "eventType": "Twirl" }, { "floor": 717, "eventType": "Twirl" }, { "floor": 719, "eventType": "Twirl" }, { "floor": 721, "eventType": "Twirl" }, { "floor": 722, "eventType": "Twirl" }, { "floor": 723, "eventType": "SetSpeed", "speedType": "Multiplier", "beatsPerMinute": 100, "bpmMultiplier": 4 }, { "floor": 731, "eventType": "SetSpeed", "speedType": "Multiplier", "beatsPerMinute": 100, "bpmMultiplier": 0.25 }, { "floor": 737, "eventType": "SetSpeed", "speedType": "Multiplier", "beatsPerMinute": 100, "bpmMultiplier": 4 }, { "floor": 745, "eventType": "ColorTrack", "trackColorType": "Single", "trackColor": "debb7b", "secondaryTrackColor": "ffffff", "trackColorAnimDuration": 2, "trackColorPulse": "None", "trackPulseLength": 10, "trackStyle": "Standard", "trackTexture": "", "trackTextureScale": 1 }, { "floor": 758, "eventType": "Twirl" }, { "floor": 771, "eventType": "Twirl" }, { "floor": 784, "eventType": "Twirl" } ] "decorations": [ ] }