139 lines
20 KiB
Plaintext
139 lines
20 KiB
Plaintext
{
|
|
"angleData": [0, 0, 0, 0, 0, 0, 0, 90, 999, 0, 0, 0, 0, 0, 0, 0, 0, 90, 999, 0, 0, 0, 0, 0, 0, 0, 0, 90, 999, 0, 90, 999, 0, 0, 270, 270, 0, 90, 999, 0, 0, 90, 999, 0, 0, 0, 0, 0, 0, 0, 90, 999, 0, 90, 999, 0, 0, 0, 0, 0, 0, 0, 90, 999, 0, 90, 999, 0, 0, 0, 90, 999, 0, 90, 999, 0, 0, 0, 90, 999, 0, 90, 999, 0, 0, 0, 0, 0, 0, 0, 0, 0, 0, 0, 0, 0, 0, 0, 0, 0, 0, 0, 0, 0, 0, 0, 90, 999, 0, 90, 999, 0, 90, 999, 0, 90, 999, 0, 90, 999, 0, 90, 999, 0, 90, 999, 0, 90, 999, 0, 90, 999, 0, 90, 999, 0, 90, 999, 0, 90, 999, 0, 90, 999, 0, 0, 0, 0, 90, 999, 0, 0, 0, 0, 90, 999, 0, 0, 0, 0, 90, 999, 0, 0, 0, 0, 90, 999, 0, 0, 0, 0, 90, 999, 0, 90, 999, 0, 90, 999, 0, 90, 999, 0, 90, 999, 270, 0, 90, 999, 0, 90, 999, 0, 90, 999, 0, 90, 999, 0, 0, 90, 999, 0, 90, 999, 0, 90, 999, 0, 90, 999, 0, 90, 999, 270, 0, 0, 0, 0, 0, 90, 999, 0, 0, 0, 0, 0, 90, 999, 0, 0, 0, 0, 0, 90, 999, 0, 0, 0, 0, 0, 0, 0, 0, 90, 999, 0, 90, 999, 270, 0, 90, 999, 0, 90, 999, 0, 90, 999, 0, 0, 0, 90, 999, 0, 90, 999, 0, 0, 0, 0, 0, 90, 999, 0, 0, 0, 0, 0, 90, 999, 0, 0, 0, 0, 0, 90, 999, 0, 90, 999, 270, 0, 90, 999, 0, 0, 90, 999, 270, 0, 90, 999, 0, 0, 0, 90, 999, 0, 90, 999, 0, 90, 999, 0, 90, 999, 0, 90, 999, 270, 0, 90, 999, 0, 90, 999, 0, 90, 999, 0, 0, 0, 0, 0, 0, 90, 999, 0, 90, 999, 0, 0, 0, 0, 0, 0, 0, 90, 999, 0, 90, 999, 0, 0, 0, 90, 999, 0, 90, 999, 0, 0, 0, 90, 999, 0, 90, 999, 0, 0, 0, 0, 0, 0, 0, 0, 0, 0, 0, 0, 0, 0, 0, 0, 0, 0, 0, 0, 0, 0, 0, 90, 999, 0, 90, 999, 0, 90, 999, 0, 90, 999, 0, 90, 999, 0, 90, 999, 0, 90, 999, 0, 90, 999, 0, 90, 999, 0, 90, 999, 0, 90, 999, 0, 90, 999, 0, 90, 999, 0, 0, 0, 0, 90, 999, 0, 0, 0, 0, 90, 999, 0, 0, 0, 0, 90, 999, 0, 0, 0, 0, 90, 999, 0, 0, 0, 0, 90, 999, 0, 90, 999, 0, 90, 999, 0, 90, 999, 0, 90, 999, 270, 0, 90, 999, 0, 90, 999, 0, 90, 999, 0, 90, 999, 0, 90, 999, 0, 90, 999, 0, 90, 999, 0, 90, 999, 0, 90, 999, 0, 90, 0, 0, 0, 0, 0, 90, 999, 0, 0, 0, 0, 0, 90, 999, 0, 0, 0, 0, 0, 90, 999, 0, 0, 90, 999, 0, 90, 999, 0, 90, 999, 0, 90, 999, 0, 90, 999, 0, 90, 999, 0, 90, 999, 0, 0, 90, 999, 0, 90, 999, 0, 90, 999, 0, 90, 999, 0, 0, 0, 90, 999, 0, 90, 999, 0, 0, 0, 0, 0, 90, 999, 0, 0, 0, 0, 0, 90, 999, 0, 0, 0, 0, 0, 90, 999, 0, 90, 999, 270, 0, 90, 999, 0, 90, 999, 0, 90, 999, 270, 0, 90, 999, 0, 0, 0, 90, 999, 0, 90, 999, 0, 90, 999, 0, 90, 999, 0, 90, 999, 270, 0, 90, 999, 0, 90, 999, 0, 90, -90, 270, 0, 270, 270, 0, 0, 90, -90, 270, 0, 0, 90, 0, 0, 0, 0, 0, 0, 0, 0, 0, 0, 0, 0, 90, 999, 0, 90, 999, 0, 90, 999, 0, 90, 999, 0, 0, 0, 0, 0, 0, 0, 0, 0, 0, 0, 90, 999, 0, 90, 999, 0, 90, 999, 0, 90, 999, 0, 90, 999, 0, 90, 999, 0, 90, 999, 0, 90, 999, 0, 0, 0, 0, 0, 0, 0, 0, 0, 0, 0, 0, 0, 0, 0, 0, 0, 0, 0, 0, 0, 0, 0, 0, 0, 0, 0, 0, 0, 0, 0, 0, 0, 0, 0, 0, 0, 0, 0, 0, 0, 0, 0, 0, 0, 0, 0, 0, 0, 0, 0, 90, 0, 0, 90, 999, 270, 0, 90, 999, 0, 90, 999, 0, 90, 999, 0, 0, 90, 999, 0, 0, 0, 0, 0, 0, 0, 90, 999, 0, 90, 999, 0, 90, 999, 0, 90, 999, 0, 90, 999, 0, 90, 999, 0, 90, 999, 0, 0, 90, 999, 0, 90, 999, 0, 90, 999, 0, 90, 999, 0, 0, 0, 90, 999, 0, 90, 999, 0, 0, 0, 0, 0, 90, 999, 0, 0, 0, 0, 0, 90, 999, 0, 0, 0, 0, 0, 90, 999, 0, 90, 999, 270, 0, 90, 999, 0, 90, 999, 0, 90, 999, 0, 90, 999, 0, 90, 999, 0, 90, 999, 0, 0, 90, 999, 0, 90, 999, 0, 90, 999, 0, 90, 999, 270, 0, 90, 999, 0, 90, 999, 0, 90, 999, 0, 0, 0, 0, 0, 90, 999, 0, 0, 0, 0, 0, 90, 999, 0, 0, 0, 0, 0, 90, 999, 0, 90, 999, 270, 0, 90, 999, 0, 0, 90, 999, 270, 0, 90, 999, 0, 90, 999, 0, 0, 90, 999, 0, 90, 999, 0, 90, 999, 0, 90, 999, 0, 90, 999, 0, 90, 999, 0, 90, 999, 0, 90, 999, 0, 90, 999, 0, 90, 999, 0, 90, 999, 0, 90, 999, 0, 90, 0, 0, 0, 0, 0, 0, 0, 0, 0, 0, 0, 0, 0, 0, 0, 0, 90, 999, 0, 0, 0, 0, 0, 0, 0, 0, 0, 0, 0, 0, 0, 0, 0, 90, 999, 0, 90, 999, 0, 0, 0, 0, 0, 0, 0, 90, 999, 0, 90, 999, 0, 0, 0, 0, 0, 0, 0, 90, 999, 0, 90, 999, 0, 0, 0, 90, 999, 0, 90, 999, 0, 0, 0, 90, 999, 0, 90, 999, 0, 0, 0, 0, 90, 999, 270, 0, 90, 999, 0, 0, 90, 999, 0, 0, 45],
|
|
"settings":
|
|
{
|
|
"version": 10 ,
|
|
"artist": "匹诺曹p",
|
|
"specialArtistType": "None",
|
|
"artistPermission": "",
|
|
"song": "slow motion",
|
|
"author": "tls",
|
|
"separateCountdownTime": "Enabled",
|
|
"previewImage": "",
|
|
"previewIcon": "",
|
|
"previewIconColor": "003f52",
|
|
"previewSongStart": 0,
|
|
"previewSongDuration": 10,
|
|
"seizureWarning": "Disabled",
|
|
"levelDesc": "",
|
|
"levelTags": "",
|
|
"artistLinks": "",
|
|
"difficulty": 1,
|
|
"songFilename": "mo.ogg",
|
|
"bpm": 160,
|
|
"volume": 100,
|
|
"offset": 48,
|
|
"pitch": 100,
|
|
"hitsound": "Kick",
|
|
"hitsoundVolume": 100,
|
|
"countdownTicks": 4,
|
|
"trackColorType": "Single",
|
|
"trackColor": "debb7b",
|
|
"secondaryTrackColor": "ffffff",
|
|
"trackColorAnimDuration": 2,
|
|
"trackColorPulse": "None",
|
|
"trackPulseLength": 10,
|
|
"trackStyle": "Standard",
|
|
"trackAnimation": "None",
|
|
"beatsAhead": 3,
|
|
"trackDisappearAnimation": "None",
|
|
"beatsBehind": 4,
|
|
"backgroundColor": "000000",
|
|
"showDefaultBGIfNoImage": "Enabled",
|
|
"bgImage": "",
|
|
"bgImageColor": "ffffff",
|
|
"parallax": [100, 100],
|
|
"bgDisplayMode": "FitToScreen",
|
|
"lockRot": "Disabled",
|
|
"loopBG": "Disabled",
|
|
"unscaledSize": 100,
|
|
"relativeTo": "Player",
|
|
"position": [0, 0],
|
|
"rotation": 0,
|
|
"zoom": 100,
|
|
"bgVideo": "",
|
|
"loopVideo": "Disabled",
|
|
"vidOffset": 0,
|
|
"floorIconOutlines": "Disabled",
|
|
"stickToFloors": "Enabled",
|
|
"planetEase": "Linear",
|
|
"planetEaseParts": 1,
|
|
"planetEasePartBehavior": "Mirror",
|
|
"customClass": "",
|
|
"legacyFlash": false ,
|
|
"legacySpriteTiles": false
|
|
},
|
|
"actions":
|
|
[
|
|
{ "floor": 21, "eventType": "ColorTrack", "trackColorType": "Single", "trackColor": "7ba6deff", "secondaryTrackColor": "ffffff", "trackColorAnimDuration": 2, "trackColorPulse": "None", "trackPulseLength": 10, "trackStyle": "Standard", "trackTexture": "", "trackTextureScale": 1 },
|
|
{ "floor": 33, "eventType": "SetSpeed", "speedType": "Multiplier", "beatsPerMinute": 100, "bpmMultiplier": 0.5 },
|
|
{ "floor": 34, "eventType": "SetSpeed", "speedType": "Multiplier", "beatsPerMinute": 100, "bpmMultiplier": 2 },
|
|
{ "floor": 44, "eventType": "ColorTrack", "trackColorType": "Single", "trackColor": "debb7b", "secondaryTrackColor": "ffffff", "trackColorAnimDuration": 2, "trackColorPulse": "None", "trackPulseLength": 10, "trackStyle": "Standard", "trackTexture": "", "trackTextureScale": 1 },
|
|
{ "floor": 68, "eventType": "ColorTrack", "trackColorType": "Single", "trackColor": "3cd1acff", "secondaryTrackColor": "ffffff", "trackColorAnimDuration": 2, "trackColorPulse": "None", "trackPulseLength": 10, "trackStyle": "Standard", "trackTexture": "", "trackTextureScale": 1 },
|
|
{ "floor": 90, "eventType": "SetSpeed", "speedType": "Multiplier", "beatsPerMinute": 100, "bpmMultiplier": 0.5 },
|
|
{ "floor": 91, "eventType": "ColorTrack", "trackColorType": "Single", "trackColor": "debb7b", "secondaryTrackColor": "ffffff", "trackColorAnimDuration": 2, "trackColorPulse": "None", "trackPulseLength": 10, "trackStyle": "Standard", "trackTexture": "", "trackTextureScale": 1 },
|
|
{ "floor": 99, "eventType": "ColorTrack", "trackColorType": "Single", "trackColor": "72d192ff", "secondaryTrackColor": "ffffff", "trackColorAnimDuration": 2, "trackColorPulse": "None", "trackPulseLength": 10, "trackStyle": "Standard", "trackTexture": "", "trackTextureScale": 1 },
|
|
{ "floor": 109, "eventType": "ColorTrack", "trackColorType": "Single", "trackColor": "debb7b", "secondaryTrackColor": "ffffff", "trackColorAnimDuration": 2, "trackColorPulse": "None", "trackPulseLength": 10, "trackStyle": "Standard", "trackTexture": "", "trackTextureScale": 1 },
|
|
{ "floor": 133, "eventType": "ColorTrack", "trackColorType": "Single", "trackColor": "77d54dff", "secondaryTrackColor": "ffffff", "trackColorAnimDuration": 2, "trackColorPulse": "None", "trackPulseLength": 10, "trackStyle": "Standard", "trackTexture": "", "trackTextureScale": 1 },
|
|
{ "floor": 151, "eventType": "ColorTrack", "trackColorType": "Single", "trackColor": "debb7b", "secondaryTrackColor": "ffffff", "trackColorAnimDuration": 2, "trackColorPulse": "None", "trackPulseLength": 10, "trackStyle": "Standard", "trackTexture": "", "trackTextureScale": 1 },
|
|
{ "floor": 163, "eventType": "ColorTrack", "trackColorType": "Single", "trackColor": "43cf3cff", "secondaryTrackColor": "ffffff", "trackColorAnimDuration": 2, "trackColorPulse": "None", "trackPulseLength": 10, "trackStyle": "Standard", "trackTexture": "", "trackTextureScale": 1 },
|
|
{ "floor": 175, "eventType": "ColorTrack", "trackColorType": "Single", "trackColor": "debb7b", "secondaryTrackColor": "ffffff", "trackColorAnimDuration": 2, "trackColorPulse": "None", "trackPulseLength": 10, "trackStyle": "Standard", "trackTexture": "", "trackTextureScale": 1 },
|
|
{ "floor": 197, "eventType": "ColorTrack", "trackColorType": "Single", "trackColor": "93cb5eff", "secondaryTrackColor": "ffffff", "trackColorAnimDuration": 2, "trackColorPulse": "None", "trackPulseLength": 10, "trackStyle": "Standard", "trackTexture": "", "trackTextureScale": 1 },
|
|
{ "floor": 217, "eventType": "ColorTrack", "trackColorType": "Single", "trackColor": "debb7b", "secondaryTrackColor": "ffffff", "trackColorAnimDuration": 2, "trackColorPulse": "None", "trackPulseLength": 10, "trackStyle": "Standard", "trackTexture": "", "trackTextureScale": 1 },
|
|
{ "floor": 217, "eventType": "SetSpeed", "speedType": "Multiplier", "beatsPerMinute": 100, "bpmMultiplier": 2 },
|
|
{ "floor": 239, "eventType": "ColorTrack", "trackColorType": "Single", "trackColor": "a8de7bff", "secondaryTrackColor": "ffffff", "trackColorAnimDuration": 2, "trackColorPulse": "None", "trackPulseLength": 10, "trackStyle": "Standard", "trackTexture": "", "trackTextureScale": 1 },
|
|
{ "floor": 269, "eventType": "ColorTrack", "trackColorType": "Single", "trackColor": "debb7b", "secondaryTrackColor": "ffffff", "trackColorAnimDuration": 2, "trackColorPulse": "None", "trackPulseLength": 10, "trackStyle": "Standard", "trackTexture": "", "trackTextureScale": 1 },
|
|
{ "floor": 293, "eventType": "ColorTrack", "trackColorType": "Single", "trackColor": "73d877ff", "secondaryTrackColor": "ffffff", "trackColorAnimDuration": 2, "trackColorPulse": "None", "trackPulseLength": 10, "trackStyle": "Standard", "trackTexture": "", "trackTextureScale": 1 },
|
|
{ "floor": 329, "eventType": "ColorTrack", "trackColorType": "Single", "trackColor": "debb7b", "secondaryTrackColor": "ffffff", "trackColorAnimDuration": 2, "trackColorPulse": "None", "trackPulseLength": 10, "trackStyle": "Standard", "trackTexture": "", "trackTextureScale": 1 },
|
|
{ "floor": 355, "eventType": "ColorTrack", "trackColorType": "Single", "trackColor": "63c6d5ff", "secondaryTrackColor": "ffffff", "trackColorAnimDuration": 2, "trackColorPulse": "None", "trackPulseLength": 10, "trackStyle": "Standard", "trackTexture": "", "trackTextureScale": 1 },
|
|
{ "floor": 377, "eventType": "SetSpeed", "speedType": "Multiplier", "beatsPerMinute": 100, "bpmMultiplier": 0.5 },
|
|
{ "floor": 378, "eventType": "ColorTrack", "trackColorType": "Single", "trackColor": "debb7b", "secondaryTrackColor": "ffffff", "trackColorAnimDuration": 2, "trackColorPulse": "None", "trackPulseLength": 10, "trackStyle": "Standard", "trackTexture": "", "trackTextureScale": 1 },
|
|
{ "floor": 386, "eventType": "ColorTrack", "trackColorType": "Single", "trackColor": "7bde7cff", "secondaryTrackColor": "ffffff", "trackColorAnimDuration": 2, "trackColorPulse": "None", "trackPulseLength": 10, "trackStyle": "Standard", "trackTexture": "", "trackTextureScale": 1 },
|
|
{ "floor": 396, "eventType": "ColorTrack", "trackColorType": "Single", "trackColor": "debb7b", "secondaryTrackColor": "ffffff", "trackColorAnimDuration": 2, "trackColorPulse": "None", "trackPulseLength": 10, "trackStyle": "Standard", "trackTexture": "", "trackTextureScale": 1 },
|
|
{ "floor": 420, "eventType": "ColorTrack", "trackColorType": "Single", "trackColor": "53bba1ff", "secondaryTrackColor": "ffffff", "trackColorAnimDuration": 2, "trackColorPulse": "None", "trackPulseLength": 10, "trackStyle": "Standard", "trackTexture": "", "trackTextureScale": 1 },
|
|
{ "floor": 438, "eventType": "ColorTrack", "trackColorType": "Single", "trackColor": "debb7b", "secondaryTrackColor": "ffffff", "trackColorAnimDuration": 2, "trackColorPulse": "None", "trackPulseLength": 10, "trackStyle": "Standard", "trackTexture": "", "trackTextureScale": 1 },
|
|
{ "floor": 450, "eventType": "ColorTrack", "trackColorType": "Single", "trackColor": "85de7bff", "secondaryTrackColor": "ffffff", "trackColorAnimDuration": 2, "trackColorPulse": "None", "trackPulseLength": 10, "trackStyle": "Standard", "trackTexture": "", "trackTextureScale": 1 },
|
|
{ "floor": 462, "eventType": "ColorTrack", "trackColorType": "Single", "trackColor": "debb7b", "secondaryTrackColor": "ffffff", "trackColorAnimDuration": 2, "trackColorPulse": "None", "trackPulseLength": 10, "trackStyle": "Standard", "trackTexture": "", "trackTextureScale": 1 },
|
|
{ "floor": 484, "eventType": "ColorTrack", "trackColorType": "Single", "trackColor": "7bde85ff", "secondaryTrackColor": "ffffff", "trackColorAnimDuration": 2, "trackColorPulse": "None", "trackPulseLength": 10, "trackStyle": "Standard", "trackTexture": "", "trackTextureScale": 1 },
|
|
{ "floor": 503, "eventType": "Pause", "duration": 2, "countdownTicks": 0, "angleCorrectionDir": -1 },
|
|
{ "floor": 504, "eventType": "AnimateTrack", "trackAnimation": "Assemble", "beatsAhead": 2, "trackDisappearAnimation": "None", "beatsBehind": 4 },
|
|
{ "floor": 504, "eventType": "SetSpeed", "speedType": "Multiplier", "beatsPerMinute": 100, "bpmMultiplier": 2 },
|
|
{ "floor": 504, "eventType": "ColorTrack", "trackColorType": "Single", "trackColor": "589bc1ff", "secondaryTrackColor": "ffffff", "trackColorAnimDuration": 2, "trackColorPulse": "None", "trackPulseLength": 10, "trackStyle": "Standard", "trackTexture": "", "trackTextureScale": 1 },
|
|
{ "floor": 505, "eventType": "AnimateTrack", "trackAnimation": "None", "beatsAhead": 3, "trackDisappearAnimation": "None", "beatsBehind": 4 },
|
|
{ "floor": 526, "eventType": "ColorTrack", "trackColorType": "Single", "trackColor": "debb7b", "secondaryTrackColor": "ffffff", "trackColorAnimDuration": 2, "trackColorPulse": "None", "trackPulseLength": 10, "trackStyle": "Standard", "trackTexture": "", "trackTextureScale": 1 },
|
|
{ "floor": 568, "eventType": "ColorTrack", "trackColorType": "Single", "trackColor": "77c176ff", "secondaryTrackColor": "ffffff", "trackColorAnimDuration": 2, "trackColorPulse": "None", "trackPulseLength": 10, "trackStyle": "Standard", "trackTexture": "", "trackTextureScale": 1 },
|
|
{ "floor": 592, "eventType": "ColorTrack", "trackColorType": "Single", "trackColor": "debb7b", "secondaryTrackColor": "ffffff", "trackColorAnimDuration": 2, "trackColorPulse": "None", "trackPulseLength": 10, "trackStyle": "Standard", "trackTexture": "", "trackTextureScale": 1 },
|
|
{ "floor": 646, "eventType": "SetSpeed", "speedType": "Multiplier", "beatsPerMinute": 100, "bpmMultiplier": 0.25 },
|
|
{ "floor": 648, "eventType": "SetSpeed", "speedType": "Multiplier", "beatsPerMinute": 100, "bpmMultiplier": 2 },
|
|
{ "floor": 650, "eventType": "SetSpeed", "speedType": "Multiplier", "beatsPerMinute": 100, "bpmMultiplier": 2 },
|
|
{ "floor": 654, "eventType": "ColorTrack", "trackColorType": "Single", "trackColor": "5ec468ff", "secondaryTrackColor": "ffffff", "trackColorAnimDuration": 2, "trackColorPulse": "None", "trackPulseLength": 10, "trackStyle": "Standard", "trackTexture": "", "trackTextureScale": 1 },
|
|
{ "floor": 678, "eventType": "SetSpeed", "speedType": "Multiplier", "beatsPerMinute": 100, "bpmMultiplier": 0.5 },
|
|
{ "floor": 678, "eventType": "ColorTrack", "trackColorType": "Single", "trackColor": "b634bcff", "secondaryTrackColor": "ffffff", "trackColorAnimDuration": 2, "trackColorPulse": "None", "trackPulseLength": 10, "trackStyle": "Standard", "trackTexture": "", "trackTextureScale": 1 },
|
|
{ "floor": 690, "eventType": "SetSpeed", "speedType": "Multiplier", "beatsPerMinute": 100, "bpmMultiplier": 2 },
|
|
{ "floor": 702, "eventType": "SetSpeed", "speedType": "Multiplier", "beatsPerMinute": 100, "bpmMultiplier": 0.5 },
|
|
{ "floor": 704, "eventType": "ColorTrack", "trackColorType": "Single", "trackColor": "debb7b", "secondaryTrackColor": "ffffff", "trackColorAnimDuration": 2, "trackColorPulse": "None", "trackPulseLength": 10, "trackStyle": "Standard", "trackTexture": "", "trackTextureScale": 1 },
|
|
{ "floor": 712, "eventType": "ColorTrack", "trackColorType": "Single", "trackColor": "7bde8bff", "secondaryTrackColor": "ffffff", "trackColorAnimDuration": 2, "trackColorPulse": "None", "trackPulseLength": 10, "trackStyle": "Standard", "trackTexture": "", "trackTextureScale": 1 },
|
|
{ "floor": 720, "eventType": "ColorTrack", "trackColorType": "Single", "trackColor": "debb7b", "secondaryTrackColor": "ffffff", "trackColorAnimDuration": 2, "trackColorPulse": "None", "trackPulseLength": 10, "trackStyle": "Standard", "trackTexture": "", "trackTextureScale": 1 },
|
|
{ "floor": 728, "eventType": "ColorTrack", "trackColorType": "Single", "trackColor": "3ec840ff", "secondaryTrackColor": "ffffff", "trackColorAnimDuration": 2, "trackColorPulse": "None", "trackPulseLength": 10, "trackStyle": "Standard", "trackTexture": "", "trackTextureScale": 1 },
|
|
{ "floor": 736, "eventType": "ColorTrack", "trackColorType": "Single", "trackColor": "debb7b", "secondaryTrackColor": "ffffff", "trackColorAnimDuration": 2, "trackColorPulse": "None", "trackPulseLength": 10, "trackStyle": "Standard", "trackTexture": "", "trackTextureScale": 1 },
|
|
{ "floor": 736, "eventType": "SetSpeed", "speedType": "Multiplier", "beatsPerMinute": 100, "bpmMultiplier": 2 },
|
|
{ "floor": 744, "eventType": "ColorTrack", "trackColorType": "Single", "trackColor": "85de7bff", "secondaryTrackColor": "ffffff", "trackColorAnimDuration": 2, "trackColorPulse": "None", "trackPulseLength": 10, "trackStyle": "Standard", "trackTexture": "", "trackTextureScale": 1 },
|
|
{ "floor": 752, "eventType": "ColorTrack", "trackColorType": "Single", "trackColor": "debb7b", "secondaryTrackColor": "ffffff", "trackColorAnimDuration": 2, "trackColorPulse": "None", "trackPulseLength": 10, "trackStyle": "Standard", "trackTexture": "", "trackTextureScale": 1 },
|
|
{ "floor": 778, "eventType": "ColorTrack", "trackColorType": "Single", "trackColor": "8ede7bff", "secondaryTrackColor": "ffffff", "trackColorAnimDuration": 2, "trackColorPulse": "None", "trackPulseLength": 10, "trackStyle": "Standard", "trackTexture": "", "trackTextureScale": 1 },
|
|
{ "floor": 820, "eventType": "ColorTrack", "trackColorType": "Single", "trackColor": "debb7b", "secondaryTrackColor": "ffffff", "trackColorAnimDuration": 2, "trackColorPulse": "None", "trackPulseLength": 10, "trackStyle": "Standard", "trackTexture": "", "trackTextureScale": 1 },
|
|
{ "floor": 844, "eventType": "ColorTrack", "trackColorType": "Single", "trackColor": "83de7bff", "secondaryTrackColor": "ffffff", "trackColorAnimDuration": 2, "trackColorPulse": "None", "trackPulseLength": 10, "trackStyle": "Standard", "trackTexture": "", "trackTextureScale": 1 },
|
|
{ "floor": 886, "eventType": "ColorTrack", "trackColorType": "Single", "trackColor": "debb7b", "secondaryTrackColor": "ffffff", "trackColorAnimDuration": 2, "trackColorPulse": "None", "trackPulseLength": 10, "trackStyle": "Standard", "trackTexture": "", "trackTextureScale": 1 },
|
|
{ "floor": 910, "eventType": "ColorTrack", "trackColorType": "Single", "trackColor": "89e481ff", "secondaryTrackColor": "ffffff", "trackColorAnimDuration": 2, "trackColorPulse": "None", "trackPulseLength": 10, "trackStyle": "Standard", "trackTexture": "", "trackTextureScale": 1 },
|
|
{ "floor": 950, "eventType": "ColorTrack", "trackColorType": "Single", "trackColor": "debb7b", "secondaryTrackColor": "ffffff", "trackColorAnimDuration": 2, "trackColorPulse": "None", "trackPulseLength": 10, "trackStyle": "Standard", "trackTexture": "", "trackTextureScale": 1 },
|
|
{ "floor": 963, "eventType": "SetSpeed", "speedType": "Multiplier", "beatsPerMinute": 100, "bpmMultiplier": 0.5 },
|
|
{ "floor": 963, "eventType": "Pause", "duration": 2.25, "countdownTicks": 0, "angleCorrectionDir": -1 },
|
|
{ "floor": 964, "eventType": "SetSpeed", "speedType": "Multiplier", "beatsPerMinute": 100, "bpmMultiplier": 2 },
|
|
{ "floor": 964, "eventType": "AnimateTrack", "trackAnimation": "Assemble", "beatsAhead": 2, "trackDisappearAnimation": "None", "beatsBehind": 4 },
|
|
{ "floor": 965, "eventType": "AnimateTrack", "trackAnimation": "None", "beatsAhead": 3, "trackDisappearAnimation": "None", "beatsBehind": 4 },
|
|
{ "floor": 1056, "eventType": "SetSpeed", "speedType": "Multiplier", "beatsPerMinute": 100, "bpmMultiplier": 0.5 }
|
|
]
|
|
"decorations":
|
|
[
|
|
]
|
|
}
|