adofai-slow-motion/motion.adofai

137 lines
20 KiB
Plaintext

{
"angleData": [0, 0, 0, 0, 0, 0, 0, 90, 999, 0, 0, 0, 0, 0, 0, 0, 0, 90, 999, 0, 0, 0, 0, 0, 0, 0, 0, 90, 999, 0, 90, 999, 0, 0, 0, 0, 0, 90, 999, 0, 90, 999, 0, 0, 90, 999, 0, 0, 0, 0, 0, 0, 0, 90, 999, 0, 90, 999, 0, 0, 0, 0, 0, 0, 0, 90, 999, 0, 90, 999, 0, 0, 0, 90, 999, 0, 90, 999, 0, 0, 0, 90, 999, 0, 90, 999, 0, 0, 0, 0, 0, 0, 0, 0, 0, 0, 0, 0, 0, 0, 0, 0, 0, 0, 0, 0, 0, 0, 0, 90, 999, 0, 90, 999, 0, 90, 999, 0, 90, 999, 0, 90, 999, 0, 90, 999, 0, 90, 999, 0, 90, 999, 0, 90, 999, 0, 90, 999, 0, 90, 999, 0, 90, 999, 0, 90, 999, 0, 0, 0, 0, 90, 999, 0, 0, 0, 0, 90, 999, 0, 0, 0, 0, 90, 999, 0, 0, 0, 0, 90, 999, 0, 0, 0, 0, 90, 999, 0, 90, 999, 0, 90, 999, 0, 90, 999, 0, 90, 999, 270, 0, 90, 999, 0, 90, 999, 0, 90, 999, 0, 90, 999, 0, 0, 90, 999, 0, 90, 999, 0, 90, 999, 0, 90, 999, 0, 90, 999, 270, 0, 0, 0, 0, 0, 90, 999, 0, 0, 0, 0, 0, 90, 999, 0, 0, 0, 0, 0, 90, 999, 0, 90, 999, 0, 0, 0, 0, 0, 0, 0, 90, 999, 0, 90, 999, 270, 0, 90, 999, 0, 90, 999, 0, 90, 999, 0, 0, 0, 90, 999, 0, 90, 999, 0, 0, 0, 0, 0, 90, 999, 0, 0, 0, 0, 0, 90, 999, 0, 0, 0, 0, 0, 90, 999, 0, 90, 999, 270, 0, 90, 999, 0, 0, 90, 999, 270, 0, 90, 999, 0, 0, 0, 90, 999, 0, 90, 999, 0, 90, 999, 0, 90, 999, 0, 90, 999, 270, 0, 90, 999, 0, 90, 999, 0, 90, 999, 0, 0, 0, 0, 0, 0, 90, 999, 0, 90, 999, 0, 0, 0, 0, 0, 0, 0, 90, 999, 0, 90, 999, 0, 0, 0, 90, 999, 0, 90, 999, 0, 0, 0, 90, 999, 0, 90, 999, 0, 0, 0, 0, 0, 0, 0, 0, 0, 0, 0, 0, 0, 0, 0, 0, 0, 0, 0, 0, 0, 0, 0, 90, 999, 0, 90, 999, 0, 90, 999, 0, 90, 999, 0, 90, 999, 0, 90, 999, 0, 90, 999, 0, 90, 999, 0, 90, 999, 0, 90, 999, 0, 90, 999, 0, 90, 999, 0, 90, 999, 0, 0, 0, 0, 90, 999, 0, 0, 0, 0, 90, 999, 0, 0, 0, 0, 90, 999, 0, 0, 0, 0, 90, 999, 0, 0, 0, 0, 90, 999, 0, 90, 999, 0, 90, 999, 0, 90, 999, 0, 90, 999, 270, 0, 90, 999, 0, 90, 999, 0, 90, 999, 0, 90, 999, 0, 90, 999, 0, 90, 999, 0, 90, 999, 0, 90, 999, 0, 90, 999, 0, 90, 0, 0, 0, 0, 0, 90, 999, 0, 0, 0, 0, 0, 90, 999, 0, 0, 0, 0, 0, 90, 999, 0, 90, 999, 0, 90, 999, 0, 90, 999, 0, 90, 999, 0, 90, 999, 0, 90, 999, 0, 90, 999, 0, 90, 999, 0, 0, 90, 999, 0, 90, 999, 0, 90, 999, 0, 90, 999, 0, 0, 0, 90, 999, 0, 90, 999, 0, 0, 0, 0, 0, 90, 999, 0, 0, 0, 0, 0, 90, 999, 0, 0, 0, 0, 0, 90, 999, 0, 90, 999, 270, 0, 90, 999, 0, 90, 999, 0, 90, 999, 270, 0, 90, 999, 0, 0, 0, 90, 999, 0, 90, 999, 0, 90, 999, 0, 90, 999, 0, 90, 999, 270, 0, 90, 999, 0, 90, 999, 0, 90, -90, 270, 0, 270, 270, 0, 0, 90, -90, 270, 0, 0, 90, 0, 0, 0, 0, 0, 0, 0, 0, 0, 0, 0, 0, 90, 999, 0, 90, 999, 0, 90, 999, 0, 90, 999, 0, 0, 0, 0, 0, 0, 0, 0, 0, 0, 0, 90, 999, 0, 90, 999, 0, 90, 999, 0, 90, 999, 0, 90, 999, 0, 90, 999, 0, 90, 999, 0, 90, 999, 0, 0, 0, 0, 0, 0, 0, 0, 0, 0, 0, 0, 0, 0, 0, 0, 0, 0, 0, 0, 0, 0, 0, 0, 0, 0, 0, 0, 0, 0, 0, 0, 0, 0, 0, 0, 0, 0, 0, 0, 0, 0, 0, 0, 0, 0, 0, 0, 0, 0, 0, 90, 0, 0, 90, 999, 270, 0, 90, 999, 0, 90, 999, 0, 90, 999, 0, 0, 90, 999, 0, 0, 0, 0, 0, 0, 0, 90, 999, 0, 90, 999, 0, 90, 999, 0, 90, 999, 0, 90, 999, 0, 90, 999, 0, 90, 999, 0, 0, 90, 999, 0, 90, 999, 0, 90, 999, 0, 90, 999, 0, 0, 0, 90, 999, 0, 90, 999, 0, 0, 0, 0, 0, 90, 999, 0, 0, 0, 0, 0, 90, 999, 0, 0, 0, 0, 0, 90, 999, 0, 90, 999, 270, 0, 90, 999, 0, 90, 999, 0, 90, 999, 0, 90, 999, 0, 90, 999, 0, 90, 999, 0, 0, 90, 999, 0, 90, 999, 0, 90, 999, 0, 90, 999, 270, 0, 90, 999, 0, 90, 999, 0, 90, 999, 0, 0, 0, 0, 0, 90, 999, 0, 0, 0, 0, 0, 90, 999, 0, 0, 0, 0, 0, 90, 999, 0, 90, 999, 270, 0, 90, 999, 0, 0, 90, 999, 270, 0, 90, 999, 0, 90, 999, 0, 0, 90, 999, 0, 90, 999, 0, 90, 999, 0, 90, 999, 0, 90, 999, 0, 90, 999, 0, 90, 999, 0, 90, 999, 0, 90, 999, 0, 90, 999, 0, 90, 999, 0, 90, 999, 0, 90, 0, 0, 0, 0, 0, 0, 0, 0, 0, 0, 0, 0, 0, 0, 0, 0, 90, 999, 0, 0, 0, 0, 0, 0, 0, 0, 0, 0, 0, 0, 0, 0, 0, 90, 999, 0, 90, 999, 0, 0, 0, 0, 0, 0, 0, 90, 999, 0, 90, 999, 0, 0, 0, 0, 0, 0, 0, 90, 999, 0, 90, 999, 0, 0, 0, 90, 999, 0, 90, 999, 0, 0, 0, 90, 999, 0, 90, 999, 0, 0, 0, 0, 90, 999, 270, 0, 90, 999, 0, 0, 90, 999, 0, 0, 45],
"settings":
{
"version": 10 ,
"artist": "匹诺曹p",
"specialArtistType": "None",
"artistPermission": "",
"song": "slow motion",
"author": "tls",
"separateCountdownTime": "Enabled",
"previewImage": "",
"previewIcon": "",
"previewIconColor": "003f52",
"previewSongStart": 0,
"previewSongDuration": 10,
"seizureWarning": "Disabled",
"levelDesc": "",
"levelTags": "",
"artistLinks": "",
"difficulty": 1,
"songFilename": "mo.ogg",
"bpm": 160,
"volume": 100,
"offset": 48,
"pitch": 100,
"hitsound": "Kick",
"hitsoundVolume": 100,
"countdownTicks": 4,
"trackColorType": "Single",
"trackColor": "debb7b",
"secondaryTrackColor": "ffffff",
"trackColorAnimDuration": 2,
"trackColorPulse": "None",
"trackPulseLength": 10,
"trackStyle": "Standard",
"trackAnimation": "None",
"beatsAhead": 3,
"trackDisappearAnimation": "None",
"beatsBehind": 4,
"backgroundColor": "000000",
"showDefaultBGIfNoImage": "Enabled",
"bgImage": "",
"bgImageColor": "ffffff",
"parallax": [100, 100],
"bgDisplayMode": "FitToScreen",
"lockRot": "Disabled",
"loopBG": "Disabled",
"unscaledSize": 100,
"relativeTo": "Player",
"position": [0, 0],
"rotation": 0,
"zoom": 100,
"bgVideo": "",
"loopVideo": "Disabled",
"vidOffset": 0,
"floorIconOutlines": "Disabled",
"stickToFloors": "Enabled",
"planetEase": "Linear",
"planetEaseParts": 1,
"planetEasePartBehavior": "Mirror",
"customClass": "",
"legacyFlash": false ,
"legacySpriteTiles": false
},
"actions":
[
{ "floor": 21, "eventType": "ColorTrack", "trackColorType": "Single", "trackColor": "7ba6deff", "secondaryTrackColor": "ffffff", "trackColorAnimDuration": 2, "trackColorPulse": "None", "trackPulseLength": 10, "trackStyle": "Standard", "trackTexture": "", "trackTextureScale": 1 },
{ "floor": 47, "eventType": "ColorTrack", "trackColorType": "Single", "trackColor": "debb7b", "secondaryTrackColor": "ffffff", "trackColorAnimDuration": 2, "trackColorPulse": "None", "trackPulseLength": 10, "trackStyle": "Standard", "trackTexture": "", "trackTextureScale": 1 },
{ "floor": 71, "eventType": "ColorTrack", "trackColorType": "Single", "trackColor": "3cd1acff", "secondaryTrackColor": "ffffff", "trackColorAnimDuration": 2, "trackColorPulse": "None", "trackPulseLength": 10, "trackStyle": "Standard", "trackTexture": "", "trackTextureScale": 1 },
{ "floor": 93, "eventType": "SetSpeed", "speedType": "Multiplier", "beatsPerMinute": 100, "bpmMultiplier": 0.5 },
{ "floor": 94, "eventType": "ColorTrack", "trackColorType": "Single", "trackColor": "debb7b", "secondaryTrackColor": "ffffff", "trackColorAnimDuration": 2, "trackColorPulse": "None", "trackPulseLength": 10, "trackStyle": "Standard", "trackTexture": "", "trackTextureScale": 1 },
{ "floor": 102, "eventType": "ColorTrack", "trackColorType": "Single", "trackColor": "72d192ff", "secondaryTrackColor": "ffffff", "trackColorAnimDuration": 2, "trackColorPulse": "None", "trackPulseLength": 10, "trackStyle": "Standard", "trackTexture": "", "trackTextureScale": 1 },
{ "floor": 112, "eventType": "ColorTrack", "trackColorType": "Single", "trackColor": "debb7b", "secondaryTrackColor": "ffffff", "trackColorAnimDuration": 2, "trackColorPulse": "None", "trackPulseLength": 10, "trackStyle": "Standard", "trackTexture": "", "trackTextureScale": 1 },
{ "floor": 136, "eventType": "ColorTrack", "trackColorType": "Single", "trackColor": "77d54dff", "secondaryTrackColor": "ffffff", "trackColorAnimDuration": 2, "trackColorPulse": "None", "trackPulseLength": 10, "trackStyle": "Standard", "trackTexture": "", "trackTextureScale": 1 },
{ "floor": 154, "eventType": "ColorTrack", "trackColorType": "Single", "trackColor": "debb7b", "secondaryTrackColor": "ffffff", "trackColorAnimDuration": 2, "trackColorPulse": "None", "trackPulseLength": 10, "trackStyle": "Standard", "trackTexture": "", "trackTextureScale": 1 },
{ "floor": 166, "eventType": "ColorTrack", "trackColorType": "Single", "trackColor": "43cf3cff", "secondaryTrackColor": "ffffff", "trackColorAnimDuration": 2, "trackColorPulse": "None", "trackPulseLength": 10, "trackStyle": "Standard", "trackTexture": "", "trackTextureScale": 1 },
{ "floor": 178, "eventType": "ColorTrack", "trackColorType": "Single", "trackColor": "debb7b", "secondaryTrackColor": "ffffff", "trackColorAnimDuration": 2, "trackColorPulse": "None", "trackPulseLength": 10, "trackStyle": "Standard", "trackTexture": "", "trackTextureScale": 1 },
{ "floor": 200, "eventType": "ColorTrack", "trackColorType": "Single", "trackColor": "93cb5eff", "secondaryTrackColor": "ffffff", "trackColorAnimDuration": 2, "trackColorPulse": "None", "trackPulseLength": 10, "trackStyle": "Standard", "trackTexture": "", "trackTextureScale": 1 },
{ "floor": 220, "eventType": "ColorTrack", "trackColorType": "Single", "trackColor": "debb7b", "secondaryTrackColor": "ffffff", "trackColorAnimDuration": 2, "trackColorPulse": "None", "trackPulseLength": 10, "trackStyle": "Standard", "trackTexture": "", "trackTextureScale": 1 },
{ "floor": 220, "eventType": "SetSpeed", "speedType": "Multiplier", "beatsPerMinute": 100, "bpmMultiplier": 2 },
{ "floor": 244, "eventType": "ColorTrack", "trackColorType": "Single", "trackColor": "a8de7bff", "secondaryTrackColor": "ffffff", "trackColorAnimDuration": 2, "trackColorPulse": "None", "trackPulseLength": 10, "trackStyle": "Standard", "trackTexture": "", "trackTextureScale": 1 },
{ "floor": 274, "eventType": "ColorTrack", "trackColorType": "Single", "trackColor": "debb7b", "secondaryTrackColor": "ffffff", "trackColorAnimDuration": 2, "trackColorPulse": "None", "trackPulseLength": 10, "trackStyle": "Standard", "trackTexture": "", "trackTextureScale": 1 },
{ "floor": 298, "eventType": "ColorTrack", "trackColorType": "Single", "trackColor": "73d877ff", "secondaryTrackColor": "ffffff", "trackColorAnimDuration": 2, "trackColorPulse": "None", "trackPulseLength": 10, "trackStyle": "Standard", "trackTexture": "", "trackTextureScale": 1 },
{ "floor": 334, "eventType": "ColorTrack", "trackColorType": "Single", "trackColor": "debb7b", "secondaryTrackColor": "ffffff", "trackColorAnimDuration": 2, "trackColorPulse": "None", "trackPulseLength": 10, "trackStyle": "Standard", "trackTexture": "", "trackTextureScale": 1 },
{ "floor": 360, "eventType": "ColorTrack", "trackColorType": "Single", "trackColor": "63c6d5ff", "secondaryTrackColor": "ffffff", "trackColorAnimDuration": 2, "trackColorPulse": "None", "trackPulseLength": 10, "trackStyle": "Standard", "trackTexture": "", "trackTextureScale": 1 },
{ "floor": 382, "eventType": "SetSpeed", "speedType": "Multiplier", "beatsPerMinute": 100, "bpmMultiplier": 0.5 },
{ "floor": 383, "eventType": "ColorTrack", "trackColorType": "Single", "trackColor": "debb7b", "secondaryTrackColor": "ffffff", "trackColorAnimDuration": 2, "trackColorPulse": "None", "trackPulseLength": 10, "trackStyle": "Standard", "trackTexture": "", "trackTextureScale": 1 },
{ "floor": 391, "eventType": "ColorTrack", "trackColorType": "Single", "trackColor": "7bde7cff", "secondaryTrackColor": "ffffff", "trackColorAnimDuration": 2, "trackColorPulse": "None", "trackPulseLength": 10, "trackStyle": "Standard", "trackTexture": "", "trackTextureScale": 1 },
{ "floor": 401, "eventType": "ColorTrack", "trackColorType": "Single", "trackColor": "debb7b", "secondaryTrackColor": "ffffff", "trackColorAnimDuration": 2, "trackColorPulse": "None", "trackPulseLength": 10, "trackStyle": "Standard", "trackTexture": "", "trackTextureScale": 1 },
{ "floor": 425, "eventType": "ColorTrack", "trackColorType": "Single", "trackColor": "53bba1ff", "secondaryTrackColor": "ffffff", "trackColorAnimDuration": 2, "trackColorPulse": "None", "trackPulseLength": 10, "trackStyle": "Standard", "trackTexture": "", "trackTextureScale": 1 },
{ "floor": 443, "eventType": "ColorTrack", "trackColorType": "Single", "trackColor": "debb7b", "secondaryTrackColor": "ffffff", "trackColorAnimDuration": 2, "trackColorPulse": "None", "trackPulseLength": 10, "trackStyle": "Standard", "trackTexture": "", "trackTextureScale": 1 },
{ "floor": 455, "eventType": "ColorTrack", "trackColorType": "Single", "trackColor": "85de7bff", "secondaryTrackColor": "ffffff", "trackColorAnimDuration": 2, "trackColorPulse": "None", "trackPulseLength": 10, "trackStyle": "Standard", "trackTexture": "", "trackTextureScale": 1 },
{ "floor": 467, "eventType": "ColorTrack", "trackColorType": "Single", "trackColor": "debb7b", "secondaryTrackColor": "ffffff", "trackColorAnimDuration": 2, "trackColorPulse": "None", "trackPulseLength": 10, "trackStyle": "Standard", "trackTexture": "", "trackTextureScale": 1 },
{ "floor": 489, "eventType": "ColorTrack", "trackColorType": "Single", "trackColor": "7bde85ff", "secondaryTrackColor": "ffffff", "trackColorAnimDuration": 2, "trackColorPulse": "None", "trackPulseLength": 10, "trackStyle": "Standard", "trackTexture": "", "trackTextureScale": 1 },
{ "floor": 508, "eventType": "Pause", "duration": 2, "countdownTicks": 0, "angleCorrectionDir": -1 },
{ "floor": 509, "eventType": "AnimateTrack", "trackAnimation": "Assemble", "beatsAhead": 2, "trackDisappearAnimation": "None", "beatsBehind": 4 },
{ "floor": 509, "eventType": "SetSpeed", "speedType": "Multiplier", "beatsPerMinute": 100, "bpmMultiplier": 2 },
{ "floor": 509, "eventType": "ColorTrack", "trackColorType": "Single", "trackColor": "589bc1ff", "secondaryTrackColor": "ffffff", "trackColorAnimDuration": 2, "trackColorPulse": "None", "trackPulseLength": 10, "trackStyle": "Standard", "trackTexture": "", "trackTextureScale": 1 },
{ "floor": 510, "eventType": "AnimateTrack", "trackAnimation": "None", "beatsAhead": 3, "trackDisappearAnimation": "None", "beatsBehind": 4 },
{ "floor": 533, "eventType": "ColorTrack", "trackColorType": "Single", "trackColor": "debb7b", "secondaryTrackColor": "ffffff", "trackColorAnimDuration": 2, "trackColorPulse": "None", "trackPulseLength": 10, "trackStyle": "Standard", "trackTexture": "", "trackTextureScale": 1 },
{ "floor": 575, "eventType": "ColorTrack", "trackColorType": "Single", "trackColor": "77c176ff", "secondaryTrackColor": "ffffff", "trackColorAnimDuration": 2, "trackColorPulse": "None", "trackPulseLength": 10, "trackStyle": "Standard", "trackTexture": "", "trackTextureScale": 1 },
{ "floor": 599, "eventType": "ColorTrack", "trackColorType": "Single", "trackColor": "debb7b", "secondaryTrackColor": "ffffff", "trackColorAnimDuration": 2, "trackColorPulse": "None", "trackPulseLength": 10, "trackStyle": "Standard", "trackTexture": "", "trackTextureScale": 1 },
{ "floor": 653, "eventType": "SetSpeed", "speedType": "Multiplier", "beatsPerMinute": 100, "bpmMultiplier": 0.25 },
{ "floor": 655, "eventType": "SetSpeed", "speedType": "Multiplier", "beatsPerMinute": 100, "bpmMultiplier": 2 },
{ "floor": 657, "eventType": "SetSpeed", "speedType": "Multiplier", "beatsPerMinute": 100, "bpmMultiplier": 2 },
{ "floor": 661, "eventType": "ColorTrack", "trackColorType": "Single", "trackColor": "5ec468ff", "secondaryTrackColor": "ffffff", "trackColorAnimDuration": 2, "trackColorPulse": "None", "trackPulseLength": 10, "trackStyle": "Standard", "trackTexture": "", "trackTextureScale": 1 },
{ "floor": 685, "eventType": "SetSpeed", "speedType": "Multiplier", "beatsPerMinute": 100, "bpmMultiplier": 0.5 },
{ "floor": 685, "eventType": "ColorTrack", "trackColorType": "Single", "trackColor": "b634bcff", "secondaryTrackColor": "ffffff", "trackColorAnimDuration": 2, "trackColorPulse": "None", "trackPulseLength": 10, "trackStyle": "Standard", "trackTexture": "", "trackTextureScale": 1 },
{ "floor": 697, "eventType": "SetSpeed", "speedType": "Multiplier", "beatsPerMinute": 100, "bpmMultiplier": 2 },
{ "floor": 709, "eventType": "SetSpeed", "speedType": "Multiplier", "beatsPerMinute": 100, "bpmMultiplier": 0.5 },
{ "floor": 711, "eventType": "ColorTrack", "trackColorType": "Single", "trackColor": "debb7b", "secondaryTrackColor": "ffffff", "trackColorAnimDuration": 2, "trackColorPulse": "None", "trackPulseLength": 10, "trackStyle": "Standard", "trackTexture": "", "trackTextureScale": 1 },
{ "floor": 719, "eventType": "ColorTrack", "trackColorType": "Single", "trackColor": "7bde8bff", "secondaryTrackColor": "ffffff", "trackColorAnimDuration": 2, "trackColorPulse": "None", "trackPulseLength": 10, "trackStyle": "Standard", "trackTexture": "", "trackTextureScale": 1 },
{ "floor": 727, "eventType": "ColorTrack", "trackColorType": "Single", "trackColor": "debb7b", "secondaryTrackColor": "ffffff", "trackColorAnimDuration": 2, "trackColorPulse": "None", "trackPulseLength": 10, "trackStyle": "Standard", "trackTexture": "", "trackTextureScale": 1 },
{ "floor": 735, "eventType": "ColorTrack", "trackColorType": "Single", "trackColor": "3ec840ff", "secondaryTrackColor": "ffffff", "trackColorAnimDuration": 2, "trackColorPulse": "None", "trackPulseLength": 10, "trackStyle": "Standard", "trackTexture": "", "trackTextureScale": 1 },
{ "floor": 743, "eventType": "ColorTrack", "trackColorType": "Single", "trackColor": "debb7b", "secondaryTrackColor": "ffffff", "trackColorAnimDuration": 2, "trackColorPulse": "None", "trackPulseLength": 10, "trackStyle": "Standard", "trackTexture": "", "trackTextureScale": 1 },
{ "floor": 743, "eventType": "SetSpeed", "speedType": "Multiplier", "beatsPerMinute": 100, "bpmMultiplier": 2 },
{ "floor": 751, "eventType": "ColorTrack", "trackColorType": "Single", "trackColor": "85de7bff", "secondaryTrackColor": "ffffff", "trackColorAnimDuration": 2, "trackColorPulse": "None", "trackPulseLength": 10, "trackStyle": "Standard", "trackTexture": "", "trackTextureScale": 1 },
{ "floor": 759, "eventType": "ColorTrack", "trackColorType": "Single", "trackColor": "debb7b", "secondaryTrackColor": "ffffff", "trackColorAnimDuration": 2, "trackColorPulse": "None", "trackPulseLength": 10, "trackStyle": "Standard", "trackTexture": "", "trackTextureScale": 1 },
{ "floor": 785, "eventType": "ColorTrack", "trackColorType": "Single", "trackColor": "8ede7bff", "secondaryTrackColor": "ffffff", "trackColorAnimDuration": 2, "trackColorPulse": "None", "trackPulseLength": 10, "trackStyle": "Standard", "trackTexture": "", "trackTextureScale": 1 },
{ "floor": 827, "eventType": "ColorTrack", "trackColorType": "Single", "trackColor": "debb7b", "secondaryTrackColor": "ffffff", "trackColorAnimDuration": 2, "trackColorPulse": "None", "trackPulseLength": 10, "trackStyle": "Standard", "trackTexture": "", "trackTextureScale": 1 },
{ "floor": 851, "eventType": "ColorTrack", "trackColorType": "Single", "trackColor": "83de7bff", "secondaryTrackColor": "ffffff", "trackColorAnimDuration": 2, "trackColorPulse": "None", "trackPulseLength": 10, "trackStyle": "Standard", "trackTexture": "", "trackTextureScale": 1 },
{ "floor": 893, "eventType": "ColorTrack", "trackColorType": "Single", "trackColor": "debb7b", "secondaryTrackColor": "ffffff", "trackColorAnimDuration": 2, "trackColorPulse": "None", "trackPulseLength": 10, "trackStyle": "Standard", "trackTexture": "", "trackTextureScale": 1 },
{ "floor": 917, "eventType": "ColorTrack", "trackColorType": "Single", "trackColor": "89e481ff", "secondaryTrackColor": "ffffff", "trackColorAnimDuration": 2, "trackColorPulse": "None", "trackPulseLength": 10, "trackStyle": "Standard", "trackTexture": "", "trackTextureScale": 1 },
{ "floor": 957, "eventType": "ColorTrack", "trackColorType": "Single", "trackColor": "debb7b", "secondaryTrackColor": "ffffff", "trackColorAnimDuration": 2, "trackColorPulse": "None", "trackPulseLength": 10, "trackStyle": "Standard", "trackTexture": "", "trackTextureScale": 1 },
{ "floor": 970, "eventType": "SetSpeed", "speedType": "Multiplier", "beatsPerMinute": 100, "bpmMultiplier": 0.5 },
{ "floor": 970, "eventType": "Pause", "duration": 2.25, "countdownTicks": 0, "angleCorrectionDir": -1 },
{ "floor": 971, "eventType": "SetSpeed", "speedType": "Multiplier", "beatsPerMinute": 100, "bpmMultiplier": 2 },
{ "floor": 971, "eventType": "AnimateTrack", "trackAnimation": "Assemble", "beatsAhead": 2, "trackDisappearAnimation": "None", "beatsBehind": 4 },
{ "floor": 972, "eventType": "AnimateTrack", "trackAnimation": "None", "beatsAhead": 3, "trackDisappearAnimation": "None", "beatsBehind": 4 },
{ "floor": 1063, "eventType": "SetSpeed", "speedType": "Multiplier", "beatsPerMinute": 100, "bpmMultiplier": 0.5 }
]
"decorations":
[
]
}