139 lines
20 KiB
Plaintext
139 lines
20 KiB
Plaintext
{
|
|
"angleData": [0, 0, 0, 0, 0, 0, 0, 90, 999, 0, 0, 0, 0, 0, 0, 0, 0, 90, 999, 0, 0, 0, 0, 0, 0, 0, 0, 90, 999, 0, 90, 999, 0, 0, 270, 270, 0, 90, 999, 0, 0, 90, 999, 0, 0, 0, 0, 0, 0, 0, 90, 999, 0, 90, 999, 0, 0, 0, 0, 0, 0, 0, 90, 999, 0, 90, 999, 0, 0, 0, 90, 999, 0, 90, 999, 0, 0, 0, 90, 999, 0, 90, 999, 0, 0, 0, 0, 0, 0, 0, 0, 0, 0, 0, 0, 0, 0, 0, 0, 0, 0, 0, 0, 0, 0, 0, 90, 999, 0, 90, 999, 0, 90, 999, 0, 90, 999, 0, 90, 999, 0, 90, 999, 0, 90, 999, 0, 90, 999, 0, 90, 999, 0, 90, 999, 0, 90, 999, 0, 90, 999, 0, 90, 999, 0, 0, 0, 0, 90, 999, 0, 0, 0, 0, 90, 999, 0, 0, 0, 0, 90, 999, 0, 0, 0, 0, 90, 999, 0, 0, 0, 0, 90, 999, 0, 90, 999, 0, 90, 999, 0, 90, 999, 0, 90, 999, 270, 0, 90, 999, 0, 90, 999, 0, 90, 999, 0, 90, 999, 0, 0, 90, 999, 0, 90, 999, 0, 90, 999, 0, 90, 999, 0, 90, 999, 270, 0, 0, 0, 0, 0, 90, 999, 0, 0, 0, 0, 0, 90, 999, 0, 0, 0, 0, 0, 90, 999, 0, 90, 999, 0, 0, 0, 0, 0, 0, 0, 90, 999, 0, 90, 999, 270, 0, 90, 999, 0, 90, 999, 0, 90, 999, 0, 0, 0, 90, 999, 0, 90, 999, 0, 0, 0, 0, 0, 90, 999, 0, 0, 0, 0, 0, 90, 999, 0, 0, 0, 0, 0, 90, 999, 0, 90, 999, 270, 0, 90, 999, 0, 0, 90, 999, 270, 0, 90, 999, 0, 0, 0, 90, 999, 0, 90, 999, 0, 90, 999, 0, 90, 999, 0, 90, 999, 270, 0, 90, 999, 0, 90, 999, 0, 90, 999, 0, 0, 0, 0, 0, 0, 90, 999, 0, 90, 999, 0, 0, 0, 0, 0, 0, 0, 90, 999, 0, 90, 999, 0, 0, 0, 90, 999, 0, 90, 999, 0, 0, 0, 90, 999, 0, 90, 999, 0, 0, 0, 0, 0, 0, 0, 0, 0, 0, 0, 0, 0, 0, 0, 0, 0, 0, 0, 0, 0, 0, 0, 90, 999, 0, 90, 999, 0, 90, 999, 0, 90, 999, 0, 90, 999, 0, 90, 999, 0, 90, 999, 0, 90, 999, 0, 90, 999, 0, 90, 999, 0, 90, 999, 0, 90, 999, 0, 90, 999, 0, 0, 0, 0, 90, 999, 0, 0, 0, 0, 90, 999, 0, 0, 0, 0, 90, 999, 0, 0, 0, 0, 90, 999, 0, 0, 0, 0, 90, 999, 0, 90, 999, 0, 90, 999, 0, 90, 999, 0, 90, 999, 270, 0, 90, 999, 0, 90, 999, 0, 90, 999, 0, 90, 999, 0, 90, 999, 0, 90, 999, 0, 90, 999, 0, 90, 999, 0, 90, 999, 0, 90, 0, 0, 0, 0, 0, 90, 999, 0, 0, 0, 0, 0, 90, 999, 0, 0, 0, 0, 0, 90, 999, 0, 90, 999, 0, 90, 999, 0, 90, 999, 0, 90, 999, 0, 90, 999, 0, 90, 999, 0, 90, 999, 0, 90, 999, 0, 0, 90, 999, 0, 90, 999, 0, 90, 999, 0, 90, 999, 0, 0, 0, 90, 999, 0, 90, 999, 0, 0, 0, 0, 0, 90, 999, 0, 0, 0, 0, 0, 90, 999, 0, 0, 0, 0, 0, 90, 999, 0, 90, 999, 270, 0, 90, 999, 0, 90, 999, 0, 90, 999, 270, 0, 90, 999, 0, 0, 0, 90, 999, 0, 90, 999, 0, 90, 999, 0, 90, 999, 0, 90, 999, 270, 0, 90, 999, 0, 90, 999, 0, 90, -90, 270, 0, 270, 270, 0, 0, 90, -90, 270, 0, 0, 90, 0, 0, 0, 0, 0, 0, 0, 0, 0, 0, 0, 0, 90, 999, 0, 90, 999, 0, 90, 999, 0, 90, 999, 0, 0, 0, 0, 0, 0, 0, 0, 0, 0, 0, 90, 999, 0, 90, 999, 0, 90, 999, 0, 90, 999, 0, 90, 999, 0, 90, 999, 0, 90, 999, 0, 90, 999, 0, 0, 0, 0, 0, 0, 0, 0, 0, 0, 0, 0, 0, 0, 0, 0, 0, 0, 0, 0, 0, 0, 0, 0, 0, 0, 0, 0, 0, 0, 0, 0, 0, 0, 0, 0, 0, 0, 0, 0, 0, 0, 0, 0, 0, 0, 0, 0, 0, 0, 0, 90, 0, 0, 90, 999, 270, 0, 90, 999, 0, 90, 999, 0, 90, 999, 0, 0, 90, 999, 0, 0, 0, 0, 0, 0, 0, 90, 999, 0, 90, 999, 0, 90, 999, 0, 90, 999, 0, 90, 999, 0, 90, 999, 0, 90, 999, 0, 0, 90, 999, 0, 90, 999, 0, 90, 999, 0, 90, 999, 0, 0, 0, 90, 999, 0, 90, 999, 0, 0, 0, 0, 0, 90, 999, 0, 0, 0, 0, 0, 90, 999, 0, 0, 0, 0, 0, 90, 999, 0, 90, 999, 270, 0, 90, 999, 0, 90, 999, 0, 90, 999, 0, 90, 999, 0, 90, 999, 0, 90, 999, 0, 0, 90, 999, 0, 90, 999, 0, 90, 999, 0, 90, 999, 270, 0, 90, 999, 0, 90, 999, 0, 90, 999, 0, 0, 0, 0, 0, 90, 999, 0, 0, 0, 0, 0, 90, 999, 0, 0, 0, 0, 0, 90, 999, 0, 90, 999, 270, 0, 90, 999, 0, 0, 90, 999, 270, 0, 90, 999, 0, 90, 999, 0, 0, 90, 999, 0, 90, 999, 0, 90, 999, 0, 90, 999, 0, 90, 999, 0, 90, 999, 0, 90, 999, 0, 90, 999, 0, 90, 999, 0, 90, 999, 0, 90, 999, 0, 90, 999, 0, 90, 0, 0, 0, 0, 0, 0, 0, 0, 0, 0, 0, 0, 0, 0, 0, 0, 90, 999, 0, 0, 0, 0, 0, 0, 0, 0, 0, 0, 0, 0, 0, 0, 0, 90, 999, 0, 90, 999, 0, 0, 0, 0, 0, 0, 0, 90, 999, 0, 90, 999, 0, 0, 0, 0, 0, 0, 0, 90, 999, 0, 90, 999, 0, 0, 0, 90, 999, 0, 90, 999, 0, 0, 0, 90, 999, 0, 90, 999, 0, 0, 0, 0, 90, 999, 270, 0, 90, 999, 0, 0, 90, 999, 0, 0, 45],
|
|
"settings":
|
|
{
|
|
"version": 10 ,
|
|
"artist": "匹诺曹p",
|
|
"specialArtistType": "None",
|
|
"artistPermission": "",
|
|
"song": "slow motion",
|
|
"author": "tls",
|
|
"separateCountdownTime": "Enabled",
|
|
"previewImage": "",
|
|
"previewIcon": "",
|
|
"previewIconColor": "003f52",
|
|
"previewSongStart": 0,
|
|
"previewSongDuration": 10,
|
|
"seizureWarning": "Disabled",
|
|
"levelDesc": "",
|
|
"levelTags": "",
|
|
"artistLinks": "",
|
|
"difficulty": 1,
|
|
"songFilename": "mo.ogg",
|
|
"bpm": 160,
|
|
"volume": 100,
|
|
"offset": 48,
|
|
"pitch": 100,
|
|
"hitsound": "Kick",
|
|
"hitsoundVolume": 100,
|
|
"countdownTicks": 4,
|
|
"trackColorType": "Single",
|
|
"trackColor": "debb7b",
|
|
"secondaryTrackColor": "ffffff",
|
|
"trackColorAnimDuration": 2,
|
|
"trackColorPulse": "None",
|
|
"trackPulseLength": 10,
|
|
"trackStyle": "Standard",
|
|
"trackAnimation": "None",
|
|
"beatsAhead": 3,
|
|
"trackDisappearAnimation": "None",
|
|
"beatsBehind": 4,
|
|
"backgroundColor": "000000",
|
|
"showDefaultBGIfNoImage": "Enabled",
|
|
"bgImage": "",
|
|
"bgImageColor": "ffffff",
|
|
"parallax": [100, 100],
|
|
"bgDisplayMode": "FitToScreen",
|
|
"lockRot": "Disabled",
|
|
"loopBG": "Disabled",
|
|
"unscaledSize": 100,
|
|
"relativeTo": "Player",
|
|
"position": [0, 0],
|
|
"rotation": 0,
|
|
"zoom": 100,
|
|
"bgVideo": "",
|
|
"loopVideo": "Disabled",
|
|
"vidOffset": 0,
|
|
"floorIconOutlines": "Disabled",
|
|
"stickToFloors": "Enabled",
|
|
"planetEase": "Linear",
|
|
"planetEaseParts": 1,
|
|
"planetEasePartBehavior": "Mirror",
|
|
"customClass": "",
|
|
"legacyFlash": false ,
|
|
"legacySpriteTiles": false
|
|
},
|
|
"actions":
|
|
[
|
|
{ "floor": 21, "eventType": "ColorTrack", "trackColorType": "Single", "trackColor": "7ba6deff", "secondaryTrackColor": "ffffff", "trackColorAnimDuration": 2, "trackColorPulse": "None", "trackPulseLength": 10, "trackStyle": "Standard", "trackTexture": "", "trackTextureScale": 1 },
|
|
{ "floor": 33, "eventType": "SetSpeed", "speedType": "Multiplier", "beatsPerMinute": 100, "bpmMultiplier": 0.5 },
|
|
{ "floor": 34, "eventType": "SetSpeed", "speedType": "Multiplier", "beatsPerMinute": 100, "bpmMultiplier": 2 },
|
|
{ "floor": 44, "eventType": "ColorTrack", "trackColorType": "Single", "trackColor": "debb7b", "secondaryTrackColor": "ffffff", "trackColorAnimDuration": 2, "trackColorPulse": "None", "trackPulseLength": 10, "trackStyle": "Standard", "trackTexture": "", "trackTextureScale": 1 },
|
|
{ "floor": 68, "eventType": "ColorTrack", "trackColorType": "Single", "trackColor": "3cd1acff", "secondaryTrackColor": "ffffff", "trackColorAnimDuration": 2, "trackColorPulse": "None", "trackPulseLength": 10, "trackStyle": "Standard", "trackTexture": "", "trackTextureScale": 1 },
|
|
{ "floor": 90, "eventType": "SetSpeed", "speedType": "Multiplier", "beatsPerMinute": 100, "bpmMultiplier": 0.5 },
|
|
{ "floor": 91, "eventType": "ColorTrack", "trackColorType": "Single", "trackColor": "debb7b", "secondaryTrackColor": "ffffff", "trackColorAnimDuration": 2, "trackColorPulse": "None", "trackPulseLength": 10, "trackStyle": "Standard", "trackTexture": "", "trackTextureScale": 1 },
|
|
{ "floor": 99, "eventType": "ColorTrack", "trackColorType": "Single", "trackColor": "72d192ff", "secondaryTrackColor": "ffffff", "trackColorAnimDuration": 2, "trackColorPulse": "None", "trackPulseLength": 10, "trackStyle": "Standard", "trackTexture": "", "trackTextureScale": 1 },
|
|
{ "floor": 109, "eventType": "ColorTrack", "trackColorType": "Single", "trackColor": "debb7b", "secondaryTrackColor": "ffffff", "trackColorAnimDuration": 2, "trackColorPulse": "None", "trackPulseLength": 10, "trackStyle": "Standard", "trackTexture": "", "trackTextureScale": 1 },
|
|
{ "floor": 133, "eventType": "ColorTrack", "trackColorType": "Single", "trackColor": "77d54dff", "secondaryTrackColor": "ffffff", "trackColorAnimDuration": 2, "trackColorPulse": "None", "trackPulseLength": 10, "trackStyle": "Standard", "trackTexture": "", "trackTextureScale": 1 },
|
|
{ "floor": 151, "eventType": "ColorTrack", "trackColorType": "Single", "trackColor": "debb7b", "secondaryTrackColor": "ffffff", "trackColorAnimDuration": 2, "trackColorPulse": "None", "trackPulseLength": 10, "trackStyle": "Standard", "trackTexture": "", "trackTextureScale": 1 },
|
|
{ "floor": 163, "eventType": "ColorTrack", "trackColorType": "Single", "trackColor": "43cf3cff", "secondaryTrackColor": "ffffff", "trackColorAnimDuration": 2, "trackColorPulse": "None", "trackPulseLength": 10, "trackStyle": "Standard", "trackTexture": "", "trackTextureScale": 1 },
|
|
{ "floor": 175, "eventType": "ColorTrack", "trackColorType": "Single", "trackColor": "debb7b", "secondaryTrackColor": "ffffff", "trackColorAnimDuration": 2, "trackColorPulse": "None", "trackPulseLength": 10, "trackStyle": "Standard", "trackTexture": "", "trackTextureScale": 1 },
|
|
{ "floor": 197, "eventType": "ColorTrack", "trackColorType": "Single", "trackColor": "93cb5eff", "secondaryTrackColor": "ffffff", "trackColorAnimDuration": 2, "trackColorPulse": "None", "trackPulseLength": 10, "trackStyle": "Standard", "trackTexture": "", "trackTextureScale": 1 },
|
|
{ "floor": 217, "eventType": "ColorTrack", "trackColorType": "Single", "trackColor": "debb7b", "secondaryTrackColor": "ffffff", "trackColorAnimDuration": 2, "trackColorPulse": "None", "trackPulseLength": 10, "trackStyle": "Standard", "trackTexture": "", "trackTextureScale": 1 },
|
|
{ "floor": 217, "eventType": "SetSpeed", "speedType": "Multiplier", "beatsPerMinute": 100, "bpmMultiplier": 2 },
|
|
{ "floor": 241, "eventType": "ColorTrack", "trackColorType": "Single", "trackColor": "a8de7bff", "secondaryTrackColor": "ffffff", "trackColorAnimDuration": 2, "trackColorPulse": "None", "trackPulseLength": 10, "trackStyle": "Standard", "trackTexture": "", "trackTextureScale": 1 },
|
|
{ "floor": 271, "eventType": "ColorTrack", "trackColorType": "Single", "trackColor": "debb7b", "secondaryTrackColor": "ffffff", "trackColorAnimDuration": 2, "trackColorPulse": "None", "trackPulseLength": 10, "trackStyle": "Standard", "trackTexture": "", "trackTextureScale": 1 },
|
|
{ "floor": 295, "eventType": "ColorTrack", "trackColorType": "Single", "trackColor": "73d877ff", "secondaryTrackColor": "ffffff", "trackColorAnimDuration": 2, "trackColorPulse": "None", "trackPulseLength": 10, "trackStyle": "Standard", "trackTexture": "", "trackTextureScale": 1 },
|
|
{ "floor": 331, "eventType": "ColorTrack", "trackColorType": "Single", "trackColor": "debb7b", "secondaryTrackColor": "ffffff", "trackColorAnimDuration": 2, "trackColorPulse": "None", "trackPulseLength": 10, "trackStyle": "Standard", "trackTexture": "", "trackTextureScale": 1 },
|
|
{ "floor": 357, "eventType": "ColorTrack", "trackColorType": "Single", "trackColor": "63c6d5ff", "secondaryTrackColor": "ffffff", "trackColorAnimDuration": 2, "trackColorPulse": "None", "trackPulseLength": 10, "trackStyle": "Standard", "trackTexture": "", "trackTextureScale": 1 },
|
|
{ "floor": 379, "eventType": "SetSpeed", "speedType": "Multiplier", "beatsPerMinute": 100, "bpmMultiplier": 0.5 },
|
|
{ "floor": 380, "eventType": "ColorTrack", "trackColorType": "Single", "trackColor": "debb7b", "secondaryTrackColor": "ffffff", "trackColorAnimDuration": 2, "trackColorPulse": "None", "trackPulseLength": 10, "trackStyle": "Standard", "trackTexture": "", "trackTextureScale": 1 },
|
|
{ "floor": 388, "eventType": "ColorTrack", "trackColorType": "Single", "trackColor": "7bde7cff", "secondaryTrackColor": "ffffff", "trackColorAnimDuration": 2, "trackColorPulse": "None", "trackPulseLength": 10, "trackStyle": "Standard", "trackTexture": "", "trackTextureScale": 1 },
|
|
{ "floor": 398, "eventType": "ColorTrack", "trackColorType": "Single", "trackColor": "debb7b", "secondaryTrackColor": "ffffff", "trackColorAnimDuration": 2, "trackColorPulse": "None", "trackPulseLength": 10, "trackStyle": "Standard", "trackTexture": "", "trackTextureScale": 1 },
|
|
{ "floor": 422, "eventType": "ColorTrack", "trackColorType": "Single", "trackColor": "53bba1ff", "secondaryTrackColor": "ffffff", "trackColorAnimDuration": 2, "trackColorPulse": "None", "trackPulseLength": 10, "trackStyle": "Standard", "trackTexture": "", "trackTextureScale": 1 },
|
|
{ "floor": 440, "eventType": "ColorTrack", "trackColorType": "Single", "trackColor": "debb7b", "secondaryTrackColor": "ffffff", "trackColorAnimDuration": 2, "trackColorPulse": "None", "trackPulseLength": 10, "trackStyle": "Standard", "trackTexture": "", "trackTextureScale": 1 },
|
|
{ "floor": 452, "eventType": "ColorTrack", "trackColorType": "Single", "trackColor": "85de7bff", "secondaryTrackColor": "ffffff", "trackColorAnimDuration": 2, "trackColorPulse": "None", "trackPulseLength": 10, "trackStyle": "Standard", "trackTexture": "", "trackTextureScale": 1 },
|
|
{ "floor": 464, "eventType": "ColorTrack", "trackColorType": "Single", "trackColor": "debb7b", "secondaryTrackColor": "ffffff", "trackColorAnimDuration": 2, "trackColorPulse": "None", "trackPulseLength": 10, "trackStyle": "Standard", "trackTexture": "", "trackTextureScale": 1 },
|
|
{ "floor": 486, "eventType": "ColorTrack", "trackColorType": "Single", "trackColor": "7bde85ff", "secondaryTrackColor": "ffffff", "trackColorAnimDuration": 2, "trackColorPulse": "None", "trackPulseLength": 10, "trackStyle": "Standard", "trackTexture": "", "trackTextureScale": 1 },
|
|
{ "floor": 505, "eventType": "Pause", "duration": 2, "countdownTicks": 0, "angleCorrectionDir": -1 },
|
|
{ "floor": 506, "eventType": "AnimateTrack", "trackAnimation": "Assemble", "beatsAhead": 2, "trackDisappearAnimation": "None", "beatsBehind": 4 },
|
|
{ "floor": 506, "eventType": "SetSpeed", "speedType": "Multiplier", "beatsPerMinute": 100, "bpmMultiplier": 2 },
|
|
{ "floor": 506, "eventType": "ColorTrack", "trackColorType": "Single", "trackColor": "589bc1ff", "secondaryTrackColor": "ffffff", "trackColorAnimDuration": 2, "trackColorPulse": "None", "trackPulseLength": 10, "trackStyle": "Standard", "trackTexture": "", "trackTextureScale": 1 },
|
|
{ "floor": 507, "eventType": "AnimateTrack", "trackAnimation": "None", "beatsAhead": 3, "trackDisappearAnimation": "None", "beatsBehind": 4 },
|
|
{ "floor": 530, "eventType": "ColorTrack", "trackColorType": "Single", "trackColor": "debb7b", "secondaryTrackColor": "ffffff", "trackColorAnimDuration": 2, "trackColorPulse": "None", "trackPulseLength": 10, "trackStyle": "Standard", "trackTexture": "", "trackTextureScale": 1 },
|
|
{ "floor": 572, "eventType": "ColorTrack", "trackColorType": "Single", "trackColor": "77c176ff", "secondaryTrackColor": "ffffff", "trackColorAnimDuration": 2, "trackColorPulse": "None", "trackPulseLength": 10, "trackStyle": "Standard", "trackTexture": "", "trackTextureScale": 1 },
|
|
{ "floor": 596, "eventType": "ColorTrack", "trackColorType": "Single", "trackColor": "debb7b", "secondaryTrackColor": "ffffff", "trackColorAnimDuration": 2, "trackColorPulse": "None", "trackPulseLength": 10, "trackStyle": "Standard", "trackTexture": "", "trackTextureScale": 1 },
|
|
{ "floor": 650, "eventType": "SetSpeed", "speedType": "Multiplier", "beatsPerMinute": 100, "bpmMultiplier": 0.25 },
|
|
{ "floor": 652, "eventType": "SetSpeed", "speedType": "Multiplier", "beatsPerMinute": 100, "bpmMultiplier": 2 },
|
|
{ "floor": 654, "eventType": "SetSpeed", "speedType": "Multiplier", "beatsPerMinute": 100, "bpmMultiplier": 2 },
|
|
{ "floor": 658, "eventType": "ColorTrack", "trackColorType": "Single", "trackColor": "5ec468ff", "secondaryTrackColor": "ffffff", "trackColorAnimDuration": 2, "trackColorPulse": "None", "trackPulseLength": 10, "trackStyle": "Standard", "trackTexture": "", "trackTextureScale": 1 },
|
|
{ "floor": 682, "eventType": "SetSpeed", "speedType": "Multiplier", "beatsPerMinute": 100, "bpmMultiplier": 0.5 },
|
|
{ "floor": 682, "eventType": "ColorTrack", "trackColorType": "Single", "trackColor": "b634bcff", "secondaryTrackColor": "ffffff", "trackColorAnimDuration": 2, "trackColorPulse": "None", "trackPulseLength": 10, "trackStyle": "Standard", "trackTexture": "", "trackTextureScale": 1 },
|
|
{ "floor": 694, "eventType": "SetSpeed", "speedType": "Multiplier", "beatsPerMinute": 100, "bpmMultiplier": 2 },
|
|
{ "floor": 706, "eventType": "SetSpeed", "speedType": "Multiplier", "beatsPerMinute": 100, "bpmMultiplier": 0.5 },
|
|
{ "floor": 708, "eventType": "ColorTrack", "trackColorType": "Single", "trackColor": "debb7b", "secondaryTrackColor": "ffffff", "trackColorAnimDuration": 2, "trackColorPulse": "None", "trackPulseLength": 10, "trackStyle": "Standard", "trackTexture": "", "trackTextureScale": 1 },
|
|
{ "floor": 716, "eventType": "ColorTrack", "trackColorType": "Single", "trackColor": "7bde8bff", "secondaryTrackColor": "ffffff", "trackColorAnimDuration": 2, "trackColorPulse": "None", "trackPulseLength": 10, "trackStyle": "Standard", "trackTexture": "", "trackTextureScale": 1 },
|
|
{ "floor": 724, "eventType": "ColorTrack", "trackColorType": "Single", "trackColor": "debb7b", "secondaryTrackColor": "ffffff", "trackColorAnimDuration": 2, "trackColorPulse": "None", "trackPulseLength": 10, "trackStyle": "Standard", "trackTexture": "", "trackTextureScale": 1 },
|
|
{ "floor": 732, "eventType": "ColorTrack", "trackColorType": "Single", "trackColor": "3ec840ff", "secondaryTrackColor": "ffffff", "trackColorAnimDuration": 2, "trackColorPulse": "None", "trackPulseLength": 10, "trackStyle": "Standard", "trackTexture": "", "trackTextureScale": 1 },
|
|
{ "floor": 740, "eventType": "ColorTrack", "trackColorType": "Single", "trackColor": "debb7b", "secondaryTrackColor": "ffffff", "trackColorAnimDuration": 2, "trackColorPulse": "None", "trackPulseLength": 10, "trackStyle": "Standard", "trackTexture": "", "trackTextureScale": 1 },
|
|
{ "floor": 740, "eventType": "SetSpeed", "speedType": "Multiplier", "beatsPerMinute": 100, "bpmMultiplier": 2 },
|
|
{ "floor": 748, "eventType": "ColorTrack", "trackColorType": "Single", "trackColor": "85de7bff", "secondaryTrackColor": "ffffff", "trackColorAnimDuration": 2, "trackColorPulse": "None", "trackPulseLength": 10, "trackStyle": "Standard", "trackTexture": "", "trackTextureScale": 1 },
|
|
{ "floor": 756, "eventType": "ColorTrack", "trackColorType": "Single", "trackColor": "debb7b", "secondaryTrackColor": "ffffff", "trackColorAnimDuration": 2, "trackColorPulse": "None", "trackPulseLength": 10, "trackStyle": "Standard", "trackTexture": "", "trackTextureScale": 1 },
|
|
{ "floor": 782, "eventType": "ColorTrack", "trackColorType": "Single", "trackColor": "8ede7bff", "secondaryTrackColor": "ffffff", "trackColorAnimDuration": 2, "trackColorPulse": "None", "trackPulseLength": 10, "trackStyle": "Standard", "trackTexture": "", "trackTextureScale": 1 },
|
|
{ "floor": 824, "eventType": "ColorTrack", "trackColorType": "Single", "trackColor": "debb7b", "secondaryTrackColor": "ffffff", "trackColorAnimDuration": 2, "trackColorPulse": "None", "trackPulseLength": 10, "trackStyle": "Standard", "trackTexture": "", "trackTextureScale": 1 },
|
|
{ "floor": 848, "eventType": "ColorTrack", "trackColorType": "Single", "trackColor": "83de7bff", "secondaryTrackColor": "ffffff", "trackColorAnimDuration": 2, "trackColorPulse": "None", "trackPulseLength": 10, "trackStyle": "Standard", "trackTexture": "", "trackTextureScale": 1 },
|
|
{ "floor": 890, "eventType": "ColorTrack", "trackColorType": "Single", "trackColor": "debb7b", "secondaryTrackColor": "ffffff", "trackColorAnimDuration": 2, "trackColorPulse": "None", "trackPulseLength": 10, "trackStyle": "Standard", "trackTexture": "", "trackTextureScale": 1 },
|
|
{ "floor": 914, "eventType": "ColorTrack", "trackColorType": "Single", "trackColor": "89e481ff", "secondaryTrackColor": "ffffff", "trackColorAnimDuration": 2, "trackColorPulse": "None", "trackPulseLength": 10, "trackStyle": "Standard", "trackTexture": "", "trackTextureScale": 1 },
|
|
{ "floor": 954, "eventType": "ColorTrack", "trackColorType": "Single", "trackColor": "debb7b", "secondaryTrackColor": "ffffff", "trackColorAnimDuration": 2, "trackColorPulse": "None", "trackPulseLength": 10, "trackStyle": "Standard", "trackTexture": "", "trackTextureScale": 1 },
|
|
{ "floor": 967, "eventType": "SetSpeed", "speedType": "Multiplier", "beatsPerMinute": 100, "bpmMultiplier": 0.5 },
|
|
{ "floor": 967, "eventType": "Pause", "duration": 2.25, "countdownTicks": 0, "angleCorrectionDir": -1 },
|
|
{ "floor": 968, "eventType": "SetSpeed", "speedType": "Multiplier", "beatsPerMinute": 100, "bpmMultiplier": 2 },
|
|
{ "floor": 968, "eventType": "AnimateTrack", "trackAnimation": "Assemble", "beatsAhead": 2, "trackDisappearAnimation": "None", "beatsBehind": 4 },
|
|
{ "floor": 969, "eventType": "AnimateTrack", "trackAnimation": "None", "beatsAhead": 3, "trackDisappearAnimation": "None", "beatsBehind": 4 },
|
|
{ "floor": 1060, "eventType": "SetSpeed", "speedType": "Multiplier", "beatsPerMinute": 100, "bpmMultiplier": 0.5 }
|
|
]
|
|
"decorations":
|
|
[
|
|
]
|
|
}
|