adofai-slow-motion/motion.adofai

310 lines
26 KiB
Plaintext

{
"angleData": [0, 0, 0, 0, 0, 0, 0, 90, 0, 0, 0, 0, 0, 0, 0, 0, 270, 0, 0, 0, 0, 0, 0, 0, 0, 90, 180, 270, 0, 0, 0, 0, 0, 90, 180, 270, 0, 0, 90, 999, 0, 0, 0, 0, 0, 0, 0, 90, 180, 270, 0, 0, 0, 0, 0, 0, 0, 90, 180, 270, 0, 0, 0, 90, 180, 270, 0, 0, 0, 90, 180, 270, 0, 0, 0, 0, 0, 0, 0, 0, 0, 0, 0, 0, 0, 0, 0, 0, 0, 0, 0, 0, 0, 0, 0, 90, 0, 270, 0, 90, 0, 270, 0, 90, 0, 270, 0, 90, 0, 270, 0, 90, 0, 270, 0, 90, 0, 270, 0, 90, 999, 0, 0, 0, 0, 90, 0, 0, 0, 0, 270, 0, 0, 0, 0, 90, 0, 0, 0, 0, 270, 0, 0, 0, 0, 90, 0, 270, 0, 90, 0, 270, 0, 90, 90, 0, 270, 0, 90, 0, 270, 0, 90, 0, 0, 270, 0, 90, 0, 270, 0, 90, 0, 270, 270, 0, 0, 0, 0, 0, 90, 0, 0, 0, 0, 0, 270, 0, 0, 0, 0, 0, 90, 180, 270, 0, 0, 0, 0, 0, 0, 0, 90, 0, 270, 270, 0, 90, 0, 270, 0, 90, 999, 0, 0, 0, 90, 180, 270, 0, 0, 0, 0, 0, 90, 0, 0, 0, 0, 0, 270, 0, 0, 0, 0, 0, 90, 180, 270, 270, 0, 270, 0, 0, 90, 90, 180, 270, 0, 0, 0, 90, 0, 270, 0, 90, 0, 270, 0, 90, 90, 0, 270, 0, 90, 0, 270, 0, 0, 0, 0, 0, 0, 90, 180, 270, 0, 0, 0, 0, 0, 0, 0, 90, 180, 270, 0, 0, 0, 90, 180, 270, 0, 0, 0, 90, 180, 270, 0, 0, 0, 0, 0, 0, 0, 0, 0, 0, 0, 0, 0, 0, 0, 0, 0, 0, 0, 0, 0, 0, 0, 90, 0, 270, 0, 90, 0, 270, 0, 90, 0, 270, 0, 90, 0, 270, 0, 90, 0, 270, 0, 90, 0, 270, 0, 90, 0, 0, 0, 0, 270, 0, 0, 0, 0, 90, 0, 0, 0, 0, 270, 0, 0, 0, 0, 90, 0, 0, 0, 0, 270, 0, 90, 0, 270, 0, 90, 0, 270, 270, 0, 90, 0, 270, 0, 90, 0, 270, 0, 90, 0, 270, 0, 90, 0, 270, 0, 90, 999, 0, 90, 0, 0, 0, 0, 0, 90, 0, 0, 0, 0, 0, 270, 0, 0, 0, 0, 0, 90, 0, 270, 0, 90, 0, 270, 0, 90, 0, 270, 0, 90, 0, 270, 0, 90, 999, 0, 0, 90, 0, 270, 0, 90, 0, 270, 0, 0, 0, 90, 180, 270, 0, 0, 0, 0, 0, 90, 0, 0, 0, 0, 0, 270, 0, 0, 0, 0, 0, 90, 0, 270, 270, 0, 90, 0, 270, 0, 90, 90, 0, 270, 0, 0, 0, 90, 0, 270, 0, 90, 0, 270, 0, 90, 90, 0, 270, 0, 90, 999, 0, 90, -90, 270, 0, 270, 270, 0, 0, 90, -90, 270, 0, 0, 90, 0, 0, 0, 0, 0, 0, 0, 0, 0, 0, 0, 0, 90, 0, 270, 0, 90, 0, 270, 0, 0, 0, 0, 0, 0, 0, 0, 0, 0, 0, 90, 0, 270, 0, 90, 0, 270, 0, 90, 999, 0, 90, 999, 0, 90, 999, 0, 90, 999, 0, 0, 0, 0, 0, 0, 0, 0, 0, 0, 0, 0, 0, 0, 0, 0, 0, 0, 0, 0, 0, 0, 0, 0, 0, 0, 0, 0, 0, 0, 0, 0, 0, 0, 0, 0, 0, 0, 0, 0, 0, 0, 0, 0, 0, 0, 0, 0, 0, 0, 0, 90, 0, 0, 90, 90, 0, 270, 0, 90, 0, 270, 0, 0, 90, 0, 0, 0, 0, 0, 0, 0, 270, 0, 90, 0, 270, 0, 90, 0, 270, 0, 90, 0, 270, 0, 0, 90, 0, 270, 0, 90, 0, 270, 0, 0, 0, 90, 180, 270, 0, 0, 0, 0, 0, 90, 0, 0, 0, 0, 0, 270, 0, 0, 0, 0, 0, 90, 0, 270, 270, 0, 90, 0, 270, 0, 90, 0, 270, 0, 90, 0, 270, 0, 0, 90, 0, 270, 0, 90, 0, 270, 270, 0, 90, 0, 270, 0, 90, 999, 0, 0, 0, 0, 0, 90, 0, 0, 0, 0, 0, 270, 0, 0, 0, 0, 0, 90, 0, 270, 270, 0, 90, 0, 0, 270, 270, 0, 90, 0, 270, 0, 0, 90, 0, 270, 0, 90, 0, 270, 0, 90, 0, 270, 0, 90, 0, 270, 0, 90, 0, 270, 0, 90, 0, 270, 0, 90, 0, 0, 0, 0, 0, 0, 0, 0, 0, 0, 0, 0, 0, 0, 0, 0, 90, 999, 0, 0, 0, 0, 0, 0, 0, 0, 0, 0, 0, 0, 0, 0, 0, 90, 180, 270, 0, 0, 0, 0, 0, 0, 0, 90, 180, 270, 0, 0, 0, 0, 0, 0, 0, 90, 180, 270, 0, 0, 0, 90, 180, 270, 0, 0, 0, 90, 180, 270, 0, 0, 0, 0, 90, 90, 0, 270, 0, 0, 90, 999, 0, 0, 0],
"settings":
{
"version": 10 ,
"artist": "匹诺曹p",
"specialArtistType": "None",
"artistPermission": "",
"song": "slow motion",
"author": "tls",
"separateCountdownTime": "Enabled",
"previewImage": "",
"previewIcon": "",
"previewIconColor": "003f52",
"previewSongStart": 0,
"previewSongDuration": 10,
"seizureWarning": "Disabled",
"levelDesc": "",
"levelTags": "",
"artistLinks": "",
"difficulty": 1,
"songFilename": "mo.ogg",
"bpm": 160,
"volume": 100,
"offset": 48,
"pitch": 100,
"hitsound": "Kick",
"hitsoundVolume": 100,
"countdownTicks": 4,
"trackColorType": "Single",
"trackColor": "debb7b",
"secondaryTrackColor": "ffffff",
"trackColorAnimDuration": 2,
"trackColorPulse": "None",
"trackPulseLength": 10,
"trackStyle": "Standard",
"trackAnimation": "None",
"beatsAhead": 3,
"trackDisappearAnimation": "None",
"beatsBehind": 4,
"backgroundColor": "000000",
"showDefaultBGIfNoImage": "Enabled",
"bgImage": "",
"bgImageColor": "ffffff",
"parallax": [100, 100],
"bgDisplayMode": "FitToScreen",
"lockRot": "Disabled",
"loopBG": "Disabled",
"unscaledSize": 100,
"relativeTo": "Player",
"position": [0, 0],
"rotation": 0,
"zoom": 100,
"bgVideo": "",
"loopVideo": "Disabled",
"vidOffset": 0,
"floorIconOutlines": "Disabled",
"stickToFloors": "Enabled",
"planetEase": "Linear",
"planetEaseParts": 1,
"planetEasePartBehavior": "Mirror",
"customClass": "",
"legacyFlash": false ,
"legacySpriteTiles": false
},
"actions":
[
{ "floor": 8, "eventType": "Twirl" },
{ "floor": 17, "eventType": "Twirl" },
{ "floor": 19, "eventType": "ColorTrack", "trackColorType": "Single", "trackColor": "7ba6deff", "secondaryTrackColor": "ffffff", "trackColorAnimDuration": 2, "trackColorPulse": "None", "trackPulseLength": 10, "trackStyle": "Standard", "trackTexture": "", "trackTextureScale": 1 },
{ "floor": 41, "eventType": "ColorTrack", "trackColorType": "Single", "trackColor": "debb7b", "secondaryTrackColor": "ffffff", "trackColorAnimDuration": 2, "trackColorPulse": "None", "trackPulseLength": 10, "trackStyle": "Standard", "trackTexture": "", "trackTextureScale": 1 },
{ "floor": 61, "eventType": "ColorTrack", "trackColorType": "Single", "trackColor": "3cd1acff", "secondaryTrackColor": "ffffff", "trackColorAnimDuration": 2, "trackColorPulse": "None", "trackPulseLength": 10, "trackStyle": "Standard", "trackTexture": "", "trackTextureScale": 1 },
{ "floor": 79, "eventType": "SetSpeed", "speedType": "Multiplier", "beatsPerMinute": 100, "bpmMultiplier": 0.5 },
{ "floor": 80, "eventType": "ColorTrack", "trackColorType": "Single", "trackColor": "debb7b", "secondaryTrackColor": "ffffff", "trackColorAnimDuration": 2, "trackColorPulse": "None", "trackPulseLength": 10, "trackStyle": "Standard", "trackTexture": "", "trackTextureScale": 1 },
{ "floor": 88, "eventType": "ColorTrack", "trackColorType": "Single", "trackColor": "72d192ff", "secondaryTrackColor": "ffffff", "trackColorAnimDuration": 2, "trackColorPulse": "None", "trackPulseLength": 10, "trackStyle": "Standard", "trackTexture": "", "trackTextureScale": 1 },
{ "floor": 96, "eventType": "Twirl" },
{ "floor": 97, "eventType": "ColorTrack", "trackColorType": "Single", "trackColor": "debb7b", "secondaryTrackColor": "ffffff", "trackColorAnimDuration": 2, "trackColorPulse": "None", "trackPulseLength": 10, "trackStyle": "Standard", "trackTexture": "", "trackTextureScale": 1 },
{ "floor": 98, "eventType": "Twirl" },
{ "floor": 100, "eventType": "Twirl" },
{ "floor": 102, "eventType": "Twirl" },
{ "floor": 104, "eventType": "Twirl" },
{ "floor": 106, "eventType": "Twirl" },
{ "floor": 108, "eventType": "Twirl" },
{ "floor": 110, "eventType": "Twirl" },
{ "floor": 112, "eventType": "Twirl" },
{ "floor": 113, "eventType": "ColorTrack", "trackColorType": "Single", "trackColor": "77d54dff", "secondaryTrackColor": "ffffff", "trackColorAnimDuration": 2, "trackColorPulse": "None", "trackPulseLength": 10, "trackStyle": "Standard", "trackTexture": "", "trackTextureScale": 1 },
{ "floor": 114, "eventType": "Twirl" },
{ "floor": 116, "eventType": "Twirl" },
{ "floor": 118, "eventType": "Twirl" },
{ "floor": 126, "eventType": "Twirl" },
{ "floor": 127, "eventType": "ColorTrack", "trackColorType": "Single", "trackColor": "debb7b", "secondaryTrackColor": "ffffff", "trackColorAnimDuration": 2, "trackColorPulse": "None", "trackPulseLength": 10, "trackStyle": "Standard", "trackTexture": "", "trackTextureScale": 1 },
{ "floor": 131, "eventType": "Twirl" },
{ "floor": 136, "eventType": "Twirl" },
{ "floor": 137, "eventType": "ColorTrack", "trackColorType": "Single", "trackColor": "43cf3cff", "secondaryTrackColor": "ffffff", "trackColorAnimDuration": 2, "trackColorPulse": "None", "trackPulseLength": 10, "trackStyle": "Standard", "trackTexture": "", "trackTextureScale": 1 },
{ "floor": 141, "eventType": "Twirl" },
{ "floor": 146, "eventType": "Twirl" },
{ "floor": 147, "eventType": "ColorTrack", "trackColorType": "Single", "trackColor": "debb7b", "secondaryTrackColor": "ffffff", "trackColorAnimDuration": 2, "trackColorPulse": "None", "trackPulseLength": 10, "trackStyle": "Standard", "trackTexture": "", "trackTextureScale": 1 },
{ "floor": 148, "eventType": "Twirl" },
{ "floor": 150, "eventType": "Twirl" },
{ "floor": 152, "eventType": "Twirl" },
{ "floor": 155, "eventType": "Twirl" },
{ "floor": 157, "eventType": "Twirl" },
{ "floor": 159, "eventType": "Twirl" },
{ "floor": 161, "eventType": "Twirl" },
{ "floor": 162, "eventType": "ColorTrack", "trackColorType": "Single", "trackColor": "93cb5eff", "secondaryTrackColor": "ffffff", "trackColorAnimDuration": 2, "trackColorPulse": "None", "trackPulseLength": 10, "trackStyle": "Standard", "trackTexture": "", "trackTextureScale": 1 },
{ "floor": 163, "eventType": "Twirl" },
{ "floor": 166, "eventType": "Twirl" },
{ "floor": 168, "eventType": "Twirl" },
{ "floor": 170, "eventType": "Twirl" },
{ "floor": 172, "eventType": "Twirl" },
{ "floor": 175, "eventType": "Twirl" },
{ "floor": 176, "eventType": "ColorTrack", "trackColorType": "Single", "trackColor": "debb7b", "secondaryTrackColor": "ffffff", "trackColorAnimDuration": 2, "trackColorPulse": "None", "trackPulseLength": 10, "trackStyle": "Standard", "trackTexture": "", "trackTextureScale": 1 },
{ "floor": 176, "eventType": "SetSpeed", "speedType": "Multiplier", "beatsPerMinute": 100, "bpmMultiplier": 2 },
{ "floor": 181, "eventType": "Twirl" },
{ "floor": 187, "eventType": "Twirl" },
{ "floor": 196, "eventType": "ColorTrack", "trackColorType": "Single", "trackColor": "a8de7bff", "secondaryTrackColor": "ffffff", "trackColorAnimDuration": 2, "trackColorPulse": "None", "trackPulseLength": 10, "trackStyle": "Standard", "trackTexture": "", "trackTextureScale": 1 },
{ "floor": 203, "eventType": "Twirl" },
{ "floor": 206, "eventType": "Twirl" },
{ "floor": 208, "eventType": "Twirl" },
{ "floor": 210, "eventType": "Twirl" },
{ "floor": 220, "eventType": "ColorTrack", "trackColorType": "Single", "trackColor": "debb7b", "secondaryTrackColor": "ffffff", "trackColorAnimDuration": 2, "trackColorPulse": "None", "trackPulseLength": 10, "trackStyle": "Standard", "trackTexture": "", "trackTextureScale": 1 },
{ "floor": 225, "eventType": "Twirl" },
{ "floor": 231, "eventType": "Twirl" },
{ "floor": 240, "eventType": "ColorTrack", "trackColorType": "Single", "trackColor": "73d877ff", "secondaryTrackColor": "ffffff", "trackColorAnimDuration": 2, "trackColorPulse": "None", "trackPulseLength": 10, "trackStyle": "Standard", "trackTexture": "", "trackTextureScale": 1 },
{ "floor": 241, "eventType": "Twirl" },
{ "floor": 242, "eventType": "Twirl" },
{ "floor": 252, "eventType": "Twirl" },
{ "floor": 254, "eventType": "Twirl" },
{ "floor": 256, "eventType": "Twirl" },
{ "floor": 258, "eventType": "Twirl" },
{ "floor": 261, "eventType": "Twirl" },
{ "floor": 263, "eventType": "Twirl" },
{ "floor": 265, "eventType": "Twirl" },
{ "floor": 266, "eventType": "ColorTrack", "trackColorType": "Single", "trackColor": "debb7b", "secondaryTrackColor": "ffffff", "trackColorAnimDuration": 2, "trackColorPulse": "None", "trackPulseLength": 10, "trackStyle": "Standard", "trackTexture": "", "trackTextureScale": 1 },
{ "floor": 267, "eventType": "Twirl" },
{ "floor": 287, "eventType": "ColorTrack", "trackColorType": "Single", "trackColor": "63c6d5ff", "secondaryTrackColor": "ffffff", "trackColorAnimDuration": 2, "trackColorPulse": "None", "trackPulseLength": 10, "trackStyle": "Standard", "trackTexture": "", "trackTextureScale": 1 },
{ "floor": 305, "eventType": "SetSpeed", "speedType": "Multiplier", "beatsPerMinute": 100, "bpmMultiplier": 0.5 },
{ "floor": 306, "eventType": "ColorTrack", "trackColorType": "Single", "trackColor": "debb7b", "secondaryTrackColor": "ffffff", "trackColorAnimDuration": 2, "trackColorPulse": "None", "trackPulseLength": 10, "trackStyle": "Standard", "trackTexture": "", "trackTextureScale": 1 },
{ "floor": 314, "eventType": "ColorTrack", "trackColorType": "Single", "trackColor": "7bde7cff", "secondaryTrackColor": "ffffff", "trackColorAnimDuration": 2, "trackColorPulse": "None", "trackPulseLength": 10, "trackStyle": "Standard", "trackTexture": "", "trackTextureScale": 1 },
{ "floor": 322, "eventType": "Twirl" },
{ "floor": 323, "eventType": "ColorTrack", "trackColorType": "Single", "trackColor": "debb7b", "secondaryTrackColor": "ffffff", "trackColorAnimDuration": 2, "trackColorPulse": "None", "trackPulseLength": 10, "trackStyle": "Standard", "trackTexture": "", "trackTextureScale": 1 },
{ "floor": 324, "eventType": "Twirl" },
{ "floor": 326, "eventType": "Twirl" },
{ "floor": 328, "eventType": "Twirl" },
{ "floor": 330, "eventType": "Twirl" },
{ "floor": 332, "eventType": "Twirl" },
{ "floor": 334, "eventType": "Twirl" },
{ "floor": 336, "eventType": "Twirl" },
{ "floor": 338, "eventType": "Twirl" },
{ "floor": 339, "eventType": "ColorTrack", "trackColorType": "Single", "trackColor": "53bba1ff", "secondaryTrackColor": "ffffff", "trackColorAnimDuration": 2, "trackColorPulse": "None", "trackPulseLength": 10, "trackStyle": "Standard", "trackTexture": "", "trackTextureScale": 1 },
{ "floor": 340, "eventType": "Twirl" },
{ "floor": 342, "eventType": "Twirl" },
{ "floor": 344, "eventType": "Twirl" },
{ "floor": 346, "eventType": "Twirl" },
{ "floor": 351, "eventType": "Twirl" },
{ "floor": 352, "eventType": "ColorTrack", "trackColorType": "Single", "trackColor": "debb7b", "secondaryTrackColor": "ffffff", "trackColorAnimDuration": 2, "trackColorPulse": "None", "trackPulseLength": 10, "trackStyle": "Standard", "trackTexture": "", "trackTextureScale": 1 },
{ "floor": 356, "eventType": "Twirl" },
{ "floor": 361, "eventType": "Twirl" },
{ "floor": 362, "eventType": "ColorTrack", "trackColorType": "Single", "trackColor": "85de7bff", "secondaryTrackColor": "ffffff", "trackColorAnimDuration": 2, "trackColorPulse": "None", "trackPulseLength": 10, "trackStyle": "Standard", "trackTexture": "", "trackTextureScale": 1 },
{ "floor": 366, "eventType": "Twirl" },
{ "floor": 371, "eventType": "Twirl" },
{ "floor": 372, "eventType": "ColorTrack", "trackColorType": "Single", "trackColor": "debb7b", "secondaryTrackColor": "ffffff", "trackColorAnimDuration": 2, "trackColorPulse": "None", "trackPulseLength": 10, "trackStyle": "Standard", "trackTexture": "", "trackTextureScale": 1 },
{ "floor": 373, "eventType": "Twirl" },
{ "floor": 375, "eventType": "Twirl" },
{ "floor": 377, "eventType": "Twirl" },
{ "floor": 380, "eventType": "Twirl" },
{ "floor": 382, "eventType": "Twirl" },
{ "floor": 384, "eventType": "Twirl" },
{ "floor": 386, "eventType": "Twirl" },
{ "floor": 387, "eventType": "ColorTrack", "trackColorType": "Single", "trackColor": "7bde85ff", "secondaryTrackColor": "ffffff", "trackColorAnimDuration": 2, "trackColorPulse": "None", "trackPulseLength": 10, "trackStyle": "Standard", "trackTexture": "", "trackTextureScale": 1 },
{ "floor": 388, "eventType": "Twirl" },
{ "floor": 390, "eventType": "Twirl" },
{ "floor": 392, "eventType": "Twirl" },
{ "floor": 394, "eventType": "Twirl" },
{ "floor": 396, "eventType": "Twirl" },
{ "floor": 401, "eventType": "Pause", "duration": 2, "countdownTicks": 0, "angleCorrectionDir": -1 },
{ "floor": 402, "eventType": "AnimateTrack", "trackAnimation": "Assemble", "beatsAhead": 2, "trackDisappearAnimation": "None", "beatsBehind": 4 },
{ "floor": 402, "eventType": "SetSpeed", "speedType": "Multiplier", "beatsPerMinute": 100, "bpmMultiplier": 2 },
{ "floor": 402, "eventType": "ColorTrack", "trackColorType": "Single", "trackColor": "589bc1ff", "secondaryTrackColor": "ffffff", "trackColorAnimDuration": 2, "trackColorPulse": "None", "trackPulseLength": 10, "trackStyle": "Standard", "trackTexture": "", "trackTextureScale": 1 },
{ "floor": 403, "eventType": "AnimateTrack", "trackAnimation": "None", "beatsAhead": 3, "trackDisappearAnimation": "None", "beatsBehind": 4 },
{ "floor": 407, "eventType": "Twirl" },
{ "floor": 413, "eventType": "Twirl" },
{ "floor": 419, "eventType": "Twirl" },
{ "floor": 421, "eventType": "Twirl" },
{ "floor": 422, "eventType": "ColorTrack", "trackColorType": "Single", "trackColor": "debb7b", "secondaryTrackColor": "ffffff", "trackColorAnimDuration": 2, "trackColorPulse": "None", "trackPulseLength": 10, "trackStyle": "Standard", "trackTexture": "", "trackTextureScale": 1 },
{ "floor": 423, "eventType": "Twirl" },
{ "floor": 425, "eventType": "Twirl" },
{ "floor": 427, "eventType": "Twirl" },
{ "floor": 429, "eventType": "Twirl" },
{ "floor": 431, "eventType": "Twirl" },
{ "floor": 433, "eventType": "Twirl" },
{ "floor": 439, "eventType": "Twirl" },
{ "floor": 441, "eventType": "Twirl" },
{ "floor": 443, "eventType": "Twirl" },
{ "floor": 445, "eventType": "Twirl" },
{ "floor": 452, "eventType": "ColorTrack", "trackColorType": "Single", "trackColor": "77c176ff", "secondaryTrackColor": "ffffff", "trackColorAnimDuration": 2, "trackColorPulse": "None", "trackPulseLength": 10, "trackStyle": "Standard", "trackTexture": "", "trackTextureScale": 1 },
{ "floor": 457, "eventType": "Twirl" },
{ "floor": 463, "eventType": "Twirl" },
{ "floor": 469, "eventType": "Twirl" },
{ "floor": 472, "eventType": "Twirl" },
{ "floor": 472, "eventType": "ColorTrack", "trackColorType": "Single", "trackColor": "debb7b", "secondaryTrackColor": "ffffff", "trackColorAnimDuration": 2, "trackColorPulse": "None", "trackPulseLength": 10, "trackStyle": "Standard", "trackTexture": "", "trackTextureScale": 1 },
{ "floor": 474, "eventType": "Twirl" },
{ "floor": 476, "eventType": "Twirl" },
{ "floor": 479, "eventType": "Twirl" },
{ "floor": 481, "eventType": "Twirl" },
{ "floor": 485, "eventType": "Twirl" },
{ "floor": 487, "eventType": "Twirl" },
{ "floor": 489, "eventType": "Twirl" },
{ "floor": 491, "eventType": "Twirl" },
{ "floor": 494, "eventType": "Twirl" },
{ "floor": 496, "eventType": "Twirl" },
{ "floor": 500, "eventType": "SetFilter", "filter": "Compression", "enabled": "Enabled", "intensity": 100, "duration": 0, "ease": "Linear", "disableOthers": "Disabled", "angleOffset": 0, "eventTag": "" },
{ "floor": 516, "eventType": "SetSpeed", "speedType": "Multiplier", "beatsPerMinute": 100, "bpmMultiplier": 0.25 },
{ "floor": 516, "eventType": "SetFilter", "filter": "Compression", "enabled": "Disabled", "intensity": 100, "duration": 0, "ease": "Linear", "disableOthers": "Disabled", "angleOffset": 0, "eventTag": "" },
{ "floor": 518, "eventType": "SetSpeed", "speedType": "Multiplier", "beatsPerMinute": 100, "bpmMultiplier": 2 },
{ "floor": 520, "eventType": "SetSpeed", "speedType": "Multiplier", "beatsPerMinute": 100, "bpmMultiplier": 2 },
{ "floor": 524, "eventType": "ColorTrack", "trackColorType": "Single", "trackColor": "5ec468ff", "secondaryTrackColor": "ffffff", "trackColorAnimDuration": 2, "trackColorPulse": "None", "trackPulseLength": 10, "trackStyle": "Standard", "trackTexture": "", "trackTextureScale": 1 },
{ "floor": 527, "eventType": "Twirl" },
{ "floor": 529, "eventType": "Twirl" },
{ "floor": 531, "eventType": "Twirl" },
{ "floor": 533, "eventType": "Twirl" },
{ "floor": 544, "eventType": "SetSpeed", "speedType": "Multiplier", "beatsPerMinute": 100, "bpmMultiplier": 0.5 },
{ "floor": 544, "eventType": "ColorTrack", "trackColorType": "Single", "trackColor": "61d9ebff", "secondaryTrackColor": "ffffff", "trackColorAnimDuration": 2, "trackColorPulse": "None", "trackPulseLength": 10, "trackStyle": "Standard", "trackTexture": "", "trackTextureScale": 1 },
{ "floor": 545, "eventType": "Twirl" },
{ "floor": 547, "eventType": "Twirl" },
{ "floor": 549, "eventType": "Twirl" },
{ "floor": 551, "eventType": "Twirl" },
{ "floor": 552, "eventType": "SetSpeed", "speedType": "Multiplier", "beatsPerMinute": 100, "bpmMultiplier": 2 },
{ "floor": 564, "eventType": "SetSpeed", "speedType": "Multiplier", "beatsPerMinute": 100, "bpmMultiplier": 0.5 },
{ "floor": 566, "eventType": "ColorTrack", "trackColorType": "Single", "trackColor": "debb7b", "secondaryTrackColor": "ffffff", "trackColorAnimDuration": 2, "trackColorPulse": "None", "trackPulseLength": 10, "trackStyle": "Standard", "trackTexture": "", "trackTextureScale": 1 },
{ "floor": 574, "eventType": "ColorTrack", "trackColorType": "Single", "trackColor": "7bde8bff", "secondaryTrackColor": "ffffff", "trackColorAnimDuration": 2, "trackColorPulse": "None", "trackPulseLength": 10, "trackStyle": "Standard", "trackTexture": "", "trackTextureScale": 1 },
{ "floor": 582, "eventType": "ColorTrack", "trackColorType": "Single", "trackColor": "debb7b", "secondaryTrackColor": "ffffff", "trackColorAnimDuration": 2, "trackColorPulse": "None", "trackPulseLength": 10, "trackStyle": "Standard", "trackTexture": "", "trackTextureScale": 1 },
{ "floor": 590, "eventType": "ColorTrack", "trackColorType": "Single", "trackColor": "3ec840ff", "secondaryTrackColor": "ffffff", "trackColorAnimDuration": 2, "trackColorPulse": "None", "trackPulseLength": 10, "trackStyle": "Standard", "trackTexture": "", "trackTextureScale": 1 },
{ "floor": 598, "eventType": "ColorTrack", "trackColorType": "Single", "trackColor": "debb7b", "secondaryTrackColor": "ffffff", "trackColorAnimDuration": 2, "trackColorPulse": "None", "trackPulseLength": 10, "trackStyle": "Standard", "trackTexture": "", "trackTextureScale": 1 },
{ "floor": 598, "eventType": "SetSpeed", "speedType": "Multiplier", "beatsPerMinute": 100, "bpmMultiplier": 2 },
{ "floor": 606, "eventType": "ColorTrack", "trackColorType": "Single", "trackColor": "85de7bff", "secondaryTrackColor": "ffffff", "trackColorAnimDuration": 2, "trackColorPulse": "None", "trackPulseLength": 10, "trackStyle": "Standard", "trackTexture": "", "trackTextureScale": 1 },
{ "floor": 614, "eventType": "ColorTrack", "trackColorType": "Single", "trackColor": "debb7b", "secondaryTrackColor": "ffffff", "trackColorAnimDuration": 2, "trackColorPulse": "None", "trackPulseLength": 10, "trackStyle": "Standard", "trackTexture": "", "trackTextureScale": 1 },
{ "floor": 619, "eventType": "Twirl" },
{ "floor": 621, "eventType": "Twirl" },
{ "floor": 623, "eventType": "Twirl" },
{ "floor": 625, "eventType": "Twirl" },
{ "floor": 628, "eventType": "Twirl" },
{ "floor": 635, "eventType": "ColorTrack", "trackColorType": "Single", "trackColor": "8ede7bff", "secondaryTrackColor": "ffffff", "trackColorAnimDuration": 2, "trackColorPulse": "None", "trackPulseLength": 10, "trackStyle": "Standard", "trackTexture": "", "trackTextureScale": 1 },
{ "floor": 636, "eventType": "Twirl" },
{ "floor": 638, "eventType": "Twirl" },
{ "floor": 640, "eventType": "Twirl" },
{ "floor": 642, "eventType": "Twirl" },
{ "floor": 644, "eventType": "Twirl" },
{ "floor": 646, "eventType": "Twirl" },
{ "floor": 648, "eventType": "Twirl" },
{ "floor": 651, "eventType": "Twirl" },
{ "floor": 653, "eventType": "Twirl" },
{ "floor": 655, "eventType": "Twirl" },
{ "floor": 657, "eventType": "Twirl" },
{ "floor": 664, "eventType": "ColorTrack", "trackColorType": "Single", "trackColor": "debb7b", "secondaryTrackColor": "ffffff", "trackColorAnimDuration": 2, "trackColorPulse": "None", "trackPulseLength": 10, "trackStyle": "Standard", "trackTexture": "", "trackTextureScale": 1 },
{ "floor": 669, "eventType": "Twirl" },
{ "floor": 675, "eventType": "Twirl" },
{ "floor": 681, "eventType": "Twirl" },
{ "floor": 684, "eventType": "Twirl" },
{ "floor": 686, "eventType": "Twirl" },
{ "floor": 688, "eventType": "Twirl" },
{ "floor": 690, "eventType": "Twirl" },
{ "floor": 692, "eventType": "Twirl" },
{ "floor": 694, "eventType": "Twirl" },
{ "floor": 696, "eventType": "Twirl" },
{ "floor": 699, "eventType": "Twirl" },
{ "floor": 701, "eventType": "Twirl" },
{ "floor": 703, "eventType": "Twirl" },
{ "floor": 706, "eventType": "Twirl" },
{ "floor": 708, "eventType": "Twirl" },
{ "floor": 710, "eventType": "Twirl" },
{ "floor": 714, "eventType": "ColorTrack", "trackColorType": "Single", "trackColor": "debb7b", "secondaryTrackColor": "ffffff", "trackColorAnimDuration": 2, "trackColorPulse": "None", "trackPulseLength": 10, "trackStyle": "Standard", "trackTexture": "", "trackTextureScale": 1 },
{ "floor": 719, "eventType": "Twirl" },
{ "floor": 725, "eventType": "Twirl" },
{ "floor": 731, "eventType": "Twirl" },
{ "floor": 734, "eventType": "ColorTrack", "trackColorType": "Single", "trackColor": "89e481ff", "secondaryTrackColor": "ffffff", "trackColorAnimDuration": 2, "trackColorPulse": "None", "trackPulseLength": 10, "trackStyle": "Standard", "trackTexture": "", "trackTextureScale": 1 },
{ "floor": 734, "eventType": "Twirl" },
{ "floor": 736, "eventType": "Twirl" },
{ "floor": 740, "eventType": "Twirl" },
{ "floor": 742, "eventType": "Twirl" },
{ "floor": 744, "eventType": "Twirl" },
{ "floor": 747, "eventType": "Twirl" },
{ "floor": 749, "eventType": "Twirl" },
{ "floor": 751, "eventType": "Twirl" },
{ "floor": 753, "eventType": "Twirl" },
{ "floor": 755, "eventType": "Twirl" },
{ "floor": 757, "eventType": "Twirl" },
{ "floor": 759, "eventType": "Twirl" },
{ "floor": 761, "eventType": "Twirl" },
{ "floor": 762, "eventType": "ColorTrack", "trackColorType": "Single", "trackColor": "debb7b", "secondaryTrackColor": "ffffff", "trackColorAnimDuration": 2, "trackColorPulse": "None", "trackPulseLength": 10, "trackStyle": "Standard", "trackTexture": "", "trackTextureScale": 1 },
{ "floor": 763, "eventType": "Twirl" },
{ "floor": 765, "eventType": "Twirl" },
{ "floor": 767, "eventType": "Twirl" },
{ "floor": 769, "eventType": "Twirl" },
{ "floor": 771, "eventType": "SetSpeed", "speedType": "Multiplier", "beatsPerMinute": 100, "bpmMultiplier": 0.5 },
{ "floor": 771, "eventType": "Pause", "duration": 2.25, "countdownTicks": 0, "angleCorrectionDir": -1 },
{ "floor": 772, "eventType": "SetSpeed", "speedType": "Multiplier", "beatsPerMinute": 100, "bpmMultiplier": 2 },
{ "floor": 772, "eventType": "AnimateTrack", "trackAnimation": "Assemble", "beatsAhead": 2, "trackDisappearAnimation": "None", "beatsBehind": 4 },
{ "floor": 773, "eventType": "AnimateTrack", "trackAnimation": "None", "beatsAhead": 3, "trackDisappearAnimation": "None", "beatsBehind": 4 },
{ "floor": 845, "eventType": "Twirl" },
{ "floor": 847, "eventType": "Twirl" },
{ "floor": 852, "eventType": "SetSpeed", "speedType": "Multiplier", "beatsPerMinute": 100, "bpmMultiplier": 0.5 },
{ "floor": 853, "eventType": "SetSpeed", "speedType": "Multiplier", "beatsPerMinute": 100, "bpmMultiplier": 2 },
{ "floor": 853, "eventType": "Pause", "duration": 0.5, "countdownTicks": 0, "angleCorrectionDir": -1 }
]
"decorations":
[
]
}