init
This commit is contained in:
421
backup.adofai
Normal file
421
backup.adofai
Normal file
@@ -0,0 +1,421 @@
|
||||
{
|
||||
"angleData": [0, 0, 0, 90, 180, 180, 90, 0, 270, 180, 90, 0, 0, 0, 0, 90, 180, 180, 90, 180, 270, 180, 90, 180, 270, 180, 180, 180, 90, 0, 0, 90, 180, 270, 0, 90, 180, 180, 180, 180, 90, 0, 0, 90, 0, 270, 0, 90, 0, 270, 0, 0, 0, 90, 180, 180, 90, 0, 270, 180, 90, 0, 0, 0, 0, 90, 180, 180, 90, 180, 270, 180, 90, 180, 270, 180, 180, 180, 90, 0, 0, 90, 180, 270, 0, 90, 180, 180, 180, 180, 90, 0, 0, 0, 0, 90, 0, 270, 270, 0, 90, 0, 270, 0, 90, 90, 0, 270, 0, 90, 0, 270, 270, 0, 90, 0, 270, 0, 90, 0, -180, 90, 0, 90, 90, 0, 270, 0, 90, 0, 270, 270, 0, 90, 0, 270, 999, 0, 270, 999, 0, 270, 0, 90, 0, 270, 0, 225, 0, 225, 0, 0, 0, 90, 0, 270, 270, 0, 90, 0, 270, 0, 90, 90, 0, 270, 0, 90, 0, 270, 270, 0, 90, 0, 270, 0, 90, 0, -180, 90, 0, 90, 90, 0, 270, 0, 90, 0, 270, 270, 0, 90, 0, 270, 0, 90, 0, 270, 0, 90, 0, 270, 0, 225, 0, 225, 0, 270, 0, 90, 0, 270, 0, 90, 0, 135, 0, 90, 90, 0, 270, 45, 270, 45, 270, 0, 90, 0, 270, 0, 90, 0, 270, 45, 270, 0, 0, 90, 0, 135, 0, 135, 0, 90, 180, 90, 0, 90, 180, 90, 0, 135, 0, 90, 90, 0, 270, 45, 270, 45, 270, 0, 90, 0, 270, 0, 90, 0, 270, 45, 270, 0, 0, 90, 0, 135, 0, 135, 0, 90, 180, 90, 0, 90, 180, 90, 0, 135, 0, 90, 90, 0, 270, 45, 270, 45, 270, 0, 90, 0, 270, 0, 90, 0, 270, 45, 270, 0, 0, 90, 0, 135, 0, 135, 0, 90, 180, 90, 0, 90, 180, 90, 0, 135, 0, 90, 90, 0, 270, 45, 270, 45, 270, 0, 90, 0, 270, 0, 90, 0, 270, 45, 270, 0, 0, 90, 0, 135, 0, 135, 0, 0, 0, 0, 0, 0, 0, 0, 0, 0, 0, 0, 0, 0, 0, 0, 0, 0, 0, 0, 0, 0, 0, 0, 0, 0, 0, 0, 0, 0, 0, 0, 0, 0, 0, 0, 0, 0, 0, 0, 0, 0, 0, 0, 0, 0, 0, 0, 0, 90, 0, 270, 0, 90, 0, 270, 0, 90, 0, 270, 0, 90, 0, 270, 0, 135, 0, 135, 0, 135, 0, 135, 0, 135, 0, 135, 0, 135, 0, 135, 0, 0, 90, 90, 0, 0, 0, 270, 270, 0, 0, 0, 90, 90, 0, 0, 0, 270, 270, 0, 0, 0, 90, 90, 0, 0, 0, 270, 270, 0, 0, 0, 90, 0, 270, 0, 90, 0, 270, 0, 90, 0, 270, 0, 90, 0, 270, 0, 90, 90, 0, 135, 0, 135, 0, 135, 0, 135, 0, 90, 90, 0, 135, 0, 135, 0, 135, 0, 135, 0, 90, 90, 0, 135, 0, 135, 0, 135, 0, 135, 0, 90, 90, 0, 135, 0, 135, 0, 135, 0, 135, 0, 90, 90, 0, 135, 0, 135, 0, 135, 0, 135, 0, 90, 90, 0, 135, 0, 135, 0, 135, 0, 135, 0, 135, 0, 135, 0, 90, 315, 90, 315, 90, 0, 135, 0, 135, 0, 90, 315, 90, 315, 90, 0, 135, 0, 135, 0, 135, 0, 135, 0, 0, 0, 90, 999, 0, 0, 90, 0, 270, 0, 90, 0, 0, 0, 0, 270, 999, 0, 0, 270, 0, 90, 0, 270, 0, 90, 0, 0, 0, 270, 999, 0, 0, 270, 0, 90, 0, 270, 0, 0, 0, 0, 90, 999, 0, 0, 90, 0, 270, 0, 90, 0, 270, 0, 270, 0, 90, 0, 270, 0, 90, 0, 270, 0, 90, 0, 270, 0, 90, 0, 270, 0, 90, 0, 270, 0, 90, 0, 270, 0, 90, 0, 270, 0, 90, 0, 270, 0, 90, 0, 270, 0, 90, 0, 270, 0, 90, 0, 270, 0, 90, 0, 270, 0],
|
||||
"settings":
|
||||
{
|
||||
"version": 9 ,
|
||||
"artist": "ARForest",
|
||||
"specialArtistType": "None",
|
||||
"artistPermission": "",
|
||||
"song": "Inverted World",
|
||||
"author": "tks",
|
||||
"separateCountdownTime": "Enabled",
|
||||
"previewImage": "Inverted_World_jacket.png",
|
||||
"previewIcon": "",
|
||||
"previewIconColor": "003f52",
|
||||
"previewSongStart": 0,
|
||||
"previewSongDuration": 10,
|
||||
"seizureWarning": "Disabled",
|
||||
"levelDesc": "说说看你的关卡是什么样的吧!",
|
||||
"levelTags": "",
|
||||
"artistLinks": "",
|
||||
"difficulty": 1,
|
||||
"songFilename": "Inverted World.ogg",
|
||||
"bpm": 180,
|
||||
"volume": 70,
|
||||
"offset": 50,
|
||||
"pitch": 100,
|
||||
"hitsound": "Kick",
|
||||
"hitsoundVolume": 100,
|
||||
"countdownTicks": 4,
|
||||
"trackColorType": "Single",
|
||||
"trackColor": "debb7b",
|
||||
"secondaryTrackColor": "ffffff",
|
||||
"trackColorAnimDuration": 2,
|
||||
"trackColorPulse": "None",
|
||||
"trackPulseLength": 10,
|
||||
"trackStyle": "Standard",
|
||||
"trackAnimation": "None",
|
||||
"beatsAhead": 3,
|
||||
"trackDisappearAnimation": "None",
|
||||
"beatsBehind": 4,
|
||||
"backgroundColor": "000000",
|
||||
"showDefaultBGIfNoImage": "Enabled",
|
||||
"bgImage": "",
|
||||
"bgImageColor": "ffffff",
|
||||
"parallax": [100, 100],
|
||||
"bgDisplayMode": "FitToScreen",
|
||||
"lockRot": "Disabled",
|
||||
"loopBG": "Disabled",
|
||||
"unscaledSize": 100,
|
||||
"relativeTo": "Player",
|
||||
"position": [0, 0],
|
||||
"rotation": 0,
|
||||
"zoom": 100,
|
||||
"bgVideo": "",
|
||||
"loopVideo": "Disabled",
|
||||
"vidOffset": 0,
|
||||
"floorIconOutlines": "Disabled",
|
||||
"stickToFloors": "Disabled",
|
||||
"planetEase": "Linear",
|
||||
"planetEaseParts": 1,
|
||||
"customClass": "",
|
||||
"legacyFlash": false ,
|
||||
"legacySpriteTiles": false
|
||||
},
|
||||
"actions":
|
||||
[
|
||||
{ "floor": 6, "eventType": "Twirl" },
|
||||
{ "floor": 15, "eventType": "Twirl" },
|
||||
{ "floor": 17, "eventType": "Twirl" },
|
||||
{ "floor": 19, "eventType": "Twirl" },
|
||||
{ "floor": 21, "eventType": "Twirl" },
|
||||
{ "floor": 23, "eventType": "Twirl" },
|
||||
{ "floor": 25, "eventType": "Twirl" },
|
||||
{ "floor": 31, "eventType": "Twirl" },
|
||||
{ "floor": 40, "eventType": "Twirl" },
|
||||
{ "floor": 42, "eventType": "Twirl" },
|
||||
{ "floor": 44, "eventType": "Twirl" },
|
||||
{ "floor": 46, "eventType": "Twirl" },
|
||||
{ "floor": 48, "eventType": "Twirl" },
|
||||
{ "floor": 50, "eventType": "Twirl" },
|
||||
{ "floor": 56, "eventType": "Twirl" },
|
||||
{ "floor": 65, "eventType": "Twirl" },
|
||||
{ "floor": 67, "eventType": "Twirl" },
|
||||
{ "floor": 69, "eventType": "Twirl" },
|
||||
{ "floor": 71, "eventType": "Twirl" },
|
||||
{ "floor": 73, "eventType": "Twirl" },
|
||||
{ "floor": 75, "eventType": "Twirl" },
|
||||
{ "floor": 81, "eventType": "Twirl" },
|
||||
{ "floor": 90, "eventType": "Twirl" },
|
||||
{ "floor": 92, "eventType": "Pause", "duration": 4, "countdownTicks": 0, "angleCorrectionDir": -1 },
|
||||
{ "floor": 93, "eventType": "AnimateTrack", "trackAnimation": "Assemble", "beatsAhead": 1, "trackDisappearAnimation": "None", "beatsBehind": 4 },
|
||||
{ "floor": 94, "eventType": "AnimateTrack", "trackAnimation": "None", "beatsAhead": 3, "trackDisappearAnimation": "None", "beatsBehind": 4 },
|
||||
{ "floor": 95, "eventType": "Twirl" },
|
||||
{ "floor": 96, "eventType": "Twirl" },
|
||||
{ "floor": 98, "eventType": "Twirl" },
|
||||
{ "floor": 101, "eventType": "Twirl" },
|
||||
{ "floor": 103, "eventType": "Twirl" },
|
||||
{ "floor": 105, "eventType": "Twirl" },
|
||||
{ "floor": 108, "eventType": "Twirl" },
|
||||
{ "floor": 110, "eventType": "Twirl" },
|
||||
{ "floor": 112, "eventType": "Twirl" },
|
||||
{ "floor": 115, "eventType": "Twirl" },
|
||||
{ "floor": 117, "eventType": "Twirl" },
|
||||
{ "floor": 119, "eventType": "Twirl" },
|
||||
{ "floor": 123, "eventType": "Twirl" },
|
||||
{ "floor": 124, "eventType": "Twirl" },
|
||||
{ "floor": 127, "eventType": "Twirl" },
|
||||
{ "floor": 129, "eventType": "Twirl" },
|
||||
{ "floor": 131, "eventType": "Twirl" },
|
||||
{ "floor": 134, "eventType": "Twirl" },
|
||||
{ "floor": 142, "eventType": "Twirl" },
|
||||
{ "floor": 144, "eventType": "Twirl" },
|
||||
{ "floor": 146, "eventType": "Twirl" },
|
||||
{ "floor": 147, "eventType": "Twirl" },
|
||||
{ "floor": 148, "eventType": "Twirl" },
|
||||
{ "floor": 149, "eventType": "Twirl" },
|
||||
{ "floor": 150, "eventType": "Twirl" },
|
||||
{ "floor": 154, "eventType": "Twirl" },
|
||||
{ "floor": 156, "eventType": "Twirl" },
|
||||
{ "floor": 159, "eventType": "Twirl" },
|
||||
{ "floor": 161, "eventType": "Twirl" },
|
||||
{ "floor": 163, "eventType": "Twirl" },
|
||||
{ "floor": 166, "eventType": "Twirl" },
|
||||
{ "floor": 168, "eventType": "Twirl" },
|
||||
{ "floor": 170, "eventType": "Twirl" },
|
||||
{ "floor": 173, "eventType": "Twirl" },
|
||||
{ "floor": 175, "eventType": "Twirl" },
|
||||
{ "floor": 177, "eventType": "Twirl" },
|
||||
{ "floor": 181, "eventType": "Twirl" },
|
||||
{ "floor": 182, "eventType": "Twirl" },
|
||||
{ "floor": 185, "eventType": "Twirl" },
|
||||
{ "floor": 187, "eventType": "Twirl" },
|
||||
{ "floor": 189, "eventType": "Twirl" },
|
||||
{ "floor": 192, "eventType": "Twirl" },
|
||||
{ "floor": 194, "eventType": "Twirl" },
|
||||
{ "floor": 196, "eventType": "Twirl" },
|
||||
{ "floor": 198, "eventType": "Twirl" },
|
||||
{ "floor": 200, "eventType": "Twirl" },
|
||||
{ "floor": 202, "eventType": "Twirl" },
|
||||
{ "floor": 203, "eventType": "Twirl" },
|
||||
{ "floor": 204, "eventType": "Twirl" },
|
||||
{ "floor": 205, "eventType": "Twirl" },
|
||||
{ "floor": 206, "eventType": "Twirl" },
|
||||
{ "floor": 207, "eventType": "Twirl" },
|
||||
{ "floor": 208, "eventType": "Twirl" },
|
||||
{ "floor": 210, "eventType": "Twirl" },
|
||||
{ "floor": 212, "eventType": "Twirl" },
|
||||
{ "floor": 214, "eventType": "Twirl" },
|
||||
{ "floor": 215, "eventType": "Twirl" },
|
||||
{ "floor": 216, "eventType": "Twirl" },
|
||||
{ "floor": 217, "eventType": "Twirl" },
|
||||
{ "floor": 218, "eventType": "Twirl" },
|
||||
{ "floor": 221, "eventType": "Twirl" },
|
||||
{ "floor": 222, "eventType": "Twirl" },
|
||||
{ "floor": 223, "eventType": "Twirl" },
|
||||
{ "floor": 224, "eventType": "Twirl" },
|
||||
{ "floor": 225, "eventType": "Twirl" },
|
||||
{ "floor": 227, "eventType": "Twirl" },
|
||||
{ "floor": 229, "eventType": "Twirl" },
|
||||
{ "floor": 231, "eventType": "Twirl" },
|
||||
{ "floor": 233, "eventType": "Twirl" },
|
||||
{ "floor": 234, "eventType": "Twirl" },
|
||||
{ "floor": 235, "eventType": "Twirl" },
|
||||
{ "floor": 238, "eventType": "Twirl" },
|
||||
{ "floor": 239, "eventType": "Twirl" },
|
||||
{ "floor": 240, "eventType": "Twirl" },
|
||||
{ "floor": 241, "eventType": "Twirl" },
|
||||
{ "floor": 242, "eventType": "Twirl" },
|
||||
{ "floor": 243, "eventType": "Twirl" },
|
||||
{ "floor": 245, "eventType": "Twirl" },
|
||||
{ "floor": 247, "eventType": "Twirl" },
|
||||
{ "floor": 249, "eventType": "Twirl" },
|
||||
{ "floor": 251, "eventType": "Twirl" },
|
||||
{ "floor": 252, "eventType": "Twirl" },
|
||||
{ "floor": 253, "eventType": "Twirl" },
|
||||
{ "floor": 254, "eventType": "Twirl" },
|
||||
{ "floor": 257, "eventType": "Twirl" },
|
||||
{ "floor": 258, "eventType": "Twirl" },
|
||||
{ "floor": 259, "eventType": "Twirl" },
|
||||
{ "floor": 260, "eventType": "Twirl" },
|
||||
{ "floor": 261, "eventType": "Twirl" },
|
||||
{ "floor": 263, "eventType": "Twirl" },
|
||||
{ "floor": 265, "eventType": "Twirl" },
|
||||
{ "floor": 267, "eventType": "Twirl" },
|
||||
{ "floor": 269, "eventType": "Twirl" },
|
||||
{ "floor": 270, "eventType": "Twirl" },
|
||||
{ "floor": 271, "eventType": "Twirl" },
|
||||
{ "floor": 274, "eventType": "Twirl" },
|
||||
{ "floor": 275, "eventType": "Twirl" },
|
||||
{ "floor": 276, "eventType": "Twirl" },
|
||||
{ "floor": 277, "eventType": "Twirl" },
|
||||
{ "floor": 278, "eventType": "Twirl" },
|
||||
{ "floor": 279, "eventType": "Twirl" },
|
||||
{ "floor": 281, "eventType": "Twirl" },
|
||||
{ "floor": 283, "eventType": "Twirl" },
|
||||
{ "floor": 285, "eventType": "Twirl" },
|
||||
{ "floor": 287, "eventType": "Twirl" },
|
||||
{ "floor": 288, "eventType": "Twirl" },
|
||||
{ "floor": 289, "eventType": "Twirl" },
|
||||
{ "floor": 290, "eventType": "Twirl" },
|
||||
{ "floor": 293, "eventType": "Twirl" },
|
||||
{ "floor": 294, "eventType": "Twirl" },
|
||||
{ "floor": 295, "eventType": "Twirl" },
|
||||
{ "floor": 296, "eventType": "Twirl" },
|
||||
{ "floor": 297, "eventType": "Twirl" },
|
||||
{ "floor": 299, "eventType": "Twirl" },
|
||||
{ "floor": 301, "eventType": "Twirl" },
|
||||
{ "floor": 303, "eventType": "Twirl" },
|
||||
{ "floor": 305, "eventType": "Twirl" },
|
||||
{ "floor": 306, "eventType": "Twirl" },
|
||||
{ "floor": 307, "eventType": "Twirl" },
|
||||
{ "floor": 310, "eventType": "Twirl" },
|
||||
{ "floor": 311, "eventType": "Twirl" },
|
||||
{ "floor": 312, "eventType": "Twirl" },
|
||||
{ "floor": 313, "eventType": "Twirl" },
|
||||
{ "floor": 314, "eventType": "Twirl" },
|
||||
{ "floor": 315, "eventType": "Twirl" },
|
||||
{ "floor": 317, "eventType": "Twirl" },
|
||||
{ "floor": 319, "eventType": "Twirl" },
|
||||
{ "floor": 321, "eventType": "Twirl" },
|
||||
{ "floor": 323, "eventType": "Twirl" },
|
||||
{ "floor": 324, "eventType": "Twirl" },
|
||||
{ "floor": 325, "eventType": "Twirl" },
|
||||
{ "floor": 326, "eventType": "Twirl" },
|
||||
{ "floor": 329, "eventType": "Twirl" },
|
||||
{ "floor": 330, "eventType": "Twirl" },
|
||||
{ "floor": 331, "eventType": "Twirl" },
|
||||
{ "floor": 332, "eventType": "Twirl" },
|
||||
{ "floor": 333, "eventType": "Twirl" },
|
||||
{ "floor": 335, "eventType": "Twirl" },
|
||||
{ "floor": 337, "eventType": "Twirl" },
|
||||
{ "floor": 339, "eventType": "Twirl" },
|
||||
{ "floor": 341, "eventType": "Twirl" },
|
||||
{ "floor": 342, "eventType": "Twirl" },
|
||||
{ "floor": 343, "eventType": "Twirl" },
|
||||
{ "floor": 346, "eventType": "Twirl" },
|
||||
{ "floor": 347, "eventType": "Twirl" },
|
||||
{ "floor": 348, "eventType": "Twirl" },
|
||||
{ "floor": 349, "eventType": "Twirl" },
|
||||
{ "floor": 350, "eventType": "Twirl" },
|
||||
{ "floor": 351, "eventType": "Twirl" },
|
||||
{ "floor": 351, "eventType": "Flash", "duration": 1, "plane": "Background", "startColor": "ffffff", "startOpacity": 30, "endColor": "ffffff", "endOpacity": 0, "angleOffset": 0, "ease": "Linear", "eventTag": "" },
|
||||
{ "floor": 351, "eventType": "SetFilter", "filter": "Grayscale", "enabled": "Enabled", "intensity": 100, "duration": 0, "ease": "Linear", "disableOthers": "Disabled", "angleOffset": 0, "eventTag": "" },
|
||||
{ "floor": 383, "eventType": "SetFilter", "filter": "Grayscale", "enabled": "Enabled", "intensity": 0, "duration": 1, "ease": "Linear", "disableOthers": "Disabled", "angleOffset": 0, "eventTag": "" },
|
||||
{ "floor": 384, "eventType": "SetFilter", "filter": "Grayscale", "enabled": "Enabled", "intensity": 100, "duration": 1, "ease": "Linear", "disableOthers": "Disabled", "angleOffset": 0, "eventTag": "" },
|
||||
{ "floor": 391, "eventType": "SetFilter", "filter": "Grayscale", "enabled": "Enabled", "intensity": 0, "duration": 1, "ease": "Linear", "disableOthers": "Disabled", "angleOffset": 0, "eventTag": "" },
|
||||
{ "floor": 392, "eventType": "SetFilter", "filter": "Grayscale", "enabled": "Enabled", "intensity": 100, "duration": 1, "ease": "Linear", "disableOthers": "Disabled", "angleOffset": 0, "eventTag": "" },
|
||||
{ "floor": 400, "eventType": "Twirl" },
|
||||
{ "floor": 402, "eventType": "Twirl" },
|
||||
{ "floor": 404, "eventType": "Twirl" },
|
||||
{ "floor": 406, "eventType": "Twirl" },
|
||||
{ "floor": 408, "eventType": "Twirl" },
|
||||
{ "floor": 410, "eventType": "Twirl" },
|
||||
{ "floor": 412, "eventType": "Twirl" },
|
||||
{ "floor": 414, "eventType": "Twirl" },
|
||||
{ "floor": 416, "eventType": "Twirl" },
|
||||
{ "floor": 417, "eventType": "Twirl" },
|
||||
{ "floor": 418, "eventType": "Twirl" },
|
||||
{ "floor": 419, "eventType": "Twirl" },
|
||||
{ "floor": 420, "eventType": "Twirl" },
|
||||
{ "floor": 421, "eventType": "Twirl" },
|
||||
{ "floor": 422, "eventType": "Twirl" },
|
||||
{ "floor": 423, "eventType": "Twirl" },
|
||||
{ "floor": 424, "eventType": "Twirl" },
|
||||
{ "floor": 425, "eventType": "Twirl" },
|
||||
{ "floor": 426, "eventType": "Twirl" },
|
||||
{ "floor": 427, "eventType": "Twirl" },
|
||||
{ "floor": 428, "eventType": "Twirl" },
|
||||
{ "floor": 429, "eventType": "Twirl" },
|
||||
{ "floor": 430, "eventType": "Twirl" },
|
||||
{ "floor": 431, "eventType": "Twirl" },
|
||||
{ "floor": 431, "eventType": "SetSpeed", "speedType": "Multiplier", "beatsPerMinute": 100, "bpmMultiplier": 0.25 },
|
||||
{ "floor": 432, "eventType": "SetSpeed", "speedType": "Multiplier", "beatsPerMinute": 100, "bpmMultiplier": 4 },
|
||||
{ "floor": 432, "eventType": "SetFilter", "filter": "Grayscale", "enabled": "Enabled", "intensity": 0, "duration": 0, "ease": "Linear", "disableOthers": "Disabled", "angleOffset": 0, "eventTag": "" },
|
||||
{ "floor": 432, "eventType": "Flash", "duration": 1, "plane": "Background", "startColor": "ffffff", "startOpacity": 50, "endColor": "ffffff", "endOpacity": 0, "angleOffset": 0, "ease": "Linear", "eventTag": "" },
|
||||
{ "floor": 432, "eventType": "Bloom", "enabled": "Enabled", "threshold": 50, "intensity": 60, "color": "ffffff", "duration": 0, "ease": "Linear", "angleOffset": 0, "eventTag": "" },
|
||||
{ "floor": 434, "eventType": "Twirl" },
|
||||
{ "floor": 439, "eventType": "Twirl" },
|
||||
{ "floor": 444, "eventType": "Twirl" },
|
||||
{ "floor": 449, "eventType": "Twirl" },
|
||||
{ "floor": 454, "eventType": "Twirl" },
|
||||
{ "floor": 459, "eventType": "Twirl" },
|
||||
{ "floor": 463, "eventType": "Twirl" },
|
||||
{ "floor": 465, "eventType": "Twirl" },
|
||||
{ "floor": 467, "eventType": "Twirl" },
|
||||
{ "floor": 469, "eventType": "Twirl" },
|
||||
{ "floor": 471, "eventType": "Twirl" },
|
||||
{ "floor": 473, "eventType": "Twirl" },
|
||||
{ "floor": 475, "eventType": "Twirl" },
|
||||
{ "floor": 477, "eventType": "Twirl" },
|
||||
{ "floor": 480, "eventType": "Twirl" },
|
||||
{ "floor": 481, "eventType": "Twirl" },
|
||||
{ "floor": 482, "eventType": "Twirl" },
|
||||
{ "floor": 483, "eventType": "Twirl" },
|
||||
{ "floor": 484, "eventType": "Twirl" },
|
||||
{ "floor": 485, "eventType": "Twirl" },
|
||||
{ "floor": 486, "eventType": "Twirl" },
|
||||
{ "floor": 487, "eventType": "Twirl" },
|
||||
{ "floor": 488, "eventType": "Twirl" },
|
||||
{ "floor": 489, "eventType": "Twirl" },
|
||||
{ "floor": 491, "eventType": "Twirl" },
|
||||
{ "floor": 492, "eventType": "Twirl" },
|
||||
{ "floor": 493, "eventType": "Twirl" },
|
||||
{ "floor": 494, "eventType": "Twirl" },
|
||||
{ "floor": 495, "eventType": "Twirl" },
|
||||
{ "floor": 496, "eventType": "Twirl" },
|
||||
{ "floor": 497, "eventType": "Twirl" },
|
||||
{ "floor": 498, "eventType": "Twirl" },
|
||||
{ "floor": 499, "eventType": "Twirl" },
|
||||
{ "floor": 500, "eventType": "Twirl" },
|
||||
{ "floor": 502, "eventType": "Twirl" },
|
||||
{ "floor": 503, "eventType": "Twirl" },
|
||||
{ "floor": 504, "eventType": "Twirl" },
|
||||
{ "floor": 505, "eventType": "Twirl" },
|
||||
{ "floor": 506, "eventType": "Twirl" },
|
||||
{ "floor": 507, "eventType": "Twirl" },
|
||||
{ "floor": 508, "eventType": "Twirl" },
|
||||
{ "floor": 509, "eventType": "Twirl" },
|
||||
{ "floor": 510, "eventType": "Twirl" },
|
||||
{ "floor": 511, "eventType": "Twirl" },
|
||||
{ "floor": 513, "eventType": "Twirl" },
|
||||
{ "floor": 514, "eventType": "Twirl" },
|
||||
{ "floor": 515, "eventType": "Twirl" },
|
||||
{ "floor": 516, "eventType": "Twirl" },
|
||||
{ "floor": 517, "eventType": "Twirl" },
|
||||
{ "floor": 518, "eventType": "Twirl" },
|
||||
{ "floor": 519, "eventType": "Twirl" },
|
||||
{ "floor": 520, "eventType": "Twirl" },
|
||||
{ "floor": 521, "eventType": "Twirl" },
|
||||
{ "floor": 522, "eventType": "Twirl" },
|
||||
{ "floor": 524, "eventType": "Twirl" },
|
||||
{ "floor": 525, "eventType": "Twirl" },
|
||||
{ "floor": 526, "eventType": "Twirl" },
|
||||
{ "floor": 527, "eventType": "Twirl" },
|
||||
{ "floor": 528, "eventType": "Twirl" },
|
||||
{ "floor": 529, "eventType": "Twirl" },
|
||||
{ "floor": 530, "eventType": "Twirl" },
|
||||
{ "floor": 531, "eventType": "Twirl" },
|
||||
{ "floor": 532, "eventType": "Twirl" },
|
||||
{ "floor": 533, "eventType": "Twirl" },
|
||||
{ "floor": 535, "eventType": "Twirl" },
|
||||
{ "floor": 536, "eventType": "Twirl" },
|
||||
{ "floor": 537, "eventType": "Twirl" },
|
||||
{ "floor": 538, "eventType": "Twirl" },
|
||||
{ "floor": 539, "eventType": "Twirl" },
|
||||
{ "floor": 540, "eventType": "Twirl" },
|
||||
{ "floor": 541, "eventType": "Twirl" },
|
||||
{ "floor": 542, "eventType": "Twirl" },
|
||||
{ "floor": 543, "eventType": "Twirl" },
|
||||
{ "floor": 544, "eventType": "Twirl" },
|
||||
{ "floor": 545, "eventType": "Twirl" },
|
||||
{ "floor": 546, "eventType": "Twirl" },
|
||||
{ "floor": 547, "eventType": "Twirl" },
|
||||
{ "floor": 548, "eventType": "Twirl" },
|
||||
{ "floor": 549, "eventType": "Twirl" },
|
||||
{ "floor": 550, "eventType": "Twirl" },
|
||||
{ "floor": 551, "eventType": "Twirl" },
|
||||
{ "floor": 552, "eventType": "Twirl" },
|
||||
{ "floor": 553, "eventType": "Twirl" },
|
||||
{ "floor": 554, "eventType": "Twirl" },
|
||||
{ "floor": 555, "eventType": "Twirl" },
|
||||
{ "floor": 556, "eventType": "Twirl" },
|
||||
{ "floor": 557, "eventType": "Twirl" },
|
||||
{ "floor": 558, "eventType": "Twirl" },
|
||||
{ "floor": 559, "eventType": "Twirl" },
|
||||
{ "floor": 560, "eventType": "Twirl" },
|
||||
{ "floor": 561, "eventType": "Twirl" },
|
||||
{ "floor": 562, "eventType": "Twirl" },
|
||||
{ "floor": 563, "eventType": "Twirl" },
|
||||
{ "floor": 564, "eventType": "Twirl" },
|
||||
{ "floor": 565, "eventType": "Twirl" },
|
||||
{ "floor": 566, "eventType": "Twirl" },
|
||||
{ "floor": 567, "eventType": "Twirl" },
|
||||
{ "floor": 568, "eventType": "Twirl" },
|
||||
{ "floor": 569, "eventType": "Twirl" },
|
||||
{ "floor": 570, "eventType": "Twirl" },
|
||||
{ "floor": 571, "eventType": "Twirl" },
|
||||
{ "floor": 572, "eventType": "Twirl" },
|
||||
{ "floor": 579, "eventType": "Twirl" },
|
||||
{ "floor": 581, "eventType": "Twirl" },
|
||||
{ "floor": 583, "eventType": "Twirl" },
|
||||
{ "floor": 592, "eventType": "Twirl" },
|
||||
{ "floor": 594, "eventType": "Twirl" },
|
||||
{ "floor": 596, "eventType": "Twirl" },
|
||||
{ "floor": 598, "eventType": "Twirl" },
|
||||
{ "floor": 606, "eventType": "Twirl" },
|
||||
{ "floor": 608, "eventType": "Twirl" },
|
||||
{ "floor": 610, "eventType": "Twirl" },
|
||||
{ "floor": 619, "eventType": "Twirl" },
|
||||
{ "floor": 621, "eventType": "Twirl" },
|
||||
{ "floor": 623, "eventType": "Twirl" },
|
||||
{ "floor": 625, "eventType": "Twirl" },
|
||||
{ "floor": 629, "eventType": "Twirl" },
|
||||
{ "floor": 632, "eventType": "Twirl" },
|
||||
{ "floor": 633, "eventType": "Twirl" },
|
||||
{ "floor": 635, "eventType": "Twirl" },
|
||||
{ "floor": 638, "eventType": "Twirl" },
|
||||
{ "floor": 639, "eventType": "Twirl" },
|
||||
{ "floor": 641, "eventType": "Twirl" },
|
||||
{ "floor": 644, "eventType": "Twirl" },
|
||||
{ "floor": 645, "eventType": "Twirl" },
|
||||
{ "floor": 647, "eventType": "Twirl" },
|
||||
{ "floor": 649, "eventType": "Twirl" },
|
||||
{ "floor": 650, "eventType": "Twirl" },
|
||||
{ "floor": 653, "eventType": "Twirl" },
|
||||
{ "floor": 656, "eventType": "Twirl" },
|
||||
{ "floor": 657, "eventType": "Twirl" },
|
||||
{ "floor": 659, "eventType": "Twirl" },
|
||||
{ "floor": 662, "eventType": "Twirl" },
|
||||
{ "floor": 663, "eventType": "Twirl" },
|
||||
{ "floor": 665, "eventType": "Twirl" },
|
||||
{ "floor": 667, "eventType": "Twirl" },
|
||||
{ "floor": 669, "eventType": "Twirl" },
|
||||
{ "floor": 671, "eventType": "Twirl" },
|
||||
{ "floor": 673, "eventType": "Twirl" },
|
||||
{ "floor": 675, "eventType": "Twirl" }
|
||||
]
|
||||
"decorations":
|
||||
[
|
||||
]
|
||||
}
|
||||
Reference in New Issue
Block a user