{ "angleData": [0, 0, 0, 0, 0, 0, 0, 0, 0, 0, 0, 0, 0, 0, 0, 0, 0, 0, 0, 0, 0, 0, 0, 0, 0, 0, 0, 0, 0, 0, 0, 0, 0, 0, 0, 0, 0, 0, 0, 0, 0, 0, 0, 0, 0, 0, 0, 0, 0, 0, 0, 0, 0, 0, 0, 0, 0, 0, 0, 0, 0, 0, 0, 270, 0, 90, 0, 0, 0, 270, 0, 90, 0, 0, 0, 270, 0, 90, 0, 0, 0, 0, 90, 180, 180, 180, 90, 180, 90, 180, 180, 180, 270, 0, 90, 180, 180, 180, 270, 0, 90, 180, 180, 180, 180, 90, 0, 0, 0, 90, 0, 90, 0, 0, 0, 270, 180, 90, 0, 0, 0, 270, 180, 90, 0, 0, 0, 90, 180, 90, 180, 180, 180, 270, 0, 90, 180, 180, 180, 270, 0, 90, 180, 180, 180, 90, 180, 270, 180, 90, 180, 270, 180, 90, 180, 270, 180, 180, 180, 180, 180, 90, 0, 0, 90, 180, 90, 0, 0, 0, 0, 0, 90, 180, 180, 90, 0, 90, 180, 180, 180, 180, 180, 90, 0, 0, 90, 180, 90, 0, 0, 0, 0, 0, 90, 180, 180, 90, 0, 90, 180, 180, 180, 180, 180, 90, 0, 0, 90, 180, 90, 0, 0, 0, 0, 0, 90, 180, 180, 90, 0, 90, 180, 180, 180, 180, 180, 90, 0, 0, 90, 180, 90, 0, 0, 0, 0, 0, 90, 180, 180, 90, 0, 90, 180, 180, 180, 180, 180, 180, 180, 180, 180, 180, 180, 180, 180, 180, 180, 180, 180, 180, 180, 180, 180, 180, 180, 180, 180, 180, 180, 180, 180, 180, 180, 180, 180, 180, 180, 180, 180, 180, 180, 180, 180, 180, 180, 180, 180, 180, 180, 180, 180, 180, 180, 180, 180, 180, 180, 180, 180, 180, 180, 180, 180, 180, 180, 180, 180, 180, 180, 90, 0, 0, 0, 0, 90, 180, 90, 0, 0, 0, 90, 180, 180, 180, 180, 90, 0, 90, 180, 180, 180, 90, 0, 0, 0, 0, 90, 180, 90, 0, 90, 180, 90, 0, 90, 180, 90, 0, 90, 180, 90, 0, 90, 180, 90, 0, 0, 0, 90, 180, 180, 180, 180, 90, 0, 90, 180, 180, 180, 90, 0, 0, 0, 0, 90, 180, 90, 0, 0, 0, 90, 180, 180, 180, 180, 90, 0, 90, 180, 90, 0, 90, 180, 90, 0, 90, 180, 90, 0, 90, 180, 90, 0, 90, 180, 180, 180, 180, 270, 0, 270, 270, 180, 90, 180, 270, 180, 90, 90, 180, 270, 180, 90, 180, 270, 270, 180, 90, 180, 270, 180, 90, 180, 90, 180, 270, 180, 90, 90, 180, 270, 180, 90, 180, 270, 270, 180, 90, 180, 270, 180, 90, 180, 270, 180, 90, 180, 270, 180, 90, 180], "settings": { "version": 9 , "artist": "ARForest", "specialArtistType": "None", "artistPermission": "", "song": "Inverted World", "author": "atlas", "separateCountdownTime": "Enabled", "previewImage": "Inverted_World_jacket.png", "previewIcon": "", "previewIconColor": "003f52", "previewSongStart": 0, "previewSongDuration": 10, "seizureWarning": "Disabled", "levelDesc": "说说看你的关卡是什么样的吧!", "levelTags": "", "artistLinks": "", "difficulty": 1, "songFilename": "Inverted World.ogg", "bpm": 180, "volume": 100, "offset": 50, "pitch": 100, "hitsound": "Kick", "hitsoundVolume": 100, "countdownTicks": 4, "trackColorType": "Single", "trackColor": "debb7b", "secondaryTrackColor": "ffffff", "trackColorAnimDuration": 2, "trackColorPulse": "None", "trackPulseLength": 10, "trackStyle": "Standard", "trackAnimation": "None", "beatsAhead": 3, "trackDisappearAnimation": "None", "beatsBehind": 4, "backgroundColor": "000000", "showDefaultBGIfNoImage": "Disabled", "bgImage": "", "bgImageColor": "ffffff", "parallax": [100, 100], "bgDisplayMode": "FitToScreen", "lockRot": "Disabled", "loopBG": "Disabled", "unscaledSize": 100, "relativeTo": "Player", "position": [0, 0], "rotation": 0, "zoom": 100, "bgVideo": "", "loopVideo": "Disabled", "vidOffset": 0, "floorIconOutlines": "Disabled", "stickToFloors": "Disabled", "planetEase": "Linear", "planetEaseParts": 1, "customClass": "", "legacyFlash": false , "legacySpriteTiles": false }, "actions": [ { "floor": 1, "eventType": "MoveTrack", "startTile": [32, "Start"], "endTile": [40, "Start"], "duration": 8, "positionOffset": [44, -4], "angleOffset": 0, "ease": "Linear", "maxVfxOnly": "Disabled", "eventTag": "", }, { "floor": 9, "eventType": "MoveTrack", "startTile": [41, "Start"], "endTile": [48, "Start"], "duration": 8, "positionOffset": [44, 4], "angleOffset": 0, "ease": "Linear", "maxVfxOnly": "Disabled", "eventTag": "", }, { "floor": 17, "eventType": "MoveTrack", "startTile": [49, "Start"], "endTile": [59, "Start"], "duration": 8, "positionOffset": [44, -4], "angleOffset": 0, "ease": "Linear", "maxVfxOnly": "Disabled", "eventTag": "", }, { "floor": 25, "eventType": "AnimateTrack", "trackAnimation": "None", "beatsAhead": 3, "trackDisappearAnimation": "None", "beatsBehind": 4 }, { "floor": 32, "eventType": "PositionTrack", "positionOffset": [-44, 4], "rotation": 0, "scale": 100, "opacity": 100, "editorOnly": "Disabled" }, { "floor": 33, "eventType": "Flash", "duration": 1, "plane": "Background", "startColor": "9c9c9cff", "startOpacity": 40, "endColor": "ffffff", "endOpacity": 0, "angleOffset": 0, "ease": "Linear", "eventTag": "" }, { "floor": 41, "eventType": "PositionTrack", "positionOffset": [0, -8], "rotation": 0, "scale": 100, "opacity": 100, "editorOnly": "Disabled" }, { "floor": 49, "eventType": "PositionTrack", "positionOffset": [0, 8], "rotation": 0, "scale": 100, "opacity": 100, "editorOnly": "Disabled" }, { "floor": 60, "eventType": "Pause", "duration": 4, "countdownTicks": 0, "angleCorrectionDir": -1 }, { "floor": 60, "eventType": "PositionTrack", "positionOffset": [44, -4], "rotation": 0, "scale": 100, "opacity": 100, "editorOnly": "Disabled" }, { "floor": 61, "eventType": "AnimateTrack", "trackAnimation": "Assemble", "beatsAhead": 1, "trackDisappearAnimation": "None", "beatsBehind": 4 }, { "floor": 62, "eventType": "AnimateTrack", "trackAnimation": "None", "beatsAhead": 3, "trackDisappearAnimation": "None", "beatsBehind": 4 }, { "floor": 63, "eventType": "Twirl" }, { "floor": 64, "eventType": "Twirl" }, { "floor": 66, "eventType": "Twirl" }, { "floor": 70, "eventType": "Twirl" }, { "floor": 72, "eventType": "Twirl" }, { "floor": 76, "eventType": "Twirl" }, { "floor": 78, "eventType": "Twirl" }, { "floor": 80, "eventType": "AnimateTrack", "trackAnimation": "Grow", "beatsAhead": 3, "trackDisappearAnimation": "None", "beatsBehind": 4 }, { "floor": 82, "eventType": "Twirl" }, { "floor": 86, "eventType": "Twirl" }, { "floor": 87, "eventType": "Twirl" }, { "floor": 88, "eventType": "Twirl" }, { "floor": 89, "eventType": "Twirl" }, { "floor": 105, "eventType": "Twirl" }, { "floor": 107, "eventType": "AnimateTrack", "trackAnimation": "Extend", "beatsAhead": 3, "trackDisappearAnimation": "None", "beatsBehind": 4 }, { "floor": 109, "eventType": "Twirl" }, { "floor": 110, "eventType": "Twirl" }, { "floor": 111, "eventType": "Twirl" }, { "floor": 112, "eventType": "Twirl" }, { "floor": 127, "eventType": "Twirl" }, { "floor": 129, "eventType": "AnimateTrack", "trackAnimation": "Fade", "beatsAhead": 3, "trackDisappearAnimation": "None", "beatsBehind": 4 }, { "floor": 129, "eventType": "Twirl" }, { "floor": 130, "eventType": "Twirl" }, { "floor": 145, "eventType": "Twirl" }, { "floor": 146, "eventType": "Twirl" }, { "floor": 148, "eventType": "Twirl" }, { "floor": 150, "eventType": "Twirl" }, { "floor": 152, "eventType": "Twirl" }, { "floor": 154, "eventType": "Twirl" }, { "floor": 156, "eventType": "Twirl" }, { "floor": 157, "eventType": "AnimateTrack", "trackAnimation": "None", "beatsAhead": 3, "trackDisappearAnimation": "None", "beatsBehind": 4 }, { "floor": 157, "eventType": "Twirl" }, { "floor": 161, "eventType": "Twirl" }, { "floor": 164, "eventType": "Twirl" }, { "floor": 166, "eventType": "Twirl" }, { "floor": 172, "eventType": "Twirl" }, { "floor": 175, "eventType": "Twirl" }, { "floor": 177, "eventType": "Twirl" }, { "floor": 183, "eventType": "Twirl" }, { "floor": 186, "eventType": "Twirl" }, { "floor": 188, "eventType": "Twirl" }, { "floor": 194, "eventType": "Twirl" }, { "floor": 197, "eventType": "Twirl" }, { "floor": 199, "eventType": "Twirl" }, { "floor": 205, "eventType": "Twirl" }, { "floor": 208, "eventType": "Twirl" }, { "floor": 210, "eventType": "Twirl" }, { "floor": 216, "eventType": "Twirl" }, { "floor": 219, "eventType": "Twirl" }, { "floor": 221, "eventType": "Twirl" }, { "floor": 227, "eventType": "Twirl" }, { "floor": 230, "eventType": "Twirl" }, { "floor": 232, "eventType": "Twirl" }, { "floor": 238, "eventType": "Twirl" }, { "floor": 241, "eventType": "Twirl" }, { "floor": 243, "eventType": "Twirl" }, { "floor": 245, "eventType": "AnimateTrack", "trackAnimation": "None", "beatsAhead": 3, "trackDisappearAnimation": "Fade", "beatsBehind": 1 }, { "floor": 245, "eventType": "SetFilter", "filter": "Grayscale", "enabled": "Enabled", "intensity": 100, "duration": 0, "ease": "Linear", "disableOthers": "Disabled", "angleOffset": 0, "eventTag": "" }, { "floor": 245, "eventType": "Flash", "duration": 2, "plane": "Background", "startColor": "ffffff", "startOpacity": 40, "endColor": "ffffff", "endOpacity": 0, "angleOffset": 0, "ease": "Linear", "eventTag": "" }, { "floor": 246, "eventType": "ColorTrack", "trackColorType": "Single", "trackColor": "8d8d8dff", "secondaryTrackColor": "ffffff", "trackColorAnimDuration": 2, "trackColorPulse": "None", "trackPulseLength": 10, "trackStyle": "Standard", "trackTexture": "", "trackTextureScale": 1 }, { "floor": 277, "eventType": "ColorTrack", "trackColorType": "Single", "trackColor": "debb7b", "secondaryTrackColor": "ffffff", "trackColorAnimDuration": 2, "trackColorPulse": "None", "trackPulseLength": 10, "trackStyle": "Standard", "trackTexture": "", "trackTextureScale": 1 }, { "floor": 277, "eventType": "AnimateTrack", "trackAnimation": "None", "beatsAhead": 3, "trackDisappearAnimation": "None", "beatsBehind": 4 }, { "floor": 277, "eventType": "SetFilter", "filter": "Grayscale", "enabled": "Enabled", "intensity": 0, "duration": 1, "ease": "Linear", "disableOthers": "Disabled", "angleOffset": 0, "eventTag": "" }, { "floor": 278, "eventType": "SetFilter", "filter": "Grayscale", "enabled": "Enabled", "intensity": 100, "duration": 1, "ease": "Linear", "disableOthers": "Disabled", "angleOffset": 0, "eventTag": "" }, { "floor": 285, "eventType": "SetFilter", "filter": "Grayscale", "enabled": "Enabled", "intensity": 0, "duration": 1, "ease": "Linear", "disableOthers": "Disabled", "angleOffset": 0, "eventTag": "" }, { "floor": 286, "eventType": "SetFilter", "filter": "Grayscale", "enabled": "Enabled", "intensity": 100, "duration": 1, "ease": "Linear", "disableOthers": "Disabled", "angleOffset": 0, "eventTag": "" }, { "floor": 309, "eventType": "Bloom", "enabled": "Enabled", "threshold": 50, "intensity": 100, "color": "ffffff", "duration": 0, "ease": "Linear", "angleOffset": 0, "eventTag": "" }, { "floor": 309, "eventType": "Flash", "duration": 1, "plane": "Background", "startColor": "ffffff", "startOpacity": 30, "endColor": "ffffff", "endOpacity": 0, "angleOffset": 0, "ease": "Linear", "eventTag": "" }, { "floor": 309, "eventType": "SetFilter", "filter": "Grayscale", "enabled": "Disabled", "intensity": 100, "duration": 0, "ease": "Linear", "disableOthers": "Disabled", "angleOffset": 0, "eventTag": "" }, { "floor": 311, "eventType": "Twirl" }, { "floor": 316, "eventType": "Twirl" }, { "floor": 318, "eventType": "Twirl" }, { "floor": 322, "eventType": "Twirl" }, { "floor": 327, "eventType": "Twirl" }, { "floor": 329, "eventType": "Twirl" }, { "floor": 333, "eventType": "Twirl" }, { "floor": 338, "eventType": "Twirl" }, { "floor": 340, "eventType": "Twirl" }, { "floor": 342, "eventType": "Twirl" }, { "floor": 344, "eventType": "Twirl" }, { "floor": 346, "eventType": "Twirl" }, { "floor": 348, "eventType": "Twirl" }, { "floor": 350, "eventType": "Twirl" }, { "floor": 352, "eventType": "Twirl" }, { "floor": 354, "eventType": "Twirl" }, { "floor": 356, "eventType": "Twirl" }, { "floor": 358, "eventType": "Twirl" }, { "floor": 365, "eventType": "Twirl" }, { "floor": 367, "eventType": "Twirl" }, { "floor": 371, "eventType": "Twirl" }, { "floor": 376, "eventType": "Twirl" }, { "floor": 378, "eventType": "Twirl" }, { "floor": 382, "eventType": "Twirl" }, { "floor": 387, "eventType": "Twirl" }, { "floor": 389, "eventType": "Twirl" }, { "floor": 391, "eventType": "Twirl" }, { "floor": 393, "eventType": "Twirl" }, { "floor": 395, "eventType": "Twirl" }, { "floor": 397, "eventType": "Twirl" }, { "floor": 398, "eventType": "MoveTrack", "startTile": [10, "ThisTile"], "endTile": [0, "End"], "duration": 8, "positionOffset": [-16, 0], "angleOffset": 0, "ease": "Linear", "maxVfxOnly": "Disabled", "eventTag": "", }, { "floor": 399, "eventType": "Twirl" }, { "floor": 401, "eventType": "Twirl" }, { "floor": 403, "eventType": "Twirl" }, { "floor": 405, "eventType": "Twirl" }, { "floor": 407, "eventType": "Pause", "duration": 31, "countdownTicks": 0, "angleCorrectionDir": -1 }, { "floor": 407, "eventType": "MoveTrack", "startTile": [1, "ThisTile"], "endTile": [0, "End"], "duration": 31, "positionOffset": [0, 0], "angleOffset": 0, "ease": "Linear", "maxVfxOnly": "Disabled", "eventTag": "", }, { "floor": 412, "eventType": "Twirl" }, { "floor": 416, "eventType": "Twirl" }, { "floor": 418, "eventType": "Twirl" }, { "floor": 421, "eventType": "Twirl" }, { "floor": 423, "eventType": "Twirl" }, { "floor": 425, "eventType": "Twirl" }, { "floor": 427, "eventType": "Twirl" }, { "floor": 430, "eventType": "Twirl" }, { "floor": 432, "eventType": "Twirl" }, { "floor": 434, "eventType": "Twirl" }, { "floor": 438, "eventType": "Twirl" }, { "floor": 441, "eventType": "Twirl" }, { "floor": 443, "eventType": "Twirl" }, { "floor": 445, "eventType": "Twirl" }, { "floor": 447, "eventType": "Twirl" }, { "floor": 450, "eventType": "Twirl" }, { "floor": 452, "eventType": "Twirl" }, { "floor": 454, "eventType": "Twirl" }, { "floor": 456, "eventType": "Twirl" }, { "floor": 458, "eventType": "Twirl" }, { "floor": 460, "eventType": "Twirl" }, { "floor": 462, "eventType": "Twirl" } ] "decorations": [ ] }