green/gr.adofai

94 lines
2.6 KiB
Plaintext

{
"angleData": [0, 0, 0, 0, 270, 0, 0, 90, 0, 270, 0, 90, 999, 45, 999, 180, 270, 0, 45, 999, 225, 0, 999, 270, 0, 999, 270, 0, 999, 270, 0, 999, 270, 0, 45, 999, 270, 0, 225, 0, 999, 270, 0, 999, 270, 0, 999, 270, 0, 999, 270, 45, 0, 90],
"settings":
{
"version": 13 ,
"artist": "",
"specialArtistType": "None",
"artistPermission": "",
"song": "",
"author": "",
"separateCountdownTime": true,
"previewImage": "",
"previewIcon": "",
"previewIconColor": "003f52",
"previewSongStart": 0,
"previewSongDuration": 10,
"seizureWarning": false,
"levelDesc": "",
"levelTags": "",
"artistLinks": "",
"speedTrialAim": 0,
"difficulty": 1,
"requiredMods": [],
"songFilename": "green.ogg",
"bpm": 91,
"volume": 100,
"offset": 467,
"pitch": 100,
"hitsound": "Kick",
"hitsoundVolume": 100,
"countdownTicks": 4,
"trackColorType": "Single",
"trackColor": "debb7b",
"secondaryTrackColor": "ffffff",
"trackColorAnimDuration": 2,
"trackColorPulse": "None",
"trackPulseLength": 10,
"trackStyle": "Standard",
"trackTexture": "",
"trackTextureScale": 1,
"trackGlowIntensity": 100,
"trackAnimation": "None",
"beatsAhead": 3,
"trackDisappearAnimation": "None",
"beatsBehind": 4,
"backgroundColor": "000000",
"showDefaultBGIfNoImage": true,
"showDefaultBGTile": true,
"defaultBGTileColor": "101121",
"defaultBGShapeType": "Default",
"defaultBGShapeColor": "ffffff",
"bgImage": "",
"bgImageColor": "ffffff",
"parallax": [100, 100],
"bgDisplayMode": "FitToScreen",
"imageSmoothing": true,
"lockRot": false,
"loopBG": false,
"scalingRatio": 100,
"relativeTo": "Player",
"position": [0, 0],
"rotation": 0,
"zoom": 100,
"pulseOnFloor": true,
"startCamLowVFX": false,
"bgVideo": "",
"loopVideo": false,
"vidOffset": 0,
"floorIconOutlines": false,
"stickToFloors": true,
"planetEase": "Linear",
"planetEaseParts": 1,
"planetEasePartBehavior": "Mirror",
"customClass": "",
"defaultTextColor": "ffffff",
"defaultTextShadowColor": "00000050",
"congratsText": "",
"perfectText": "",
"legacyFlash": false ,
"legacyCamRelativeTo": false ,
"legacySpriteTiles": false
},
"actions":
[
{ "floor": 1, "eventType": "SetSpeed", "speedType": "Multiplier", "beatsPerMinute": 100, "bpmMultiplier": 0.5, "angleOffset": 0 },
{ "floor": 4, "eventType": "SetSpeed", "speedType": "Multiplier", "beatsPerMinute": 100, "bpmMultiplier": 2, "angleOffset": 0 },
{ "floor": 8, "eventType": "Twirl" },
{ "floor": 10, "eventType": "Twirl" }
],
"decorations":
[
]
}