dogstep.adofai/dogstep.adofai

76 lines
2.8 KiB
Plaintext

{
"angleData": [0, 0, 0, 0, 0, 0, 0, 0, 0, 0, 0, 0, 0, 0, 0, 0, 90, 90, 90, 90, 90, 90, 90, 90, 90, 90, 90, 90, 90, 90, 90, 90, 90, 180, 180, 180, 180, 180, 180, 180, 180, 180, 180, 180, 180, 180, 180, 180, 180, 270, 270, 270, 270, 270, 270, 270, 270, 270, 270, 270, 270, 270, 270, 270, 270, 270, 0, 0, 0, 0, 0, 0, 0, 0, 90, 90, 90, 90, 90, 90, 90, 90, 90, 180, 180, 180, 180, 180, 180, 180, 180, 270, 270, 270, 270, 270, 270, 270, 270, 270, 0, 0, 0, 0, 90, 90, 90, 90, 90, 180, 180, 180, 180, 270, 270, 270, 270, 270, 0, 0, 0, 0, 90, 90, 90, 90, 90, 90, 90, 90, 90, 180, 180, 180, 180, 180, 180, 180, 180, 180, 180, 180, 180, 270, 270, 270, 270, 270, 270, 270, 0, 0, 0, 0, 0, 0, 0, 0, 0, 0, 90, 90, 90, 90, 90, 90, 90, 180, 180, 180, 180, 180, 180, 180, 180, 180, 180, 180, 180, 180, 180, 180, 180, 180, 180, 270, 270, 270, 270, 270, 270, 270, 270, 270, 270, 270, 270, 270, 270, 270, 270, 270, 0, 0, 0, 0, 0, 0, 0, 0, 0, 0, 0, 0, 0, 0, 0, 0, 0, 0, 0, 0, 0, 0, 0, 0, 0, 0, 0, 0, 0, 0, 0, 0, 0],
"settings":
{
"version": 11 ,
"artist": "",
"specialArtistType": "None",
"artistPermission": "",
"song": "",
"author": "",
"separateCountdownTime": "Enabled",
"previewImage": "",
"previewIcon": "",
"previewIconColor": "003f52",
"previewSongStart": 0,
"previewSongDuration": 20,
"seizureWarning": "Disabled",
"levelDesc": "",
"levelTags": "",
"artistLinks": "",
"difficulty": 1,
"songFilename": "bga_1.ogg",
"bpm": 81,
"volume": 100,
"offset": 7545,
"pitch": 100,
"hitsound": "Kick",
"hitsoundVolume": 100,
"countdownTicks": 8,
"trackColorType": "Single",
"trackColor": "debb7b",
"secondaryTrackColor": "ffffff",
"trackColorAnimDuration": 2,
"trackColorPulse": "None",
"trackPulseLength": 10,
"trackStyle": "Standard",
"trackAnimation": "None",
"beatsAhead": 3,
"trackDisappearAnimation": "Retract",
"beatsBehind": 1,
"backgroundColor": "000000",
"showDefaultBGIfNoImage": "Disabled",
"bgImage": "",
"bgImageColor": "ffffff",
"parallax": [100, 100],
"bgDisplayMode": "FitToScreen",
"lockRot": "Disabled",
"loopBG": "Disabled",
"unscaledSize": 100,
"relativeTo": "Player",
"position": [0, 0],
"rotation": 0,
"zoom": 100,
"bgVideo": "bga_1.mp4",
"loopVideo": "Disabled",
"vidOffset": 7555,
"floorIconOutlines": "Disabled",
"stickToFloors": "Enabled",
"planetEase": "Linear",
"planetEaseParts": 1,
"planetEasePartBehavior": "Mirror",
"customClass": "",
"legacyFlash": false ,
"legacyCamRelativeTo": false ,
"legacySpriteTiles": false
},
"actions":
[
{ "floor": 1, "eventType": "SetSpeed", "speedType": "Bpm", "beatsPerMinute": 162, "bpmMultiplier": 2 },
{ "floor": 1, "eventType": "AnimateTrack", "trackAnimation": "Grow", "beatsAhead": 3, "trackDisappearAnimation": "Retract", "beatsBehind": 1 }
]
"decorations":
[
]
}