butterfly/main.adofai
Just Monika c20fbb7358 v0
2024-04-16 13:34:10 +08:00

866 lines
89 KiB
Plaintext

{
"pathData": "RULLLURRRURURURDRRRURURURURRDRRULDRRRULLLURRRURURURDRRRURURURURRDRRULDRRRULURURURURURURURURURRDRDRRRULDRRURRULDRRRULLLURRRURURURDRRRURURURURRDRRULDRRRULLLURRULURRULLLLURRRULLURRRULLLURDLLULURRULDRRURULLLURRRULLURDLLULLLLURRULLLLLULULULULULULLLURRULLLURDLLURRRRULLLURURURURURURURRRRRRULLLLLLQRRRRRRURURURURRRURURURURRDRRULDRRRULLLURRRURURURDRRRURURURURRDRRULDRRRULURURURURURURURURURRDRDRRRULDRRURRULDRRRULLLURRRURURURDRRRURURURURRDRRULDRRRURULQRQRRULELELUUZRUUCLLLLDLDLLLURRRRRULLLURRRRRRULDRRRURURURURURURURRULDRRRRRULDRRRRRRULLLURRRULLLULULULULLLURRULDRRRRRULLLURRRURURURDRRRURURURURRDRRULDRRRULLLURRRURURURDRRRURURURURRDRRULDRRRULURURURURURURURURURRDRDRRRULDRRURRULDRRRULLLURRRURURURDRRRURURURURRDRRULDRRRU!RRQRULELLELELELELLELELELELURQRUZUZULUCLURQRRQRQRQRQRRQRQRQRQRULELUCUCURUZRULELLELELELELLELELELELURQRUZUZULUCLURQRRQRQRQRQRRQRQRQRQRULELUCUCURUZR",
"settings":
{
"version": 2,
"artist": "Neal K",
"specialArtistType": "None",
"artistPermission": "",
"song": "Butterfly waltz<size=40>(호접몽 ~나비의 꿈~)</size>",
"author": "초보잼",
"separateCountdownTime": "Enabled",
"previewImage": "배경1.jpeg",
"previewIcon": "anime-girl-walking-lights-short-hair-lens-flare-trees.jpeg",
"previewIconColor": "febdd5",
"previewSongStart": 0,
"previewSongDuration": 10,
"seizureWarning": "Disabled",
"levelDesc": "Artist: Neal K",
"levelTags": "",
"artistLinks": "",
"difficulty": 3,
"songFilename": "Neal K - 호접몽 ~나비의 꿈~.ogg",
"bpm": 160,
"volume": 100,
"offset": 850,
"pitch": 100,
"hitsound": "Sizzle",
"hitsoundVolume": 75,
"countdownTicks": 4,
"trackColorType": "Glow",
"trackColor": "febdd5",
"secondaryTrackColor": "e076a4",
"trackColorAnimDuration": 15,
"trackColorPulse": "Forward",
"trackPulseLength": 15,
"trackStyle": "NeonLight",
"trackAnimation": "None",
"beatsAhead": 3,
"trackDisappearAnimation": "None",
"beatsBehind": 4,
"backgroundColor": "000000",
"bgImage": "배경1.jpeg",
"bgImageColor": "ffffff",
"parallax": [100, 100],
"bgDisplayMode": "FitToScreen",
"lockRot": "Disabled",
"loopBG": "Disabled",
"unscaledSize": 100,
"relativeTo": "Player",
"position": [0, 0],
"rotation": 0,
"zoom": 135,
"bgVideo": "",
"loopVideo": "Disabled",
"vidOffset": 0,
"floorIconOutlines": "Enabled",
"stickToFloors": "Disabled",
"planetEase": "Linear",
"planetEaseParts": 1
},
"actions":
[
{ "floor": 0, "eventType": "MoveTrack", "startTile": [0, "Start"], "endTile": [0, "End"], "duration": 0, "positionOffset": [0, 0], "rotationOffset": 0, "scale": 95, "opacity": 90, "angleOffset": 0, "ease": "Linear", "eventTag": "" },
{ "floor": 0, "eventType": "SetFilter", "filter": "Arcade", "enabled": "Enabled", "intensity": 100, "disableOthers": "Disabled", "angleOffset": 0, "eventTag": "" },
{ "floor": 0, "eventType": "SetFilter", "filter": "Grayscale", "enabled": "Enabled", "intensity": 100, "disableOthers": "Disabled", "angleOffset": 0, "eventTag": "" },
{ "floor": 1, "eventType": "Flash", "duration": 4, "plane": "Foreground", "startColor": "000000", "startOpacity": 100, "endColor": "000000", "endOpacity": 35, "angleOffset": 0, "eventTag": "" },
{ "floor": 3, "eventType": "Twirl" },
{ "floor": 7, "eventType": "Twirl" },
{ "floor": 10, "eventType": "Twirl" },
{ "floor": 11, "eventType": "Twirl" },
{ "floor": 12, "eventType": "Twirl" },
{ "floor": 13, "eventType": "Twirl" },
{ "floor": 14, "eventType": "Twirl" },
{ "floor": 16, "eventType": "Twirl" },
{ "floor": 20, "eventType": "Twirl" },
{ "floor": 21, "eventType": "Twirl" },
{ "floor": 22, "eventType": "Twirl" },
{ "floor": 23, "eventType": "Twirl" },
{ "floor": 24, "eventType": "Twirl" },
{ "floor": 25, "eventType": "Twirl" },
{ "floor": 26, "eventType": "Twirl" },
{ "floor": 27, "eventType": "Twirl" },
{ "floor": 31, "eventType": "AnimateTrack", "trackAnimation": "None", "beatsAhead": 3, "trackDisappearAnimation": "Shrink", "beatsBehind": 1 },
{ "floor": 35, "eventType": "AnimateTrack", "trackAnimation": "None", "beatsAhead": 3, "trackDisappearAnimation": "None", "beatsBehind": 4 },
{ "floor": 39, "eventType": "Twirl" },
{ "floor": 43, "eventType": "Twirl" },
{ "floor": 46, "eventType": "Twirl" },
{ "floor": 47, "eventType": "Twirl" },
{ "floor": 48, "eventType": "Twirl" },
{ "floor": 49, "eventType": "Twirl" },
{ "floor": 50, "eventType": "Twirl" },
{ "floor": 52, "eventType": "Twirl" },
{ "floor": 56, "eventType": "Twirl" },
{ "floor": 57, "eventType": "Twirl" },
{ "floor": 58, "eventType": "Twirl" },
{ "floor": 59, "eventType": "Twirl" },
{ "floor": 60, "eventType": "Twirl" },
{ "floor": 61, "eventType": "Twirl" },
{ "floor": 62, "eventType": "Twirl" },
{ "floor": 63, "eventType": "Twirl" },
{ "floor": 67, "eventType": "AnimateTrack", "trackAnimation": "None", "beatsAhead": 3, "trackDisappearAnimation": "Shrink", "beatsBehind": 1 },
{ "floor": 71, "eventType": "AnimateTrack", "trackAnimation": "None", "beatsAhead": 3, "trackDisappearAnimation": "None", "beatsBehind": 4 },
{ "floor": 75, "eventType": "Twirl" },
{ "floor": 75, "eventType": "Flash", "duration": 10, "plane": "Foreground", "startColor": "000000", "startOpacity": 100, "endColor": "000000", "endOpacity": 0, "angleOffset": 0, "eventTag": "" },
{ "floor": 75, "eventType": "SetFilter", "filter": "Arcade", "enabled": "Enabled", "intensity": 100, "disableOthers": "Enabled", "angleOffset": 0, "eventTag": "" },
{ "floor": 77, "eventType": "Twirl" },
{ "floor": 78, "eventType": "Twirl" },
{ "floor": 79, "eventType": "Twirl" },
{ "floor": 79, "eventType": "MoveCamera", "duration": 1, "relativeTo": "Player", "position": [0, 0], "rotation": 0, "zoom": 130, "angleOffset": 0, "ease": "Linear", "eventTag": "" },
{ "floor": 79, "eventType": "MoveCamera", "duration": 2, "relativeTo": "Player", "position": [0, 0], "rotation": 0, "zoom": 135, "angleOffset": 0, "ease": "OutCubic", "eventTag": "" },
{ "floor": 80, "eventType": "Twirl" },
{ "floor": 81, "eventType": "Twirl" },
{ "floor": 82, "eventType": "Twirl" },
{ "floor": 83, "eventType": "Twirl" },
{ "floor": 84, "eventType": "Twirl" },
{ "floor": 85, "eventType": "Twirl" },
{ "floor": 85, "eventType": "MoveCamera", "duration": 1, "relativeTo": "Player", "position": [0, 0], "rotation": 0, "zoom": 130, "angleOffset": 0, "ease": "Linear", "eventTag": "" },
{ "floor": 85, "eventType": "MoveCamera", "duration": 2, "relativeTo": "Player", "position": [0, 0], "rotation": 0, "zoom": 135, "angleOffset": 0, "ease": "OutCubic", "eventTag": "" },
{ "floor": 86, "eventType": "Twirl" },
{ "floor": 87, "eventType": "Twirl" },
{ "floor": 88, "eventType": "Twirl" },
{ "floor": 89, "eventType": "Twirl" },
{ "floor": 90, "eventType": "Twirl" },
{ "floor": 91, "eventType": "Twirl" },
{ "floor": 91, "eventType": "MoveCamera", "duration": 1, "relativeTo": "Player", "position": [0, 0], "rotation": 0, "zoom": 130, "angleOffset": 0, "ease": "Linear", "eventTag": "" },
{ "floor": 91, "eventType": "MoveCamera", "duration": 2, "relativeTo": "Player", "position": [0, 0], "rotation": 0, "zoom": 135, "angleOffset": 0, "ease": "OutCubic", "eventTag": "" },
{ "floor": 92, "eventType": "Twirl" },
{ "floor": 95, "eventType": "Twirl" },
{ "floor": 96, "eventType": "Twirl" },
{ "floor": 96, "eventType": "MoveCamera", "duration": 1, "relativeTo": "Player", "position": [0, 0], "rotation": 0, "zoom": 130, "angleOffset": 0, "ease": "Linear", "eventTag": "" },
{ "floor": 96, "eventType": "MoveCamera", "duration": 2, "relativeTo": "Player", "position": [0, 0], "rotation": 0, "zoom": 135, "angleOffset": 0, "ease": "OutCubic", "eventTag": "" },
{ "floor": 97, "eventType": "Twirl" },
{ "floor": 100, "eventType": "AnimateTrack", "trackAnimation": "None", "beatsAhead": 3, "trackDisappearAnimation": "Shrink", "beatsBehind": 1 },
{ "floor": 100, "eventType": "MoveCamera", "duration": 1, "relativeTo": "Player", "position": [0, 0], "rotation": 0, "zoom": 130, "angleOffset": 0, "ease": "Linear", "eventTag": "" },
{ "floor": 100, "eventType": "MoveCamera", "duration": 2, "relativeTo": "Player", "position": [0, 0], "rotation": 0, "zoom": 135, "angleOffset": 0, "ease": "OutCubic", "eventTag": "" },
{ "floor": 104, "eventType": "AnimateTrack", "trackAnimation": "None", "beatsAhead": 3, "trackDisappearAnimation": "None", "beatsBehind": 4 },
{ "floor": 105, "eventType": "MoveCamera", "duration": 1, "relativeTo": "Player", "position": [0, 0], "rotation": 0, "zoom": 130, "angleOffset": 0, "ease": "Linear", "eventTag": "" },
{ "floor": 105, "eventType": "MoveCamera", "duration": 2, "relativeTo": "Player", "position": [0, 0], "rotation": 0, "zoom": 135, "angleOffset": 0, "ease": "OutCubic", "eventTag": "" },
{ "floor": 106, "eventType": "Twirl" },
{ "floor": 107, "eventType": "Twirl" },
{ "floor": 108, "eventType": "AnimateTrack", "trackAnimation": "None", "beatsAhead": 3, "trackDisappearAnimation": "Shrink", "beatsBehind": 1 },
{ "floor": 110, "eventType": "MoveCamera", "duration": 1, "relativeTo": "Player", "position": [0, 0], "rotation": 0, "zoom": 130, "angleOffset": 0, "ease": "Linear", "eventTag": "" },
{ "floor": 110, "eventType": "MoveCamera", "duration": 2, "relativeTo": "Player", "position": [0, 0], "rotation": 0, "zoom": 135, "angleOffset": 0, "ease": "OutCubic", "eventTag": "" },
{ "floor": 112, "eventType": "AnimateTrack", "trackAnimation": "None", "beatsAhead": 3, "trackDisappearAnimation": "None", "beatsBehind": 4 },
{ "floor": 114, "eventType": "MoveCamera", "duration": 1, "relativeTo": "Player", "position": [0, 0], "rotation": 0, "zoom": 130, "angleOffset": 0, "ease": "Linear", "eventTag": "" },
{ "floor": 114, "eventType": "MoveCamera", "duration": 2, "relativeTo": "Player", "position": [0, 0], "rotation": 0, "zoom": 135, "angleOffset": 0, "ease": "OutCubic", "eventTag": "" },
{ "floor": 116, "eventType": "Twirl" },
{ "floor": 118, "eventType": "MoveCamera", "duration": 1, "relativeTo": "Player", "position": [0, 0], "rotation": 0, "zoom": 130, "angleOffset": 0, "ease": "Linear", "eventTag": "" },
{ "floor": 118, "eventType": "MoveCamera", "duration": 2, "relativeTo": "Player", "position": [0, 0], "rotation": 0, "zoom": 135, "angleOffset": 0, "ease": "OutCubic", "eventTag": "" },
{ "floor": 120, "eventType": "Twirl" },
{ "floor": 122, "eventType": "MoveCamera", "duration": 1, "relativeTo": "Player", "position": [0, 0], "rotation": 0, "zoom": 130, "angleOffset": 0, "ease": "Linear", "eventTag": "" },
{ "floor": 122, "eventType": "MoveCamera", "duration": 2, "relativeTo": "Player", "position": [0, 0], "rotation": 0, "zoom": 135, "angleOffset": 0, "ease": "OutCubic", "eventTag": "" },
{ "floor": 123, "eventType": "Twirl" },
{ "floor": 124, "eventType": "Twirl" },
{ "floor": 125, "eventType": "Twirl" },
{ "floor": 126, "eventType": "Twirl" },
{ "floor": 127, "eventType": "Twirl" },
{ "floor": 128, "eventType": "MoveCamera", "duration": 1, "relativeTo": "Player", "position": [0, 0], "rotation": 0, "zoom": 130, "angleOffset": 0, "ease": "Linear", "eventTag": "" },
{ "floor": 128, "eventType": "MoveCamera", "duration": 2, "relativeTo": "Player", "position": [0, 0], "rotation": 0, "zoom": 135, "angleOffset": 0, "ease": "OutCubic", "eventTag": "" },
{ "floor": 129, "eventType": "Twirl" },
{ "floor": 132, "eventType": "MoveCamera", "duration": 1, "relativeTo": "Player", "position": [0, 0], "rotation": 0, "zoom": 130, "angleOffset": 0, "ease": "Linear", "eventTag": "" },
{ "floor": 132, "eventType": "MoveCamera", "duration": 2, "relativeTo": "Player", "position": [0, 0], "rotation": 0, "zoom": 135, "angleOffset": 0, "ease": "OutCubic", "eventTag": "" },
{ "floor": 133, "eventType": "Twirl" },
{ "floor": 134, "eventType": "Twirl" },
{ "floor": 135, "eventType": "Twirl" },
{ "floor": 136, "eventType": "Twirl" },
{ "floor": 137, "eventType": "Twirl" },
{ "floor": 138, "eventType": "Twirl" },
{ "floor": 138, "eventType": "MoveCamera", "duration": 1, "relativeTo": "Player", "position": [0, 0], "rotation": 0, "zoom": 130, "angleOffset": 0, "ease": "Linear", "eventTag": "" },
{ "floor": 138, "eventType": "MoveCamera", "duration": 2, "relativeTo": "Player", "position": [0, 0], "rotation": 0, "zoom": 135, "angleOffset": 0, "ease": "OutCubic", "eventTag": "" },
{ "floor": 139, "eventType": "Twirl" },
{ "floor": 140, "eventType": "Twirl" },
{ "floor": 141, "eventType": "MoveCamera", "duration": 1, "relativeTo": "Player", "position": [0, 0], "rotation": 0, "zoom": 130, "angleOffset": 180, "ease": "Linear", "eventTag": "" },
{ "floor": 141, "eventType": "MoveCamera", "duration": 2, "relativeTo": "Player", "position": [0, 0], "rotation": 0, "zoom": 135, "angleOffset": 180, "ease": "OutCubic", "eventTag": "" },
{ "floor": 144, "eventType": "AnimateTrack", "trackAnimation": "None", "beatsAhead": 3, "trackDisappearAnimation": "Shrink", "beatsBehind": 1 },
{ "floor": 146, "eventType": "MoveCamera", "duration": 1, "relativeTo": "Player", "position": [0, 0], "rotation": 0, "zoom": 130, "angleOffset": 0, "ease": "Linear", "eventTag": "" },
{ "floor": 146, "eventType": "MoveCamera", "duration": 2, "relativeTo": "Player", "position": [0, 0], "rotation": 0, "zoom": 135, "angleOffset": 0, "ease": "OutCubic", "eventTag": "" },
{ "floor": 148, "eventType": "AnimateTrack", "trackAnimation": "None", "beatsAhead": 3, "trackDisappearAnimation": "None", "beatsBehind": 4 },
{ "floor": 148, "eventType": "AddDecoration", "decorationImage": "black.png", "position": [25, 0], "relativeTo": "Tile", "pivotOffset": [0, 0], "rotation": 0, "scale": 150, "depth": 0, "tag": "black" },
{ "floor": 148, "eventType": "MoveDecorations", "duration": 6, "tag": "black", "positionOffset": [-25, 0], "rotationOffset": 0, "scale": 150, "angleOffset": 0, "ease": "OutCubic", "eventTag": "" },
{ "floor": 150, "eventType": "MoveCamera", "duration": 1, "relativeTo": "Player", "position": [0, 0], "rotation": 0, "zoom": 130, "angleOffset": 0, "ease": "Linear", "eventTag": "" },
{ "floor": 150, "eventType": "MoveCamera", "duration": 2, "relativeTo": "Player", "position": [0, 0], "rotation": 0, "zoom": 135, "angleOffset": 0, "ease": "OutCubic", "eventTag": "" },
{ "floor": 152, "eventType": "Twirl" },
{ "floor": 152, "eventType": "CustomBackground", "color": "000000", "bgImage": "배경2.jpeg", "imageColor": "ffffff", "parallax": [100, 100], "bgDisplayMode": "FitToScreen", "lockRot": "Disabled", "loopBG": "Disabled", "unscaledSize": 100, "angleOffset": 0, "eventTag": "" },
{ "floor": 152, "eventType": "RecolorTrack", "startTile": [0, "Start"], "endTile": [0, "End"], "trackColorType": "Glow", "trackColor": "212e37", "secondaryTrackColor": "b8562f", "trackColorAnimDuration": 15, "trackColorPulse": "Backward", "trackPulseLength": 35, "trackStyle": "NeonLight", "angleOffset": 0, "eventTag": "" },
{ "floor": 152, "eventType": "MoveDecorations", "duration": 4, "tag": "black", "positionOffset": [-50, 0], "rotationOffset": 0, "scale": 150, "angleOffset": 0, "ease": "Linear", "eventTag": "" },
{ "floor": 152, "eventType": "Flash", "duration": 4, "plane": "Foreground", "startColor": "000000", "startOpacity": 100, "endColor": "000000", "endOpacity": 0, "angleOffset": 0, "eventTag": "" },
{ "floor": 152, "eventType": "MoveTrack", "startTile": [-1, "ThisTile"], "endTile": [0, "Start"], "duration": 2, "positionOffset": [0, 0], "rotationOffset": 0, "scale": 95, "opacity": 0, "angleOffset": 0, "ease": "OutCubic", "eventTag": "" },
{ "floor": 154, "eventType": "MoveCamera", "duration": 1, "relativeTo": "Player", "position": [0, 0], "rotation": 0, "zoom": 130, "angleOffset": 0, "ease": "Linear", "eventTag": "" },
{ "floor": 154, "eventType": "MoveCamera", "duration": 2, "relativeTo": "Player", "position": [0, 0], "rotation": 0, "zoom": 135, "angleOffset": 0, "ease": "OutCubic", "eventTag": "" },
{ "floor": 156, "eventType": "Twirl" },
{ "floor": 156, "eventType": "MoveDecorations", "duration": 0, "tag": "black", "positionOffset": [0, 0], "rotationOffset": 0, "scale": 0, "angleOffset": 0, "ease": "Linear", "eventTag": "" },
{ "floor": 159, "eventType": "Twirl" },
{ "floor": 159, "eventType": "MoveCamera", "duration": 1, "relativeTo": "Player", "position": [0, 0], "rotation": 0, "zoom": 130, "angleOffset": 0, "ease": "Linear", "eventTag": "" },
{ "floor": 159, "eventType": "MoveCamera", "duration": 2, "relativeTo": "Player", "position": [0, 0], "rotation": 0, "zoom": 135, "angleOffset": 0, "ease": "OutCubic", "eventTag": "" },
{ "floor": 161, "eventType": "Twirl" },
{ "floor": 164, "eventType": "Twirl" },
{ "floor": 164, "eventType": "MoveCamera", "duration": 1, "relativeTo": "Player", "position": [0, 0], "rotation": 0, "zoom": 130, "angleOffset": 0, "ease": "Linear", "eventTag": "" },
{ "floor": 164, "eventType": "MoveCamera", "duration": 2, "relativeTo": "Player", "position": [0, 0], "rotation": 0, "zoom": 135, "angleOffset": 0, "ease": "OutCubic", "eventTag": "" },
{ "floor": 167, "eventType": "MoveCamera", "duration": 1, "relativeTo": "Player", "position": [0, 0], "rotation": 0, "zoom": 130, "angleOffset": 0, "ease": "Linear", "eventTag": "" },
{ "floor": 167, "eventType": "MoveCamera", "duration": 2, "relativeTo": "Player", "position": [0, 0], "rotation": 0, "zoom": 135, "angleOffset": 0, "ease": "OutCubic", "eventTag": "" },
{ "floor": 169, "eventType": "Twirl" },
{ "floor": 171, "eventType": "MoveCamera", "duration": 1, "relativeTo": "Player", "position": [0, 0], "rotation": 0, "zoom": 130, "angleOffset": 0, "ease": "Linear", "eventTag": "" },
{ "floor": 171, "eventType": "MoveCamera", "duration": 2, "relativeTo": "Player", "position": [0, 0], "rotation": 0, "zoom": 135, "angleOffset": 0, "ease": "OutCubic", "eventTag": "" },
{ "floor": 173, "eventType": "Twirl" },
{ "floor": 176, "eventType": "Twirl" },
{ "floor": 176, "eventType": "MoveCamera", "duration": 1, "relativeTo": "Player", "position": [0, 0], "rotation": 0, "zoom": 130, "angleOffset": 0, "ease": "Linear", "eventTag": "" },
{ "floor": 176, "eventType": "MoveCamera", "duration": 2, "relativeTo": "Player", "position": [0, 0], "rotation": 0, "zoom": 135, "angleOffset": 0, "ease": "OutCubic", "eventTag": "" },
{ "floor": 180, "eventType": "Twirl" },
{ "floor": 180, "eventType": "MoveCamera", "duration": 1, "relativeTo": "Player", "position": [0, 0], "rotation": 0, "zoom": 130, "angleOffset": 0, "ease": "Linear", "eventTag": "" },
{ "floor": 180, "eventType": "MoveCamera", "duration": 2, "relativeTo": "Player", "position": [0, 0], "rotation": 0, "zoom": 135, "angleOffset": 0, "ease": "OutCubic", "eventTag": "" },
{ "floor": 182, "eventType": "AnimateTrack", "trackAnimation": "None", "beatsAhead": 3, "trackDisappearAnimation": "Shrink", "beatsBehind": 1 },
{ "floor": 184, "eventType": "MoveCamera", "duration": 1, "relativeTo": "Player", "position": [0, 0], "rotation": 0, "zoom": 130, "angleOffset": 0, "ease": "Linear", "eventTag": "" },
{ "floor": 184, "eventType": "MoveCamera", "duration": 2, "relativeTo": "Player", "position": [0, 0], "rotation": 0, "zoom": 135, "angleOffset": 0, "ease": "OutCubic", "eventTag": "" },
{ "floor": 186, "eventType": "AnimateTrack", "trackAnimation": "None", "beatsAhead": 3, "trackDisappearAnimation": "None", "beatsBehind": 4 },
{ "floor": 188, "eventType": "Twirl" },
{ "floor": 189, "eventType": "Twirl" },
{ "floor": 189, "eventType": "MoveCamera", "duration": 1, "relativeTo": "Player", "position": [0, 0], "rotation": 0, "zoom": 130, "angleOffset": 0, "ease": "Linear", "eventTag": "" },
{ "floor": 189, "eventType": "MoveCamera", "duration": 2, "relativeTo": "Player", "position": [0, 0], "rotation": 0, "zoom": 135, "angleOffset": 0, "ease": "OutCubic", "eventTag": "" },
{ "floor": 191, "eventType": "Twirl" },
{ "floor": 192, "eventType": "AnimateTrack", "trackAnimation": "None", "beatsAhead": 3, "trackDisappearAnimation": "Shrink", "beatsBehind": 1 },
{ "floor": 194, "eventType": "MoveCamera", "duration": 1, "relativeTo": "Player", "position": [0, 0], "rotation": 0, "zoom": 130, "angleOffset": 0, "ease": "Linear", "eventTag": "" },
{ "floor": 194, "eventType": "MoveCamera", "duration": 2, "relativeTo": "Player", "position": [0, 0], "rotation": 0, "zoom": 135, "angleOffset": 0, "ease": "OutCubic", "eventTag": "" },
{ "floor": 196, "eventType": "AnimateTrack", "trackAnimation": "None", "beatsAhead": 3, "trackDisappearAnimation": "None", "beatsBehind": 4 },
{ "floor": 198, "eventType": "Twirl" },
{ "floor": 199, "eventType": "Twirl" },
{ "floor": 199, "eventType": "MoveCamera", "duration": 1, "relativeTo": "Player", "position": [0, 0], "rotation": 0, "zoom": 130, "angleOffset": 0, "ease": "Linear", "eventTag": "" },
{ "floor": 199, "eventType": "MoveCamera", "duration": 2, "relativeTo": "Player", "position": [0, 0], "rotation": 0, "zoom": 135, "angleOffset": 0, "ease": "OutCubic", "eventTag": "" },
{ "floor": 201, "eventType": "Twirl" },
{ "floor": 203, "eventType": "MoveCamera", "duration": 1, "relativeTo": "Player", "position": [0, 0], "rotation": 0, "zoom": 130, "angleOffset": 0, "ease": "Linear", "eventTag": "" },
{ "floor": 203, "eventType": "MoveCamera", "duration": 2, "relativeTo": "Player", "position": [0, 0], "rotation": 0, "zoom": 135, "angleOffset": 0, "ease": "OutCubic", "eventTag": "" },
{ "floor": 205, "eventType": "Twirl" },
{ "floor": 207, "eventType": "MoveCamera", "duration": 1, "relativeTo": "Player", "position": [0, 0], "rotation": 0, "zoom": 130, "angleOffset": 0, "ease": "Linear", "eventTag": "" },
{ "floor": 207, "eventType": "MoveCamera", "duration": 2, "relativeTo": "Player", "position": [0, 0], "rotation": 0, "zoom": 135, "angleOffset": 0, "ease": "OutCubic", "eventTag": "" },
{ "floor": 209, "eventType": "Twirl" },
{ "floor": 210, "eventType": "AnimateTrack", "trackAnimation": "None", "beatsAhead": 3, "trackDisappearAnimation": "Shrink", "beatsBehind": 1 },
{ "floor": 212, "eventType": "MoveCamera", "duration": 1, "relativeTo": "Player", "position": [0, 0], "rotation": 0, "zoom": 130, "angleOffset": 0, "ease": "Linear", "eventTag": "" },
{ "floor": 212, "eventType": "MoveCamera", "duration": 2, "relativeTo": "Player", "position": [0, 0], "rotation": 0, "zoom": 135, "angleOffset": 0, "ease": "OutCubic", "eventTag": "" },
{ "floor": 214, "eventType": "AnimateTrack", "trackAnimation": "None", "beatsAhead": 3, "trackDisappearAnimation": "None", "beatsBehind": 4 },
{ "floor": 216, "eventType": "Twirl" },
{ "floor": 217, "eventType": "Twirl" },
{ "floor": 217, "eventType": "MoveCamera", "duration": 1, "relativeTo": "Player", "position": [0, 0], "rotation": 0, "zoom": 130, "angleOffset": 0, "ease": "Linear", "eventTag": "" },
{ "floor": 217, "eventType": "MoveCamera", "duration": 2, "relativeTo": "Player", "position": [0, 0], "rotation": 0, "zoom": 135, "angleOffset": 0, "ease": "OutCubic", "eventTag": "" },
{ "floor": 218, "eventType": "AnimateTrack", "trackAnimation": "None", "beatsAhead": 3, "trackDisappearAnimation": "None", "beatsBehind": 4 },
{ "floor": 218, "eventType": "AddDecoration", "decorationImage": "black.png", "position": [25, 0], "relativeTo": "Tile", "pivotOffset": [0, 0], "rotation": 0, "scale": 150, "depth": 0, "tag": "black1" },
{ "floor": 218, "eventType": "MoveDecorations", "duration": 6, "tag": "black1", "positionOffset": [-25, 0], "rotationOffset": 0, "scale": 150, "angleOffset": 0, "ease": "OutCubic", "eventTag": "" },
{ "floor": 220, "eventType": "MoveCamera", "duration": 1, "relativeTo": "Player", "position": [0, 0], "rotation": 0, "zoom": 130, "angleOffset": 0, "ease": "Linear", "eventTag": "" },
{ "floor": 220, "eventType": "MoveCamera", "duration": 2, "relativeTo": "Player", "position": [0, 0], "rotation": 0, "zoom": 135, "angleOffset": 0, "ease": "OutCubic", "eventTag": "" },
{ "floor": 222, "eventType": "Twirl" },
{ "floor": 222, "eventType": "CustomBackground", "color": "000000", "bgImage": "배경1.jpeg", "imageColor": "ffffff", "parallax": [100, 100], "bgDisplayMode": "FitToScreen", "lockRot": "Disabled", "loopBG": "Disabled", "unscaledSize": 100, "angleOffset": 0, "eventTag": "" },
{ "floor": 222, "eventType": "RecolorTrack", "startTile": [0, "Start"], "endTile": [0, "End"], "trackColorType": "Glow", "trackColor": "febdd5", "secondaryTrackColor": "e076a4", "trackColorAnimDuration": 15, "trackColorPulse": "Forward", "trackPulseLength": 15, "trackStyle": "NeonLight", "angleOffset": 0, "eventTag": "" },
{ "floor": 222, "eventType": "MoveDecorations", "duration": 4, "tag": "black1", "positionOffset": [-50, 0], "rotationOffset": 0, "scale": 150, "angleOffset": 0, "ease": "Linear", "eventTag": "" },
{ "floor": 222, "eventType": "Flash", "duration": 4, "plane": "Foreground", "startColor": "000000", "startOpacity": 100, "endColor": "000000", "endOpacity": 50, "angleOffset": 0, "eventTag": "" },
{ "floor": 222, "eventType": "SetFilter", "filter": "Grayscale", "enabled": "Enabled", "intensity": 100, "disableOthers": "Disabled", "angleOffset": 0, "eventTag": "" },
{ "floor": 222, "eventType": "MoveTrack", "startTile": [-1, "ThisTile"], "endTile": [152, "Start"], "duration": 2, "positionOffset": [0, 0], "rotationOffset": 0, "scale": 95, "opacity": 0, "angleOffset": 0, "ease": "OutCubic", "eventTag": "" },
{ "floor": 225, "eventType": "Twirl" },
{ "floor": 227, "eventType": "MoveDecorations", "duration": 0, "tag": "black1", "positionOffset": [0, 0], "rotationOffset": 0, "scale": 0, "angleOffset": 0, "ease": "Linear", "eventTag": "" },
{ "floor": 230, "eventType": "Twirl" },
{ "floor": 231, "eventType": "Twirl" },
{ "floor": 232, "eventType": "Twirl" },
{ "floor": 233, "eventType": "Twirl" },
{ "floor": 234, "eventType": "Twirl" },
{ "floor": 235, "eventType": "Twirl" },
{ "floor": 236, "eventType": "Twirl" },
{ "floor": 237, "eventType": "Twirl" },
{ "floor": 238, "eventType": "Twirl" },
{ "floor": 239, "eventType": "Twirl" },
{ "floor": 240, "eventType": "Twirl" },
{ "floor": 241, "eventType": "Twirl" },
{ "floor": 245, "eventType": "Twirl" },
{ "floor": 248, "eventType": "Twirl" },
{ "floor": 250, "eventType": "AnimateTrack", "trackAnimation": "None", "beatsAhead": 3, "trackDisappearAnimation": "Shrink", "beatsBehind": 1 },
{ "floor": 254, "eventType": "AnimateTrack", "trackAnimation": "None", "beatsAhead": 3, "trackDisappearAnimation": "None", "beatsBehind": 4 },
{ "floor": 259, "eventType": "Twirl" },
{ "floor": 262, "eventType": "Twirl" },
{ "floor": 266, "eventType": "Twirl" },
{ "floor": 267, "eventType": "Twirl" },
{ "floor": 268, "eventType": "Twirl" },
{ "floor": 269, "eventType": "Twirl" },
{ "floor": 270, "eventType": "Twirl" },
{ "floor": 271, "eventType": "Twirl" },
{ "floor": 272, "eventType": "Twirl" },
{ "floor": 273, "eventType": "Twirl" },
{ "floor": 274, "eventType": "Twirl" },
{ "floor": 275, "eventType": "Twirl" },
{ "floor": 276, "eventType": "Twirl" },
{ "floor": 277, "eventType": "Twirl" },
{ "floor": 278, "eventType": "Twirl" },
{ "floor": 285, "eventType": "Twirl" },
{ "floor": 290, "eventType": "SetSpeed", "speedType": "Multiplier", "beatsPerMinute": 100, "bpmMultiplier": 0.25 },
{ "floor": 290, "eventType": "Flash", "duration": 1, "plane": "Foreground", "startColor": "000000", "startOpacity": 50, "endColor": "000000", "endOpacity": 100, "angleOffset": 0, "eventTag": "" },
{ "floor": 291, "eventType": "Flash", "duration": 2, "plane": "Foreground", "startColor": "000000", "startOpacity": 100, "endColor": "ffffff", "endOpacity": 0, "angleOffset": 0, "eventTag": "" },
{ "floor": 291, "eventType": "SetFilter", "filter": "Arcade", "enabled": "Enabled", "intensity": 100, "disableOthers": "Enabled", "angleOffset": 0, "eventTag": "" },
{ "floor": 292, "eventType": "SetSpeed", "speedType": "Multiplier", "beatsPerMinute": 100, "bpmMultiplier": 4 },
{ "floor": 292, "eventType": "MoveTrack", "startTile": [-1, "ThisTile"], "endTile": [222, "Start"], "duration": 2, "positionOffset": [0, 0], "rotationOffset": 0, "scale": 95, "opacity": 0, "angleOffset": 0, "ease": "OutCubic", "eventTag": "" },
{ "floor": 293, "eventType": "Twirl" },
{ "floor": 297, "eventType": "MoveCamera", "duration": 1, "relativeTo": "Player", "position": [0, 0], "rotation": 0, "zoom": 130, "angleOffset": 0, "ease": "Linear", "eventTag": "" },
{ "floor": 297, "eventType": "MoveCamera", "duration": 2, "relativeTo": "Player", "position": [0, 0], "rotation": 0, "zoom": 135, "angleOffset": 0, "ease": "OutCubic", "eventTag": "" },
{ "floor": 298, "eventType": "Twirl" },
{ "floor": 299, "eventType": "Twirl" },
{ "floor": 300, "eventType": "Twirl" },
{ "floor": 301, "eventType": "Twirl" },
{ "floor": 302, "eventType": "Twirl" },
{ "floor": 303, "eventType": "Twirl" },
{ "floor": 303, "eventType": "MoveCamera", "duration": 1, "relativeTo": "Player", "position": [0, 0], "rotation": 0, "zoom": 130, "angleOffset": 0, "ease": "Linear", "eventTag": "" },
{ "floor": 303, "eventType": "MoveCamera", "duration": 2, "relativeTo": "Player", "position": [0, 0], "rotation": 0, "zoom": 135, "angleOffset": 0, "ease": "OutCubic", "eventTag": "" },
{ "floor": 304, "eventType": "Twirl" },
{ "floor": 305, "eventType": "Twirl" },
{ "floor": 307, "eventType": "MoveCamera", "duration": 1, "relativeTo": "Player", "position": [0, 0], "rotation": 0, "zoom": 130, "angleOffset": 0, "ease": "Linear", "eventTag": "" },
{ "floor": 307, "eventType": "MoveCamera", "duration": 2, "relativeTo": "Player", "position": [0, 0], "rotation": 0, "zoom": 135, "angleOffset": 0, "ease": "OutCubic", "eventTag": "" },
{ "floor": 308, "eventType": "Twirl" },
{ "floor": 309, "eventType": "Twirl" },
{ "floor": 310, "eventType": "Twirl" },
{ "floor": 311, "eventType": "Twirl" },
{ "floor": 312, "eventType": "Twirl" },
{ "floor": 313, "eventType": "Twirl" },
{ "floor": 313, "eventType": "MoveCamera", "duration": 1, "relativeTo": "Player", "position": [0, 0], "rotation": 0, "zoom": 130, "angleOffset": 0, "ease": "Linear", "eventTag": "" },
{ "floor": 313, "eventType": "MoveCamera", "duration": 2, "relativeTo": "Player", "position": [0, 0], "rotation": 0, "zoom": 135, "angleOffset": 0, "ease": "OutCubic", "eventTag": "" },
{ "floor": 314, "eventType": "Twirl" },
{ "floor": 315, "eventType": "Twirl" },
{ "floor": 316, "eventType": "MoveCamera", "duration": 1, "relativeTo": "Player", "position": [0, 0], "rotation": 0, "zoom": 130, "angleOffset": 180, "ease": "Linear", "eventTag": "" },
{ "floor": 316, "eventType": "MoveCamera", "duration": 2, "relativeTo": "Player", "position": [0, 0], "rotation": 0, "zoom": 135, "angleOffset": 180, "ease": "OutCubic", "eventTag": "" },
{ "floor": 319, "eventType": "AnimateTrack", "trackAnimation": "None", "beatsAhead": 3, "trackDisappearAnimation": "Shrink", "beatsBehind": 1 },
{ "floor": 321, "eventType": "MoveCamera", "duration": 1, "relativeTo": "Player", "position": [0, 0], "rotation": 0, "zoom": 130, "angleOffset": 0, "ease": "Linear", "eventTag": "" },
{ "floor": 321, "eventType": "MoveCamera", "duration": 2, "relativeTo": "Player", "position": [0, 0], "rotation": 0, "zoom": 135, "angleOffset": 0, "ease": "OutCubic", "eventTag": "" },
{ "floor": 323, "eventType": "AnimateTrack", "trackAnimation": "None", "beatsAhead": 3, "trackDisappearAnimation": "None", "beatsBehind": 4 },
{ "floor": 325, "eventType": "MoveCamera", "duration": 1, "relativeTo": "Player", "position": [0, 0], "rotation": 0, "zoom": 130, "angleOffset": 0, "ease": "Linear", "eventTag": "" },
{ "floor": 325, "eventType": "MoveCamera", "duration": 2, "relativeTo": "Player", "position": [0, 0], "rotation": 0, "zoom": 135, "angleOffset": 0, "ease": "OutCubic", "eventTag": "" },
{ "floor": 327, "eventType": "Twirl" },
{ "floor": 329, "eventType": "MoveCamera", "duration": 1, "relativeTo": "Player", "position": [0, 0], "rotation": 0, "zoom": 130, "angleOffset": 0, "ease": "Linear", "eventTag": "" },
{ "floor": 329, "eventType": "MoveCamera", "duration": 2, "relativeTo": "Player", "position": [0, 0], "rotation": 0, "zoom": 135, "angleOffset": 0, "ease": "OutCubic", "eventTag": "" },
{ "floor": 331, "eventType": "Twirl" },
{ "floor": 333, "eventType": "MoveCamera", "duration": 1, "relativeTo": "Player", "position": [0, 0], "rotation": 0, "zoom": 130, "angleOffset": 0, "ease": "Linear", "eventTag": "" },
{ "floor": 333, "eventType": "MoveCamera", "duration": 2, "relativeTo": "Player", "position": [0, 0], "rotation": 0, "zoom": 135, "angleOffset": 0, "ease": "OutCubic", "eventTag": "" },
{ "floor": 334, "eventType": "Twirl" },
{ "floor": 335, "eventType": "Twirl" },
{ "floor": 336, "eventType": "Twirl" },
{ "floor": 337, "eventType": "Twirl" },
{ "floor": 338, "eventType": "Twirl" },
{ "floor": 339, "eventType": "MoveCamera", "duration": 1, "relativeTo": "Player", "position": [0, 0], "rotation": 0, "zoom": 130, "angleOffset": 0, "ease": "Linear", "eventTag": "" },
{ "floor": 339, "eventType": "MoveCamera", "duration": 2, "relativeTo": "Player", "position": [0, 0], "rotation": 0, "zoom": 135, "angleOffset": 0, "ease": "OutCubic", "eventTag": "" },
{ "floor": 340, "eventType": "Twirl" },
{ "floor": 343, "eventType": "MoveCamera", "duration": 1, "relativeTo": "Player", "position": [0, 0], "rotation": 0, "zoom": 130, "angleOffset": 0, "ease": "Linear", "eventTag": "" },
{ "floor": 343, "eventType": "MoveCamera", "duration": 2, "relativeTo": "Player", "position": [0, 0], "rotation": 0, "zoom": 135, "angleOffset": 0, "ease": "OutCubic", "eventTag": "" },
{ "floor": 344, "eventType": "Twirl" },
{ "floor": 345, "eventType": "Twirl" },
{ "floor": 346, "eventType": "Twirl" },
{ "floor": 347, "eventType": "Twirl" },
{ "floor": 348, "eventType": "Twirl" },
{ "floor": 349, "eventType": "Twirl" },
{ "floor": 349, "eventType": "MoveCamera", "duration": 1, "relativeTo": "Player", "position": [0, 0], "rotation": 0, "zoom": 130, "angleOffset": 0, "ease": "Linear", "eventTag": "" },
{ "floor": 349, "eventType": "MoveCamera", "duration": 2, "relativeTo": "Player", "position": [0, 0], "rotation": 0, "zoom": 135, "angleOffset": 0, "ease": "OutCubic", "eventTag": "" },
{ "floor": 350, "eventType": "Twirl" },
{ "floor": 351, "eventType": "Twirl" },
{ "floor": 352, "eventType": "MoveCamera", "duration": 1, "relativeTo": "Player", "position": [0, 0], "rotation": 0, "zoom": 130, "angleOffset": 180, "ease": "Linear", "eventTag": "" },
{ "floor": 352, "eventType": "MoveCamera", "duration": 2, "relativeTo": "Player", "position": [0, 0], "rotation": 0, "zoom": 135, "angleOffset": 180, "ease": "OutCubic", "eventTag": "" },
{ "floor": 355, "eventType": "AnimateTrack", "trackAnimation": "None", "beatsAhead": 3, "trackDisappearAnimation": "Shrink", "beatsBehind": 1 },
{ "floor": 357, "eventType": "MoveCamera", "duration": 1, "relativeTo": "Player", "position": [0, 0], "rotation": 0, "zoom": 130, "angleOffset": 0, "ease": "Linear", "eventTag": "" },
{ "floor": 357, "eventType": "MoveCamera", "duration": 2, "relativeTo": "Player", "position": [0, 0], "rotation": 0, "zoom": 135, "angleOffset": 0, "ease": "OutCubic", "eventTag": "" },
{ "floor": 359, "eventType": "AnimateTrack", "trackAnimation": "None", "beatsAhead": 3, "trackDisappearAnimation": "None", "beatsBehind": 4 },
{ "floor": 361, "eventType": "MoveCamera", "duration": 1, "relativeTo": "Player", "position": [0, 0], "rotation": 0, "zoom": 130, "angleOffset": 0, "ease": "Linear", "eventTag": "" },
{ "floor": 361, "eventType": "MoveCamera", "duration": 2, "relativeTo": "Player", "position": [0, 0], "rotation": 0, "zoom": 135, "angleOffset": 0, "ease": "OutCubic", "eventTag": "" },
{ "floor": 363, "eventType": "Twirl" },
{ "floor": 363, "eventType": "Flash", "duration": 5, "plane": "Foreground", "startColor": "ffffff", "startOpacity": 15, "endColor": "ffffff", "endOpacity": 0, "angleOffset": 0, "eventTag": "" },
{ "floor": 363, "eventType": "SetFilter", "filter": "Arcade", "enabled": "Enabled", "intensity": 100, "disableOthers": "Enabled", "angleOffset": 0, "eventTag": "" },
{ "floor": 365, "eventType": "Twirl" },
{ "floor": 366, "eventType": "Twirl" },
{ "floor": 367, "eventType": "Twirl" },
{ "floor": 367, "eventType": "MoveCamera", "duration": 1, "relativeTo": "Player", "position": [0, 0], "rotation": 0, "zoom": 130, "angleOffset": 0, "ease": "Linear", "eventTag": "" },
{ "floor": 367, "eventType": "MoveCamera", "duration": 2, "relativeTo": "Player", "position": [0, 0], "rotation": 0, "zoom": 135, "angleOffset": 0, "ease": "OutCubic", "eventTag": "" },
{ "floor": 368, "eventType": "Twirl" },
{ "floor": 369, "eventType": "Twirl" },
{ "floor": 370, "eventType": "Twirl" },
{ "floor": 371, "eventType": "Twirl" },
{ "floor": 372, "eventType": "Twirl" },
{ "floor": 373, "eventType": "Twirl" },
{ "floor": 373, "eventType": "MoveCamera", "duration": 1, "relativeTo": "Player", "position": [0, 0], "rotation": 0, "zoom": 130, "angleOffset": 0, "ease": "Linear", "eventTag": "" },
{ "floor": 373, "eventType": "MoveCamera", "duration": 2, "relativeTo": "Player", "position": [0, 0], "rotation": 0, "zoom": 135, "angleOffset": 0, "ease": "OutCubic", "eventTag": "" },
{ "floor": 374, "eventType": "Twirl" },
{ "floor": 375, "eventType": "Twirl" },
{ "floor": 376, "eventType": "Twirl" },
{ "floor": 377, "eventType": "Twirl" },
{ "floor": 378, "eventType": "Twirl" },
{ "floor": 379, "eventType": "Twirl" },
{ "floor": 379, "eventType": "MoveCamera", "duration": 1, "relativeTo": "Player", "position": [0, 0], "rotation": 0, "zoom": 130, "angleOffset": 0, "ease": "Linear", "eventTag": "" },
{ "floor": 379, "eventType": "MoveCamera", "duration": 2, "relativeTo": "Player", "position": [0, 0], "rotation": 0, "zoom": 135, "angleOffset": 0, "ease": "OutCubic", "eventTag": "" },
{ "floor": 380, "eventType": "Twirl" },
{ "floor": 383, "eventType": "Twirl" },
{ "floor": 384, "eventType": "Twirl" },
{ "floor": 384, "eventType": "MoveCamera", "duration": 1, "relativeTo": "Player", "position": [0, 0], "rotation": 0, "zoom": 130, "angleOffset": 0, "ease": "Linear", "eventTag": "" },
{ "floor": 384, "eventType": "MoveCamera", "duration": 2, "relativeTo": "Player", "position": [0, 0], "rotation": 0, "zoom": 135, "angleOffset": 0, "ease": "OutCubic", "eventTag": "" },
{ "floor": 385, "eventType": "Twirl" },
{ "floor": 388, "eventType": "AnimateTrack", "trackAnimation": "None", "beatsAhead": 3, "trackDisappearAnimation": "Shrink", "beatsBehind": 1 },
{ "floor": 388, "eventType": "MoveCamera", "duration": 1, "relativeTo": "Player", "position": [0, 0], "rotation": 0, "zoom": 130, "angleOffset": 0, "ease": "Linear", "eventTag": "" },
{ "floor": 388, "eventType": "MoveCamera", "duration": 2, "relativeTo": "Player", "position": [0, 0], "rotation": 0, "zoom": 135, "angleOffset": 0, "ease": "OutCubic", "eventTag": "" },
{ "floor": 392, "eventType": "AnimateTrack", "trackAnimation": "None", "beatsAhead": 3, "trackDisappearAnimation": "None", "beatsBehind": 4 },
{ "floor": 393, "eventType": "MoveCamera", "duration": 1, "relativeTo": "Player", "position": [0, 0], "rotation": 0, "zoom": 130, "angleOffset": 0, "ease": "Linear", "eventTag": "" },
{ "floor": 393, "eventType": "MoveCamera", "duration": 2, "relativeTo": "Player", "position": [0, 0], "rotation": 0, "zoom": 135, "angleOffset": 0, "ease": "OutCubic", "eventTag": "" },
{ "floor": 394, "eventType": "Twirl" },
{ "floor": 395, "eventType": "Twirl" },
{ "floor": 396, "eventType": "AnimateTrack", "trackAnimation": "None", "beatsAhead": 3, "trackDisappearAnimation": "Shrink", "beatsBehind": 1 },
{ "floor": 398, "eventType": "MoveCamera", "duration": 1, "relativeTo": "Player", "position": [0, 0], "rotation": 0, "zoom": 130, "angleOffset": 0, "ease": "Linear", "eventTag": "" },
{ "floor": 398, "eventType": "MoveCamera", "duration": 2, "relativeTo": "Player", "position": [0, 0], "rotation": 0, "zoom": 135, "angleOffset": 0, "ease": "OutCubic", "eventTag": "" },
{ "floor": 400, "eventType": "AnimateTrack", "trackAnimation": "None", "beatsAhead": 3, "trackDisappearAnimation": "None", "beatsBehind": 4 },
{ "floor": 402, "eventType": "MoveCamera", "duration": 1, "relativeTo": "Player", "position": [0, 0], "rotation": 0, "zoom": 130, "angleOffset": 0, "ease": "Linear", "eventTag": "" },
{ "floor": 402, "eventType": "MoveCamera", "duration": 2, "relativeTo": "Player", "position": [0, 0], "rotation": 0, "zoom": 135, "angleOffset": 0, "ease": "OutCubic", "eventTag": "" },
{ "floor": 404, "eventType": "Twirl" },
{ "floor": 406, "eventType": "MoveCamera", "duration": 1, "relativeTo": "Player", "position": [0, 0], "rotation": 0, "zoom": 130, "angleOffset": 0, "ease": "Linear", "eventTag": "" },
{ "floor": 406, "eventType": "MoveCamera", "duration": 2, "relativeTo": "Player", "position": [0, 0], "rotation": 0, "zoom": 135, "angleOffset": 0, "ease": "OutCubic", "eventTag": "" },
{ "floor": 408, "eventType": "Twirl" },
{ "floor": 410, "eventType": "MoveCamera", "duration": 1, "relativeTo": "Player", "position": [0, 0], "rotation": 0, "zoom": 130, "angleOffset": 0, "ease": "Linear", "eventTag": "" },
{ "floor": 410, "eventType": "MoveCamera", "duration": 2, "relativeTo": "Player", "position": [0, 0], "rotation": 0, "zoom": 135, "angleOffset": 0, "ease": "OutCubic", "eventTag": "" },
{ "floor": 411, "eventType": "Twirl" },
{ "floor": 412, "eventType": "Twirl" },
{ "floor": 413, "eventType": "Twirl" },
{ "floor": 414, "eventType": "Twirl" },
{ "floor": 415, "eventType": "Twirl" },
{ "floor": 416, "eventType": "MoveCamera", "duration": 1, "relativeTo": "Player", "position": [0, 0], "rotation": 0, "zoom": 130, "angleOffset": 0, "ease": "Linear", "eventTag": "" },
{ "floor": 416, "eventType": "MoveCamera", "duration": 2, "relativeTo": "Player", "position": [0, 0], "rotation": 0, "zoom": 135, "angleOffset": 0, "ease": "OutCubic", "eventTag": "" },
{ "floor": 417, "eventType": "Twirl" },
{ "floor": 420, "eventType": "MoveCamera", "duration": 1, "relativeTo": "Player", "position": [0, 0], "rotation": 0, "zoom": 130, "angleOffset": 0, "ease": "Linear", "eventTag": "" },
{ "floor": 420, "eventType": "MoveCamera", "duration": 2, "relativeTo": "Player", "position": [0, 0], "rotation": 0, "zoom": 135, "angleOffset": 0, "ease": "OutCubic", "eventTag": "" },
{ "floor": 421, "eventType": "Twirl" },
{ "floor": 422, "eventType": "Twirl" },
{ "floor": 423, "eventType": "Twirl" },
{ "floor": 424, "eventType": "Twirl" },
{ "floor": 425, "eventType": "Twirl" },
{ "floor": 426, "eventType": "Twirl" },
{ "floor": 426, "eventType": "MoveCamera", "duration": 1, "relativeTo": "Player", "position": [0, 0], "rotation": 0, "zoom": 130, "angleOffset": 0, "ease": "Linear", "eventTag": "" },
{ "floor": 426, "eventType": "MoveCamera", "duration": 2, "relativeTo": "Player", "position": [0, 0], "rotation": 0, "zoom": 135, "angleOffset": 0, "ease": "OutCubic", "eventTag": "" },
{ "floor": 427, "eventType": "Twirl" },
{ "floor": 428, "eventType": "Twirl" },
{ "floor": 429, "eventType": "MoveCamera", "duration": 1, "relativeTo": "Player", "position": [0, 0], "rotation": 0, "zoom": 130, "angleOffset": 180, "ease": "Linear", "eventTag": "" },
{ "floor": 429, "eventType": "MoveCamera", "duration": 2, "relativeTo": "Player", "position": [0, 0], "rotation": 0, "zoom": 135, "angleOffset": 180, "ease": "OutCubic", "eventTag": "" },
{ "floor": 432, "eventType": "AnimateTrack", "trackAnimation": "None", "beatsAhead": 3, "trackDisappearAnimation": "Shrink", "beatsBehind": 1 },
{ "floor": 434, "eventType": "MoveCamera", "duration": 1, "relativeTo": "Player", "position": [0, 0], "rotation": 0, "zoom": 130, "angleOffset": 0, "ease": "Linear", "eventTag": "" },
{ "floor": 434, "eventType": "MoveCamera", "duration": 2, "relativeTo": "Player", "position": [0, 0], "rotation": 0, "zoom": 135, "angleOffset": 0, "ease": "OutCubic", "eventTag": "" },
{ "floor": 436, "eventType": "AnimateTrack", "trackAnimation": "None", "beatsAhead": 3, "trackDisappearAnimation": "None", "beatsBehind": 4 },
{ "floor": 436, "eventType": "AddDecoration", "decorationImage": "black.png", "position": [25, 0], "relativeTo": "Tile", "pivotOffset": [0, 0], "rotation": 0, "scale": 150, "depth": 0, "tag": "black3" },
{ "floor": 436, "eventType": "MoveDecorations", "duration": 6, "tag": "black3", "positionOffset": [-25, 0], "rotationOffset": 0, "scale": 150, "angleOffset": 0, "ease": "OutCubic", "eventTag": "" },
{ "floor": 438, "eventType": "MoveCamera", "duration": 1, "relativeTo": "Player", "position": [0, 0], "rotation": 0, "zoom": 130, "angleOffset": 0, "ease": "Linear", "eventTag": "" },
{ "floor": 438, "eventType": "MoveCamera", "duration": 2, "relativeTo": "Player", "position": [0, 0], "rotation": 0, "zoom": 125, "angleOffset": 0, "ease": "OutCubic", "eventTag": "" },
{ "floor": 439, "eventType": "Twirl" },
{ "floor": 440, "eventType": "SetSpeed", "speedType": "Multiplier", "beatsPerMinute": 100, "bpmMultiplier": 0.5 },
{ "floor": 440, "eventType": "CustomBackground", "color": "000000", "bgImage": "배경3.jpeg", "imageColor": "ffffff", "parallax": [100, 100], "bgDisplayMode": "FitToScreen", "lockRot": "Disabled", "loopBG": "Disabled", "unscaledSize": 100, "angleOffset": 0, "eventTag": "" },
{ "floor": 440, "eventType": "RecolorTrack", "startTile": [0, "Start"], "endTile": [0, "End"], "trackColorType": "Glow", "trackColor": "4f2e91", "secondaryTrackColor": "ffadeb", "trackColorAnimDuration": 15, "trackColorPulse": "Backward", "trackPulseLength": 35, "trackStyle": "NeonLight", "angleOffset": 0, "eventTag": "" },
{ "floor": 440, "eventType": "MoveDecorations", "duration": 4, "tag": "black3", "positionOffset": [-50, 0], "rotationOffset": 0, "scale": 150, "angleOffset": 0, "ease": "Linear", "eventTag": "" },
{ "floor": 440, "eventType": "Flash", "duration": 4, "plane": "Foreground", "startColor": "000000", "startOpacity": 100, "endColor": "000000", "endOpacity": 25, "angleOffset": 0, "eventTag": "" },
{ "floor": 440, "eventType": "SetFilter", "filter": "Grayscale", "enabled": "Enabled", "intensity": 100, "disableOthers": "Disabled", "angleOffset": 0, "eventTag": "" },
{ "floor": 440, "eventType": "MoveCamera", "duration": 1, "relativeTo": "Player", "position": [0, 0], "rotation": 0, "zoom": 120, "angleOffset": 180, "ease": "Linear", "eventTag": "" },
{ "floor": 440, "eventType": "MoveCamera", "duration": 2, "relativeTo": "Player", "position": [0, 0], "rotation": 0, "zoom": 125, "angleOffset": 180, "ease": "OutCubic", "eventTag": "" },
{ "floor": 440, "eventType": "MoveTrack", "startTile": [-1, "ThisTile"], "endTile": [292, "Start"], "duration": 2, "positionOffset": [0, 0], "rotationOffset": 0, "scale": 95, "opacity": 0, "angleOffset": 0, "ease": "OutCubic", "eventTag": "" },
{ "floor": 441, "eventType": "MoveCamera", "duration": 1, "relativeTo": "Player", "position": [0, 0], "rotation": 0, "zoom": 120, "angleOffset": 180, "ease": "Linear", "eventTag": "" },
{ "floor": 441, "eventType": "MoveCamera", "duration": 2, "relativeTo": "Player", "position": [0, 0], "rotation": 0, "zoom": 125, "angleOffset": 180, "ease": "OutCubic", "eventTag": "" },
{ "floor": 443, "eventType": "MoveDecorations", "duration": 0, "tag": "black3", "positionOffset": [-50, 0], "rotationOffset": 0, "scale": 0, "angleOffset": 0, "ease": "Linear", "eventTag": "" },
{ "floor": 443, "eventType": "MoveCamera", "duration": 2, "relativeTo": "Player", "position": [0, 0], "rotation": 0, "zoom": 125, "angleOffset": 45, "ease": "OutCubic", "eventTag": "" },
{ "floor": 444, "eventType": "Twirl" },
{ "floor": 444, "eventType": "MoveCamera", "duration": 1, "relativeTo": "Player", "position": [0, 0], "rotation": 0, "zoom": 120, "angleOffset": 0, "ease": "Linear", "eventTag": "" },
{ "floor": 444, "eventType": "MoveCamera", "duration": 2, "relativeTo": "Player", "position": [0, 0], "rotation": 0, "zoom": 125, "angleOffset": 0, "ease": "OutCubic", "eventTag": "" },
{ "floor": 445, "eventType": "Twirl" },
{ "floor": 446, "eventType": "Twirl" },
{ "floor": 447, "eventType": "MoveCamera", "duration": 1, "relativeTo": "Player", "position": [0, 0], "rotation": 0, "zoom": 120, "angleOffset": 0, "ease": "Linear", "eventTag": "" },
{ "floor": 447, "eventType": "MoveCamera", "duration": 2, "relativeTo": "Player", "position": [0, 0], "rotation": 0, "zoom": 125, "angleOffset": 0, "ease": "OutCubic", "eventTag": "" },
{ "floor": 449, "eventType": "Twirl" },
{ "floor": 450, "eventType": "Twirl" },
{ "floor": 451, "eventType": "Twirl" },
{ "floor": 451, "eventType": "MoveCamera", "duration": 1, "relativeTo": "Player", "position": [0, 0], "rotation": 0, "zoom": 120, "angleOffset": 0, "ease": "Linear", "eventTag": "" },
{ "floor": 451, "eventType": "MoveCamera", "duration": 2, "relativeTo": "Player", "position": [0, 0], "rotation": 0, "zoom": 125, "angleOffset": 0, "ease": "OutCubic", "eventTag": "" },
{ "floor": 452, "eventType": "Twirl" },
{ "floor": 453, "eventType": "MoveCamera", "duration": 1, "relativeTo": "Player", "position": [0, 0], "rotation": 0, "zoom": 120, "angleOffset": 180, "ease": "Linear", "eventTag": "" },
{ "floor": 453, "eventType": "MoveCamera", "duration": 2, "relativeTo": "Player", "position": [0, 0], "rotation": 0, "zoom": 125, "angleOffset": 180, "ease": "OutCubic", "eventTag": "" },
{ "floor": 455, "eventType": "MoveCamera", "duration": 1, "relativeTo": "Player", "position": [0, 0], "rotation": 0, "zoom": 120, "angleOffset": 0, "ease": "Linear", "eventTag": "" },
{ "floor": 455, "eventType": "MoveCamera", "duration": 2, "relativeTo": "Player", "position": [0, 0], "rotation": 0, "zoom": 125, "angleOffset": 0, "ease": "OutCubic", "eventTag": "" },
{ "floor": 457, "eventType": "Twirl" },
{ "floor": 457, "eventType": "MoveCamera", "duration": 1, "relativeTo": "Player", "position": [0, 0], "rotation": 0, "zoom": 120, "angleOffset": 180, "ease": "Linear", "eventTag": "" },
{ "floor": 457, "eventType": "MoveCamera", "duration": 2, "relativeTo": "Player", "position": [0, 0], "rotation": 0, "zoom": 125, "angleOffset": 180, "ease": "OutCubic", "eventTag": "" },
{ "floor": 459, "eventType": "MoveCamera", "duration": 1, "relativeTo": "Player", "position": [0, 0], "rotation": 0, "zoom": 120, "angleOffset": 0, "ease": "Linear", "eventTag": "" },
{ "floor": 459, "eventType": "MoveCamera", "duration": 2, "relativeTo": "Player", "position": [0, 0], "rotation": 0, "zoom": 125, "angleOffset": 0, "ease": "OutCubic", "eventTag": "" },
{ "floor": 461, "eventType": "SetSpeed", "speedType": "Multiplier", "beatsPerMinute": 100, "bpmMultiplier": 2 },
{ "floor": 461, "eventType": "MoveTrack", "startTile": [-1, "ThisTile"], "endTile": [440, "Start"], "duration": 2, "positionOffset": [0, 0], "rotationOffset": 0, "scale": 95, "opacity": 0, "angleOffset": 0, "ease": "OutCubic", "eventTag": "" },
{ "floor": 461, "eventType": "AnimateTrack", "trackAnimation": "None", "beatsAhead": 3, "trackDisappearAnimation": "Shrink", "beatsBehind": 1 },
{ "floor": 463, "eventType": "MoveCamera", "duration": 1, "relativeTo": "Player", "position": [0, 0], "rotation": 0, "zoom": 120, "angleOffset": 0, "ease": "Linear", "eventTag": "" },
{ "floor": 463, "eventType": "MoveCamera", "duration": 2, "relativeTo": "Player", "position": [0, 0], "rotation": 0, "zoom": 125, "angleOffset": 0, "ease": "OutCubic", "eventTag": "" },
{ "floor": 466, "eventType": "Twirl" },
{ "floor": 466, "eventType": "MoveCamera", "duration": 1, "relativeTo": "Player", "position": [0, 0], "rotation": 0, "zoom": 120, "angleOffset": 0, "ease": "Linear", "eventTag": "" },
{ "floor": 466, "eventType": "MoveCamera", "duration": 2, "relativeTo": "Player", "position": [0, 0], "rotation": 0, "zoom": 125, "angleOffset": 0, "ease": "OutCubic", "eventTag": "" },
{ "floor": 467, "eventType": "Twirl" },
{ "floor": 468, "eventType": "AnimateTrack", "trackAnimation": "None", "beatsAhead": 3, "trackDisappearAnimation": "None", "beatsBehind": 4 },
{ "floor": 470, "eventType": "MoveCamera", "duration": 1, "relativeTo": "Player", "position": [0, 0], "rotation": 0, "zoom": 120, "angleOffset": 0, "ease": "Linear", "eventTag": "" },
{ "floor": 470, "eventType": "MoveCamera", "duration": 2, "relativeTo": "Player", "position": [0, 0], "rotation": 0, "zoom": 125, "angleOffset": 0, "ease": "OutCubic", "eventTag": "" },
{ "floor": 472, "eventType": "Twirl" },
{ "floor": 474, "eventType": "MoveCamera", "duration": 1, "relativeTo": "Player", "position": [0, 0], "rotation": 0, "zoom": 120, "angleOffset": 0, "ease": "Linear", "eventTag": "" },
{ "floor": 474, "eventType": "MoveCamera", "duration": 2, "relativeTo": "Player", "position": [0, 0], "rotation": 0, "zoom": 125, "angleOffset": 0, "ease": "OutCubic", "eventTag": "" },
{ "floor": 478, "eventType": "MoveCamera", "duration": 1, "relativeTo": "Player", "position": [0, 0], "rotation": 0, "zoom": 120, "angleOffset": 0, "ease": "Linear", "eventTag": "" },
{ "floor": 478, "eventType": "MoveCamera", "duration": 2, "relativeTo": "Player", "position": [0, 0], "rotation": 0, "zoom": 125, "angleOffset": 0, "ease": "OutCubic", "eventTag": "" },
{ "floor": 479, "eventType": "Twirl" },
{ "floor": 482, "eventType": "Twirl" },
{ "floor": 482, "eventType": "MoveCamera", "duration": 1, "relativeTo": "Player", "position": [0, 0], "rotation": 0, "zoom": 120, "angleOffset": 0, "ease": "Linear", "eventTag": "" },
{ "floor": 482, "eventType": "MoveCamera", "duration": 2, "relativeTo": "Player", "position": [0, 0], "rotation": 0, "zoom": 125, "angleOffset": 0, "ease": "OutCubic", "eventTag": "" },
{ "floor": 485, "eventType": "MoveCamera", "duration": 1, "relativeTo": "Player", "position": [0, 0], "rotation": 0, "zoom": 120, "angleOffset": 0, "ease": "Linear", "eventTag": "" },
{ "floor": 485, "eventType": "MoveCamera", "duration": 2, "relativeTo": "Player", "position": [0, 0], "rotation": 0, "zoom": 135, "angleOffset": 0, "ease": "OutCubic", "eventTag": "" },
{ "floor": 486, "eventType": "Flash", "duration": 1, "plane": "Foreground", "startColor": "000000", "startOpacity": 100, "endColor": "000000", "endOpacity": 0, "angleOffset": 0, "eventTag": "" },
{ "floor": 486, "eventType": "SetFilter", "filter": "Arcade", "enabled": "Enabled", "intensity": 100, "disableOthers": "Enabled", "angleOffset": 0, "eventTag": "" },
{ "floor": 487, "eventType": "AnimateTrack", "trackAnimation": "None", "beatsAhead": 3, "trackDisappearAnimation": "Shrink", "beatsBehind": 1 },
{ "floor": 489, "eventType": "MoveCamera", "duration": 1, "relativeTo": "Player", "position": [0, 0], "rotation": 0, "zoom": 130, "angleOffset": 0, "ease": "Linear", "eventTag": "" },
{ "floor": 489, "eventType": "MoveCamera", "duration": 2, "relativeTo": "Player", "position": [0, 0], "rotation": 0, "zoom": 135, "angleOffset": 0, "ease": "OutCubic", "eventTag": "" },
{ "floor": 491, "eventType": "AnimateTrack", "trackAnimation": "None", "beatsAhead": 3, "trackDisappearAnimation": "None", "beatsBehind": 4 },
{ "floor": 493, "eventType": "MoveCamera", "duration": 1, "relativeTo": "Player", "position": [0, 0], "rotation": 0, "zoom": 130, "angleOffset": 0, "ease": "Linear", "eventTag": "" },
{ "floor": 493, "eventType": "MoveCamera", "duration": 2, "relativeTo": "Player", "position": [0, 0], "rotation": 0, "zoom": 135, "angleOffset": 0, "ease": "OutCubic", "eventTag": "" },
{ "floor": 494, "eventType": "Twirl" },
{ "floor": 495, "eventType": "Twirl" },
{ "floor": 496, "eventType": "Twirl" },
{ "floor": 497, "eventType": "Twirl" },
{ "floor": 498, "eventType": "Twirl" },
{ "floor": 499, "eventType": "MoveCamera", "duration": 1, "relativeTo": "Player", "position": [0, 0], "rotation": 0, "zoom": 130, "angleOffset": 0, "ease": "Linear", "eventTag": "" },
{ "floor": 499, "eventType": "MoveCamera", "duration": 2, "relativeTo": "Player", "position": [0, 0], "rotation": 0, "zoom": 135, "angleOffset": 0, "ease": "OutCubic", "eventTag": "" },
{ "floor": 499, "eventType": "Twirl" },
{ "floor": 500, "eventType": "Twirl" },
{ "floor": 501, "eventType": "Twirl" },
{ "floor": 502, "eventType": "Twirl" },
{ "floor": 503, "eventType": "Twirl" },
{ "floor": 504, "eventType": "Twirl" },
{ "floor": 505, "eventType": "Twirl" },
{ "floor": 505, "eventType": "MoveCamera", "duration": 1, "relativeTo": "Player", "position": [0, 0], "rotation": 0, "zoom": 130, "angleOffset": 0, "ease": "Linear", "eventTag": "" },
{ "floor": 505, "eventType": "MoveCamera", "duration": 2, "relativeTo": "Player", "position": [0, 0], "rotation": 0, "zoom": 135, "angleOffset": 0, "ease": "OutCubic", "eventTag": "" },
{ "floor": 506, "eventType": "Twirl" },
{ "floor": 507, "eventType": "Twirl" },
{ "floor": 508, "eventType": "AnimateTrack", "trackAnimation": "None", "beatsAhead": 3, "trackDisappearAnimation": "Shrink", "beatsBehind": 1 },
{ "floor": 510, "eventType": "MoveCamera", "duration": 1, "relativeTo": "Player", "position": [0, 0], "rotation": 0, "zoom": 130, "angleOffset": 0, "ease": "Linear", "eventTag": "" },
{ "floor": 510, "eventType": "MoveCamera", "duration": 2, "relativeTo": "Player", "position": [0, 0], "rotation": 0, "zoom": 135, "angleOffset": 0, "ease": "OutCubic", "eventTag": "" },
{ "floor": 512, "eventType": "AnimateTrack", "trackAnimation": "None", "beatsAhead": 3, "trackDisappearAnimation": "None", "beatsBehind": 4 },
{ "floor": 514, "eventType": "MoveCamera", "duration": 1, "relativeTo": "Player", "position": [0, 0], "rotation": 0, "zoom": 130, "angleOffset": 0, "ease": "Linear", "eventTag": "" },
{ "floor": 514, "eventType": "MoveCamera", "duration": 2, "relativeTo": "Player", "position": [0, 0], "rotation": 0, "zoom": 135, "angleOffset": 0, "ease": "OutCubic", "eventTag": "" },
{ "floor": 516, "eventType": "AnimateTrack", "trackAnimation": "None", "beatsAhead": 3, "trackDisappearAnimation": "Shrink", "beatsBehind": 1 },
{ "floor": 518, "eventType": "MoveCamera", "duration": 1, "relativeTo": "Player", "position": [0, 0], "rotation": 0, "zoom": 130, "angleOffset": 0, "ease": "Linear", "eventTag": "" },
{ "floor": 518, "eventType": "MoveCamera", "duration": 2, "relativeTo": "Player", "position": [0, 0], "rotation": 0, "zoom": 135, "angleOffset": 0, "ease": "OutCubic", "eventTag": "" },
{ "floor": 520, "eventType": "AnimateTrack", "trackAnimation": "None", "beatsAhead": 3, "trackDisappearAnimation": "None", "beatsBehind": 4 },
{ "floor": 522, "eventType": "MoveCamera", "duration": 1, "relativeTo": "Player", "position": [0, 0], "rotation": 0, "zoom": 130, "angleOffset": 0, "ease": "Linear", "eventTag": "" },
{ "floor": 522, "eventType": "MoveCamera", "duration": 2, "relativeTo": "Player", "position": [0, 0], "rotation": 0, "zoom": 135, "angleOffset": 0, "ease": "OutCubic", "eventTag": "" },
{ "floor": 525, "eventType": "MoveCamera", "duration": 1, "relativeTo": "Player", "position": [0, 0], "rotation": 0, "zoom": 130, "angleOffset": 0, "ease": "Linear", "eventTag": "" },
{ "floor": 525, "eventType": "MoveCamera", "duration": 2, "relativeTo": "Player", "position": [0, 0], "rotation": 0, "zoom": 135, "angleOffset": 0, "ease": "OutCubic", "eventTag": "" },
{ "floor": 527, "eventType": "Twirl" },
{ "floor": 529, "eventType": "MoveCamera", "duration": 1, "relativeTo": "Player", "position": [0, 0], "rotation": 0, "zoom": 130, "angleOffset": 0, "ease": "Linear", "eventTag": "" },
{ "floor": 529, "eventType": "MoveCamera", "duration": 2, "relativeTo": "Player", "position": [0, 0], "rotation": 0, "zoom": 135, "angleOffset": 0, "ease": "OutCubic", "eventTag": "" },
{ "floor": 531, "eventType": "Twirl" },
{ "floor": 533, "eventType": "MoveCamera", "duration": 1, "relativeTo": "Player", "position": [0, 0], "rotation": 0, "zoom": 130, "angleOffset": 0, "ease": "Linear", "eventTag": "" },
{ "floor": 533, "eventType": "MoveCamera", "duration": 2, "relativeTo": "Player", "position": [0, 0], "rotation": 0, "zoom": 135, "angleOffset": 0, "ease": "OutCubic", "eventTag": "" },
{ "floor": 535, "eventType": "Twirl" },
{ "floor": 537, "eventType": "MoveCamera", "duration": 1, "relativeTo": "Player", "position": [0, 0], "rotation": 0, "zoom": 130, "angleOffset": 0, "ease": "Linear", "eventTag": "" },
{ "floor": 537, "eventType": "MoveCamera", "duration": 2, "relativeTo": "Player", "position": [0, 0], "rotation": 0, "zoom": 135, "angleOffset": 0, "ease": "OutCubic", "eventTag": "" },
{ "floor": 538, "eventType": "Twirl" },
{ "floor": 539, "eventType": "Twirl" },
{ "floor": 540, "eventType": "Twirl" },
{ "floor": 541, "eventType": "Twirl" },
{ "floor": 542, "eventType": "Twirl" },
{ "floor": 543, "eventType": "Twirl" },
{ "floor": 543, "eventType": "MoveCamera", "duration": 1, "relativeTo": "Player", "position": [0, 0], "rotation": 0, "zoom": 130, "angleOffset": 0, "ease": "Linear", "eventTag": "" },
{ "floor": 543, "eventType": "MoveCamera", "duration": 2, "relativeTo": "Player", "position": [0, 0], "rotation": 0, "zoom": 135, "angleOffset": 0, "ease": "OutCubic", "eventTag": "" },
{ "floor": 544, "eventType": "Twirl" },
{ "floor": 545, "eventType": "Twirl" },
{ "floor": 547, "eventType": "MoveCamera", "duration": 1, "relativeTo": "Player", "position": [0, 0], "rotation": 0, "zoom": 130, "angleOffset": 0, "ease": "Linear", "eventTag": "" },
{ "floor": 547, "eventType": "MoveCamera", "duration": 2, "relativeTo": "Player", "position": [0, 0], "rotation": 0, "zoom": 135, "angleOffset": 0, "ease": "OutCubic", "eventTag": "" },
{ "floor": 549, "eventType": "Twirl" },
{ "floor": 550, "eventType": "AnimateTrack", "trackAnimation": "None", "beatsAhead": 3, "trackDisappearAnimation": "Shrink", "beatsBehind": 1 },
{ "floor": 552, "eventType": "MoveCamera", "duration": 1, "relativeTo": "Player", "position": [0, 0], "rotation": 0, "zoom": 130, "angleOffset": 0, "ease": "Linear", "eventTag": "" },
{ "floor": 552, "eventType": "MoveCamera", "duration": 2, "relativeTo": "Player", "position": [0, 0], "rotation": 0, "zoom": 135, "angleOffset": 0, "ease": "OutCubic", "eventTag": "" },
{ "floor": 553, "eventType": "AnimateTrack", "trackAnimation": "None", "beatsAhead": 3, "trackDisappearAnimation": "None", "beatsBehind": 4 },
{ "floor": 553, "eventType": "AddDecoration", "decorationImage": "black.png", "position": [25, 0], "relativeTo": "Tile", "pivotOffset": [0, 0], "rotation": 0, "scale": 150, "depth": 0, "tag": "black4" },
{ "floor": 553, "eventType": "MoveDecorations", "duration": 6, "tag": "black4", "positionOffset": [-25, 0], "rotationOffset": 0, "scale": 150, "angleOffset": 0, "ease": "OutCubic", "eventTag": "" },
{ "floor": 554, "eventType": "AnimateTrack", "trackAnimation": "None", "beatsAhead": 3, "trackDisappearAnimation": "None", "beatsBehind": 4 },
{ "floor": 556, "eventType": "MoveCamera", "duration": 1, "relativeTo": "Player", "position": [0, 0], "rotation": 0, "zoom": 130, "angleOffset": 0, "ease": "Linear", "eventTag": "" },
{ "floor": 556, "eventType": "MoveCamera", "duration": 2, "relativeTo": "Player", "position": [0, 0], "rotation": 0, "zoom": 135, "angleOffset": 0, "ease": "OutCubic", "eventTag": "" },
{ "floor": 557, "eventType": "CustomBackground", "color": "000000", "bgImage": "배경1.jpeg", "imageColor": "ffffff", "parallax": [100, 100], "bgDisplayMode": "FitToScreen", "lockRot": "Disabled", "loopBG": "Disabled", "unscaledSize": 100, "angleOffset": 0, "eventTag": "" },
{ "floor": 557, "eventType": "RecolorTrack", "startTile": [0, "Start"], "endTile": [0, "End"], "trackColorType": "Glow", "trackColor": "febdd5", "secondaryTrackColor": "e076a4", "trackColorAnimDuration": 15, "trackColorPulse": "Forward", "trackPulseLength": 15, "trackStyle": "NeonLight", "angleOffset": 0, "eventTag": "" },
{ "floor": 557, "eventType": "MoveDecorations", "duration": 4, "tag": "black4", "positionOffset": [-50, 0], "rotationOffset": 0, "scale": 150, "angleOffset": 0, "ease": "Linear", "eventTag": "" },
{ "floor": 557, "eventType": "SetSpeed", "speedType": "Multiplier", "beatsPerMinute": 100, "bpmMultiplier": 0.5 },
{ "floor": 557, "eventType": "Flash", "duration": 4, "plane": "Foreground", "startColor": "000000", "startOpacity": 100, "endColor": "000000", "endOpacity": 0, "angleOffset": 0, "eventTag": "" },
{ "floor": 557, "eventType": "MoveTrack", "startTile": [-1, "ThisTile"], "endTile": [468, "Start"], "duration": 2, "positionOffset": [0, 0], "rotationOffset": 0, "scale": 95, "opacity": 0, "angleOffset": 0, "ease": "OutCubic", "eventTag": "" },
{ "floor": 558, "eventType": "SetSpeed", "speedType": "Multiplier", "beatsPerMinute": 100, "bpmMultiplier": 2 },
{ "floor": 560, "eventType": "Twirl" },
{ "floor": 560, "eventType": "Flash", "duration": 5, "plane": "Foreground", "startColor": "ffffff", "startOpacity": 15, "endColor": "ffffff", "endOpacity": 0, "angleOffset": 0, "eventTag": "" },
{ "floor": 560, "eventType": "ShakeScreen", "duration": 2, "strength": 25, "intensity": 50, "fadeOut": "Enabled", "angleOffset": 0, "eventTag": "" },
{ "floor": 562, "eventType": "MoveCamera", "duration": 1, "relativeTo": "Player", "position": [0, 0], "rotation": 0, "zoom": 130, "angleOffset": 0, "ease": "Linear", "eventTag": "" },
{ "floor": 562, "eventType": "MoveCamera", "duration": 2, "relativeTo": "Player", "position": [0, 0], "rotation": 0, "zoom": 135, "angleOffset": 0, "ease": "OutCubic", "eventTag": "" },
{ "floor": 564, "eventType": "Twirl" },
{ "floor": 564, "eventType": "MoveDecorations", "duration": 0, "tag": "black4", "positionOffset": [0, 0], "rotationOffset": 0, "scale": 0, "angleOffset": 0, "ease": "Linear", "eventTag": "" },
{ "floor": 566, "eventType": "MoveCamera", "duration": 1, "relativeTo": "Player", "position": [0, 0], "rotation": 0, "zoom": 130, "angleOffset": 0, "ease": "Linear", "eventTag": "" },
{ "floor": 566, "eventType": "MoveCamera", "duration": 2, "relativeTo": "Player", "position": [0, 0], "rotation": 0, "zoom": 135, "angleOffset": 0, "ease": "OutCubic", "eventTag": "" },
{ "floor": 567, "eventType": "Twirl" },
{ "floor": 568, "eventType": "Twirl" },
{ "floor": 568, "eventType": "ShakeScreen", "duration": 2, "strength": 25, "intensity": 50, "fadeOut": "Enabled", "angleOffset": 0, "eventTag": "" },
{ "floor": 569, "eventType": "Twirl" },
{ "floor": 570, "eventType": "Twirl" },
{ "floor": 571, "eventType": "Twirl" },
{ "floor": 572, "eventType": "MoveCamera", "duration": 1, "relativeTo": "Player", "position": [0, 0], "rotation": 0, "zoom": 130, "angleOffset": 0, "ease": "Linear", "eventTag": "" },
{ "floor": 572, "eventType": "MoveCamera", "duration": 2, "relativeTo": "Player", "position": [0, 0], "rotation": 0, "zoom": 135, "angleOffset": 0, "ease": "OutCubic", "eventTag": "" },
{ "floor": 573, "eventType": "Twirl" },
{ "floor": 576, "eventType": "MoveCamera", "duration": 1, "relativeTo": "Player", "position": [0, 0], "rotation": 0, "zoom": 130, "angleOffset": 0, "ease": "Linear", "eventTag": "" },
{ "floor": 576, "eventType": "MoveCamera", "duration": 2, "relativeTo": "Player", "position": [0, 0], "rotation": 0, "zoom": 135, "angleOffset": 0, "ease": "OutCubic", "eventTag": "" },
{ "floor": 577, "eventType": "Twirl" },
{ "floor": 578, "eventType": "Twirl" },
{ "floor": 578, "eventType": "ShakeScreen", "duration": 2, "strength": 25, "intensity": 50, "fadeOut": "Enabled", "angleOffset": 0, "eventTag": "" },
{ "floor": 579, "eventType": "Twirl" },
{ "floor": 580, "eventType": "Twirl" },
{ "floor": 581, "eventType": "Twirl" },
{ "floor": 582, "eventType": "Twirl" },
{ "floor": 582, "eventType": "MoveCamera", "duration": 1, "relativeTo": "Player", "position": [0, 0], "rotation": 0, "zoom": 130, "angleOffset": 0, "ease": "Linear", "eventTag": "" },
{ "floor": 582, "eventType": "MoveCamera", "duration": 2, "relativeTo": "Player", "position": [0, 0], "rotation": 0, "zoom": 135, "angleOffset": 0, "ease": "OutCubic", "eventTag": "" },
{ "floor": 583, "eventType": "Twirl" },
{ "floor": 584, "eventType": "Twirl" },
{ "floor": 585, "eventType": "MoveCamera", "duration": 1, "relativeTo": "Player", "position": [0, 0], "rotation": 0, "zoom": 130, "angleOffset": 180, "ease": "Linear", "eventTag": "" },
{ "floor": 585, "eventType": "MoveCamera", "duration": 2, "relativeTo": "Player", "position": [0, 0], "rotation": 0, "zoom": 135, "angleOffset": 180, "ease": "OutCubic", "eventTag": "" },
{ "floor": 587, "eventType": "ShakeScreen", "duration": 2, "strength": 25, "intensity": 50, "fadeOut": "Enabled", "angleOffset": 0, "eventTag": "" },
{ "floor": 588, "eventType": "AnimateTrack", "trackAnimation": "None", "beatsAhead": 3, "trackDisappearAnimation": "Shrink", "beatsBehind": 1 },
{ "floor": 590, "eventType": "MoveCamera", "duration": 1, "relativeTo": "Player", "position": [0, 0], "rotation": 0, "zoom": 130, "angleOffset": 0, "ease": "Linear", "eventTag": "" },
{ "floor": 590, "eventType": "MoveCamera", "duration": 2, "relativeTo": "Player", "position": [0, 0], "rotation": 0, "zoom": 135, "angleOffset": 0, "ease": "OutCubic", "eventTag": "" },
{ "floor": 592, "eventType": "AnimateTrack", "trackAnimation": "None", "beatsAhead": 3, "trackDisappearAnimation": "None", "beatsBehind": 4 },
{ "floor": 594, "eventType": "MoveCamera", "duration": 1, "relativeTo": "Player", "position": [0, 0], "rotation": 0, "zoom": 130, "angleOffset": 0, "ease": "Linear", "eventTag": "" },
{ "floor": 594, "eventType": "MoveCamera", "duration": 2, "relativeTo": "Player", "position": [0, 0], "rotation": 0, "zoom": 135, "angleOffset": 0, "ease": "OutCubic", "eventTag": "" },
{ "floor": 596, "eventType": "Twirl" },
{ "floor": 596, "eventType": "ShakeScreen", "duration": 2, "strength": 25, "intensity": 50, "fadeOut": "Enabled", "angleOffset": 0, "eventTag": "" },
{ "floor": 598, "eventType": "MoveCamera", "duration": 1, "relativeTo": "Player", "position": [0, 0], "rotation": 0, "zoom": 130, "angleOffset": 0, "ease": "Linear", "eventTag": "" },
{ "floor": 598, "eventType": "MoveCamera", "duration": 2, "relativeTo": "Player", "position": [0, 0], "rotation": 0, "zoom": 135, "angleOffset": 0, "ease": "OutCubic", "eventTag": "" },
{ "floor": 600, "eventType": "Twirl" },
{ "floor": 602, "eventType": "MoveCamera", "duration": 1, "relativeTo": "Player", "position": [0, 0], "rotation": 0, "zoom": 130, "angleOffset": 0, "ease": "Linear", "eventTag": "" },
{ "floor": 602, "eventType": "MoveCamera", "duration": 2, "relativeTo": "Player", "position": [0, 0], "rotation": 0, "zoom": 135, "angleOffset": 0, "ease": "OutCubic", "eventTag": "" },
{ "floor": 603, "eventType": "Twirl" },
{ "floor": 604, "eventType": "Twirl" },
{ "floor": 604, "eventType": "ShakeScreen", "duration": 2, "strength": 25, "intensity": 50, "fadeOut": "Enabled", "angleOffset": 0, "eventTag": "" },
{ "floor": 605, "eventType": "Twirl" },
{ "floor": 606, "eventType": "Twirl" },
{ "floor": 607, "eventType": "Twirl" },
{ "floor": 608, "eventType": "MoveCamera", "duration": 1, "relativeTo": "Player", "position": [0, 0], "rotation": 0, "zoom": 130, "angleOffset": 0, "ease": "Linear", "eventTag": "" },
{ "floor": 608, "eventType": "MoveCamera", "duration": 2, "relativeTo": "Player", "position": [0, 0], "rotation": 0, "zoom": 135, "angleOffset": 0, "ease": "OutCubic", "eventTag": "" },
{ "floor": 609, "eventType": "Twirl" },
{ "floor": 612, "eventType": "MoveCamera", "duration": 1, "relativeTo": "Player", "position": [0, 0], "rotation": 0, "zoom": 130, "angleOffset": 0, "ease": "Linear", "eventTag": "" },
{ "floor": 612, "eventType": "MoveCamera", "duration": 2, "relativeTo": "Player", "position": [0, 0], "rotation": 0, "zoom": 135, "angleOffset": 0, "ease": "OutCubic", "eventTag": "" },
{ "floor": 613, "eventType": "Twirl" },
{ "floor": 614, "eventType": "Twirl" },
{ "floor": 614, "eventType": "ShakeScreen", "duration": 2, "strength": 25, "intensity": 50, "fadeOut": "Enabled", "angleOffset": 0, "eventTag": "" },
{ "floor": 615, "eventType": "Twirl" },
{ "floor": 616, "eventType": "Twirl" },
{ "floor": 617, "eventType": "Twirl" },
{ "floor": 618, "eventType": "Twirl" },
{ "floor": 618, "eventType": "MoveCamera", "duration": 1, "relativeTo": "Player", "position": [0, 0], "rotation": 0, "zoom": 130, "angleOffset": 0, "ease": "Linear", "eventTag": "" },
{ "floor": 618, "eventType": "MoveCamera", "duration": 2, "relativeTo": "Player", "position": [0, 0], "rotation": 0, "zoom": 135, "angleOffset": 0, "ease": "OutCubic", "eventTag": "" },
{ "floor": 619, "eventType": "Twirl" },
{ "floor": 620, "eventType": "Twirl" },
{ "floor": 621, "eventType": "MoveCamera", "duration": 1, "relativeTo": "Player", "position": [0, 0], "rotation": 0, "zoom": 130, "angleOffset": 90, "ease": "Linear", "eventTag": "" },
{ "floor": 621, "eventType": "MoveCamera", "duration": 2, "relativeTo": "Player", "position": [0, 0], "rotation": 0, "zoom": 135, "angleOffset": 90, "ease": "OutCubic", "eventTag": "" },
{ "floor": 623, "eventType": "ShakeScreen", "duration": 2, "strength": 25, "intensity": 50, "fadeOut": "Enabled", "angleOffset": 0, "eventTag": "" },
{ "floor": 624, "eventType": "AnimateTrack", "trackAnimation": "None", "beatsAhead": 3, "trackDisappearAnimation": "Shrink", "beatsBehind": 1 },
{ "floor": 626, "eventType": "MoveCamera", "duration": 1, "relativeTo": "Player", "position": [0, 0], "rotation": 0, "zoom": 130, "angleOffset": 0, "ease": "Linear", "eventTag": "" },
{ "floor": 626, "eventType": "MoveCamera", "duration": 2, "relativeTo": "Player", "position": [0, 0], "rotation": 0, "zoom": 135, "angleOffset": 0, "ease": "OutCubic", "eventTag": "" },
{ "floor": 628, "eventType": "AnimateTrack", "trackAnimation": "None", "beatsAhead": 3, "trackDisappearAnimation": "None", "beatsBehind": 4 },
{ "floor": 630, "eventType": "MoveCamera", "duration": 1, "relativeTo": "Player", "position": [0, 0], "rotation": 0, "zoom": 130, "angleOffset": 0, "ease": "Linear", "eventTag": "" },
{ "floor": 630, "eventType": "MoveCamera", "duration": 2, "relativeTo": "Player", "position": [0, 0], "rotation": 0, "zoom": 135, "angleOffset": 0, "ease": "OutCubic", "eventTag": "" },
{ "floor": 632, "eventType": "Twirl" },
{ "floor": 632, "eventType": "Flash", "duration": 5, "plane": "Foreground", "startColor": "ffffff", "startOpacity": 15, "endColor": "ffffff", "endOpacity": 0, "angleOffset": 0, "eventTag": "" },
{ "floor": 632, "eventType": "SetFilter", "filter": "Arcade", "enabled": "Enabled", "intensity": 100, "disableOthers": "Enabled", "angleOffset": 0, "eventTag": "" },
{ "floor": 632, "eventType": "ShakeScreen", "duration": 2, "strength": 25, "intensity": 50, "fadeOut": "Enabled", "angleOffset": 0, "eventTag": "" },
{ "floor": 634, "eventType": "Twirl" },
{ "floor": 635, "eventType": "Twirl" },
{ "floor": 636, "eventType": "Twirl" },
{ "floor": 636, "eventType": "MoveCamera", "duration": 1, "relativeTo": "Player", "position": [0, 0], "rotation": 0, "zoom": 130, "angleOffset": 0, "ease": "Linear", "eventTag": "" },
{ "floor": 636, "eventType": "MoveCamera", "duration": 2, "relativeTo": "Player", "position": [0, 0], "rotation": 0, "zoom": 135, "angleOffset": 0, "ease": "OutCubic", "eventTag": "" },
{ "floor": 637, "eventType": "Twirl" },
{ "floor": 638, "eventType": "Twirl" },
{ "floor": 639, "eventType": "Twirl" },
{ "floor": 640, "eventType": "Twirl" },
{ "floor": 641, "eventType": "Twirl" },
{ "floor": 642, "eventType": "Twirl" },
{ "floor": 642, "eventType": "MoveCamera", "duration": 1, "relativeTo": "Player", "position": [0, 0], "rotation": 0, "zoom": 130, "angleOffset": 0, "ease": "Linear", "eventTag": "" },
{ "floor": 642, "eventType": "MoveCamera", "duration": 2, "relativeTo": "Player", "position": [0, 0], "rotation": 0, "zoom": 135, "angleOffset": 0, "ease": "OutCubic", "eventTag": "" },
{ "floor": 643, "eventType": "Twirl" },
{ "floor": 644, "eventType": "Twirl" },
{ "floor": 644, "eventType": "ShakeScreen", "duration": 2, "strength": 25, "intensity": 50, "fadeOut": "Enabled", "angleOffset": 0, "eventTag": "" },
{ "floor": 645, "eventType": "Twirl" },
{ "floor": 646, "eventType": "Twirl" },
{ "floor": 647, "eventType": "Twirl" },
{ "floor": 648, "eventType": "Twirl" },
{ "floor": 648, "eventType": "MoveCamera", "duration": 1, "relativeTo": "Player", "position": [0, 0], "rotation": 0, "zoom": 130, "angleOffset": 0, "ease": "Linear", "eventTag": "" },
{ "floor": 648, "eventType": "MoveCamera", "duration": 2, "relativeTo": "Player", "position": [0, 0], "rotation": 0, "zoom": 135, "angleOffset": 0, "ease": "OutCubic", "eventTag": "" },
{ "floor": 649, "eventType": "Twirl" },
{ "floor": 652, "eventType": "Twirl" },
{ "floor": 653, "eventType": "Twirl" },
{ "floor": 653, "eventType": "MoveCamera", "duration": 1, "relativeTo": "Player", "position": [0, 0], "rotation": 0, "zoom": 130, "angleOffset": 0, "ease": "Linear", "eventTag": "" },
{ "floor": 653, "eventType": "MoveCamera", "duration": 2, "relativeTo": "Player", "position": [0, 0], "rotation": 0, "zoom": 135, "angleOffset": 0, "ease": "OutCubic", "eventTag": "" },
{ "floor": 654, "eventType": "Twirl" },
{ "floor": 655, "eventType": "ShakeScreen", "duration": 2, "strength": 25, "intensity": 50, "fadeOut": "Enabled", "angleOffset": 0, "eventTag": "" },
{ "floor": 657, "eventType": "AnimateTrack", "trackAnimation": "None", "beatsAhead": 3, "trackDisappearAnimation": "Shrink", "beatsBehind": 1 },
{ "floor": 657, "eventType": "MoveCamera", "duration": 1, "relativeTo": "Player", "position": [0, 0], "rotation": 0, "zoom": 130, "angleOffset": 0, "ease": "Linear", "eventTag": "" },
{ "floor": 657, "eventType": "MoveCamera", "duration": 2, "relativeTo": "Player", "position": [0, 0], "rotation": 0, "zoom": 135, "angleOffset": 0, "ease": "OutCubic", "eventTag": "" },
{ "floor": 661, "eventType": "AnimateTrack", "trackAnimation": "None", "beatsAhead": 3, "trackDisappearAnimation": "None", "beatsBehind": 4 },
{ "floor": 662, "eventType": "MoveCamera", "duration": 1, "relativeTo": "Player", "position": [0, 0], "rotation": 0, "zoom": 130, "angleOffset": 0, "ease": "Linear", "eventTag": "" },
{ "floor": 662, "eventType": "MoveCamera", "duration": 2, "relativeTo": "Player", "position": [0, 0], "rotation": 0, "zoom": 135, "angleOffset": 0, "ease": "OutCubic", "eventTag": "" },
{ "floor": 663, "eventType": "Twirl" },
{ "floor": 664, "eventType": "Twirl" },
{ "floor": 664, "eventType": "ShakeScreen", "duration": 2, "strength": 25, "intensity": 50, "fadeOut": "Enabled", "angleOffset": 0, "eventTag": "" },
{ "floor": 665, "eventType": "AnimateTrack", "trackAnimation": "None", "beatsAhead": 3, "trackDisappearAnimation": "Shrink", "beatsBehind": 1 },
{ "floor": 667, "eventType": "MoveCamera", "duration": 1, "relativeTo": "Player", "position": [0, 0], "rotation": 0, "zoom": 130, "angleOffset": 0, "ease": "Linear", "eventTag": "" },
{ "floor": 667, "eventType": "MoveCamera", "duration": 2, "relativeTo": "Player", "position": [0, 0], "rotation": 0, "zoom": 135, "angleOffset": 0, "ease": "OutCubic", "eventTag": "" },
{ "floor": 669, "eventType": "AnimateTrack", "trackAnimation": "None", "beatsAhead": 3, "trackDisappearAnimation": "None", "beatsBehind": 4 },
{ "floor": 671, "eventType": "MoveCamera", "duration": 1, "relativeTo": "Player", "position": [0, 0], "rotation": 0, "zoom": 130, "angleOffset": 0, "ease": "Linear", "eventTag": "" },
{ "floor": 671, "eventType": "MoveCamera", "duration": 2, "relativeTo": "Player", "position": [0, 0], "rotation": 0, "zoom": 135, "angleOffset": 0, "ease": "OutCubic", "eventTag": "" },
{ "floor": 673, "eventType": "Twirl" },
{ "floor": 673, "eventType": "ShakeScreen", "duration": 2, "strength": 25, "intensity": 50, "fadeOut": "Enabled", "angleOffset": 0, "eventTag": "" },
{ "floor": 675, "eventType": "MoveCamera", "duration": 1, "relativeTo": "Player", "position": [0, 0], "rotation": 0, "zoom": 130, "angleOffset": 0, "ease": "Linear", "eventTag": "" },
{ "floor": 675, "eventType": "MoveCamera", "duration": 2, "relativeTo": "Player", "position": [0, 0], "rotation": 0, "zoom": 135, "angleOffset": 0, "ease": "OutCubic", "eventTag": "" },
{ "floor": 677, "eventType": "Twirl" },
{ "floor": 679, "eventType": "MoveCamera", "duration": 1, "relativeTo": "Player", "position": [0, 0], "rotation": 0, "zoom": 130, "angleOffset": 0, "ease": "Linear", "eventTag": "" },
{ "floor": 679, "eventType": "MoveCamera", "duration": 2, "relativeTo": "Player", "position": [0, 0], "rotation": 0, "zoom": 135, "angleOffset": 0, "ease": "OutCubic", "eventTag": "" },
{ "floor": 680, "eventType": "Twirl" },
{ "floor": 681, "eventType": "Twirl" },
{ "floor": 681, "eventType": "ShakeScreen", "duration": 2, "strength": 25, "intensity": 50, "fadeOut": "Enabled", "angleOffset": 0, "eventTag": "" },
{ "floor": 682, "eventType": "Twirl" },
{ "floor": 683, "eventType": "Twirl" },
{ "floor": 684, "eventType": "Twirl" },
{ "floor": 685, "eventType": "MoveCamera", "duration": 1, "relativeTo": "Player", "position": [0, 0], "rotation": 0, "zoom": 130, "angleOffset": 0, "ease": "Linear", "eventTag": "" },
{ "floor": 685, "eventType": "MoveCamera", "duration": 2, "relativeTo": "Player", "position": [0, 0], "rotation": 0, "zoom": 135, "angleOffset": 0, "ease": "OutCubic", "eventTag": "" },
{ "floor": 686, "eventType": "Twirl" },
{ "floor": 689, "eventType": "MoveCamera", "duration": 1, "relativeTo": "Player", "position": [0, 0], "rotation": 0, "zoom": 130, "angleOffset": 0, "ease": "Linear", "eventTag": "" },
{ "floor": 689, "eventType": "MoveCamera", "duration": 2, "relativeTo": "Player", "position": [0, 0], "rotation": 0, "zoom": 135, "angleOffset": 0, "ease": "OutCubic", "eventTag": "" },
{ "floor": 690, "eventType": "Twirl" },
{ "floor": 691, "eventType": "Twirl" },
{ "floor": 691, "eventType": "ShakeScreen", "duration": 2, "strength": 25, "intensity": 50, "fadeOut": "Enabled", "angleOffset": 0, "eventTag": "" },
{ "floor": 692, "eventType": "Twirl" },
{ "floor": 693, "eventType": "Twirl" },
{ "floor": 694, "eventType": "Twirl" },
{ "floor": 695, "eventType": "Twirl" },
{ "floor": 695, "eventType": "MoveCamera", "duration": 1, "relativeTo": "Player", "position": [0, 0], "rotation": 0, "zoom": 130, "angleOffset": 0, "ease": "Linear", "eventTag": "" },
{ "floor": 695, "eventType": "MoveCamera", "duration": 2, "relativeTo": "Player", "position": [0, 0], "rotation": 0, "zoom": 135, "angleOffset": 0, "ease": "OutCubic", "eventTag": "" },
{ "floor": 696, "eventType": "Twirl" },
{ "floor": 697, "eventType": "Twirl" },
{ "floor": 698, "eventType": "MoveCamera", "duration": 1, "relativeTo": "Player", "position": [0, 0], "rotation": 0, "zoom": 130, "angleOffset": 90, "ease": "Linear", "eventTag": "" },
{ "floor": 698, "eventType": "MoveCamera", "duration": 2, "relativeTo": "Player", "position": [0, 0], "rotation": 0, "zoom": 135, "angleOffset": 90, "ease": "OutCubic", "eventTag": "" },
{ "floor": 700, "eventType": "ShakeScreen", "duration": 2, "strength": 25, "intensity": 50, "fadeOut": "Enabled", "angleOffset": 0, "eventTag": "" },
{ "floor": 701, "eventType": "AnimateTrack", "trackAnimation": "None", "beatsAhead": 3, "trackDisappearAnimation": "Shrink", "beatsBehind": 1 },
{ "floor": 703, "eventType": "MoveCamera", "duration": 1, "relativeTo": "Player", "position": [0, 0], "rotation": 0, "zoom": 130, "angleOffset": 0, "ease": "Linear", "eventTag": "" },
{ "floor": 703, "eventType": "MoveCamera", "duration": 2, "relativeTo": "Player", "position": [0, 0], "rotation": 0, "zoom": 135, "angleOffset": 0, "ease": "OutCubic", "eventTag": "" },
{ "floor": 705, "eventType": "AnimateTrack", "trackAnimation": "None", "beatsAhead": 3, "trackDisappearAnimation": "None", "beatsBehind": 4 },
{ "floor": 707, "eventType": "MoveCamera", "duration": 1, "relativeTo": "Player", "position": [0, 0], "rotation": 0, "zoom": 130, "angleOffset": 0, "ease": "Linear", "eventTag": "" },
{ "floor": 707, "eventType": "MoveCamera", "duration": 2, "relativeTo": "Player", "position": [0, 0], "rotation": 0, "zoom": 135, "angleOffset": 0, "ease": "OutCubic", "eventTag": "" },
{ "floor": 710, "eventType": "SetSpeed", "speedType": "Multiplier", "beatsPerMinute": 100, "bpmMultiplier": 0.2 },
{ "floor": 710, "eventType": "MoveCamera", "duration": 0, "relativeTo": "Player", "position": [0, 0], "rotation": 0, "zoom": 1, "angleOffset": 0, "ease": "Linear", "eventTag": "" },
{ "floor": 710, "eventType": "Flash", "duration": 4, "plane": "Foreground", "startColor": "000000", "startOpacity": 100, "endColor": "000000", "endOpacity": 25, "angleOffset": 0, "eventTag": "" },
{ "floor": 710, "eventType": "SetFilter", "filter": "Grain", "enabled": "Enabled", "intensity": 100, "disableOthers": "Disabled", "angleOffset": 0, "eventTag": "" },
{ "floor": 710, "eventType": "MoveCamera", "duration": 2, "relativeTo": "Player", "position": [0, 1], "rotation": 0, "zoom": 125, "angleOffset": 0, "ease": "OutCubic", "eventTag": "" },
{ "floor": 710, "eventType": "CustomBackground", "color": "000000", "bgImage": "anime-girl-walking-lights-short-hair-lens-flare-trees.jpeg", "imageColor": "ffffff", "parallax": [100, 100], "bgDisplayMode": "FitToScreen", "lockRot": "Disabled", "loopBG": "Disabled", "unscaledSize": 100, "angleOffset": 0, "eventTag": "" },
{ "floor": 710, "eventType": "RecolorTrack", "startTile": [0, "Start"], "endTile": [0, "End"], "trackColorType": "Glow", "trackColor": "ffb600", "secondaryTrackColor": "eba76f", "trackColorAnimDuration": 15, "trackColorPulse": "Backward", "trackPulseLength": 25, "trackStyle": "NeonLight", "angleOffset": 0, "eventTag": "" },
{ "floor": 710, "eventType": "MoveTrack", "startTile": [-1, "ThisTile"], "endTile": [557, "Start"], "duration": 2, "positionOffset": [0, 0], "rotationOffset": 0, "scale": 95, "opacity": 0, "angleOffset": 0, "ease": "OutCubic", "eventTag": "" },
{ "floor": 711, "eventType": "SetSpeed", "speedType": "Bpm", "beatsPerMinute": 80, "bpmMultiplier": 1 },
{ "floor": 712, "eventType": "Twirl" },
{ "floor": 713, "eventType": "Twirl" },
{ "floor": 715, "eventType": "Twirl" },
{ "floor": 716, "eventType": "Twirl" },
{ "floor": 717, "eventType": "Twirl" },
{ "floor": 719, "eventType": "Twirl" },
{ "floor": 720, "eventType": "Twirl" },
{ "floor": 721, "eventType": "Twirl" },
{ "floor": 722, "eventType": "Twirl" },
{ "floor": 723, "eventType": "Twirl" },
{ "floor": 724, "eventType": "Twirl" },
{ "floor": 725, "eventType": "Twirl" },
{ "floor": 726, "eventType": "Twirl" },
{ "floor": 728, "eventType": "Twirl" },
{ "floor": 729, "eventType": "Twirl" },
{ "floor": 730, "eventType": "Twirl" },
{ "floor": 731, "eventType": "Twirl" },
{ "floor": 732, "eventType": "Twirl" },
{ "floor": 733, "eventType": "Twirl" },
{ "floor": 734, "eventType": "Twirl" },
{ "floor": 735, "eventType": "Twirl" },
{ "floor": 737, "eventType": "Twirl" },
{ "floor": 738, "eventType": "Twirl" },
{ "floor": 739, "eventType": "Twirl" },
{ "floor": 741, "eventType": "Twirl" },
{ "floor": 742, "eventType": "Twirl" },
{ "floor": 743, "eventType": "Twirl" },
{ "floor": 744, "eventType": "Twirl" },
{ "floor": 745, "eventType": "Twirl" },
{ "floor": 750, "eventType": "Twirl" },
{ "floor": 751, "eventType": "Twirl" },
{ "floor": 752, "eventType": "Twirl" },
{ "floor": 754, "eventType": "Twirl" },
{ "floor": 755, "eventType": "Twirl" },
{ "floor": 756, "eventType": "Twirl" },
{ "floor": 757, "eventType": "Twirl" },
{ "floor": 758, "eventType": "Twirl" },
{ "floor": 759, "eventType": "Twirl" },
{ "floor": 760, "eventType": "Twirl" },
{ "floor": 761, "eventType": "Twirl" },
{ "floor": 763, "eventType": "Twirl" },
{ "floor": 764, "eventType": "Twirl" },
{ "floor": 765, "eventType": "Twirl" },
{ "floor": 766, "eventType": "Twirl" },
{ "floor": 767, "eventType": "Twirl" },
{ "floor": 768, "eventType": "Twirl" },
{ "floor": 769, "eventType": "Twirl" },
{ "floor": 770, "eventType": "Twirl" },
{ "floor": 772, "eventType": "Twirl" },
{ "floor": 773, "eventType": "Twirl" },
{ "floor": 774, "eventType": "Twirl" },
{ "floor": 776, "eventType": "Twirl" },
{ "floor": 777, "eventType": "Twirl" },
{ "floor": 778, "eventType": "Twirl" },
{ "floor": 779, "eventType": "Twirl" },
{ "floor": 780, "eventType": "Twirl" },
{ "floor": 785, "eventType": "Twirl" },
{ "floor": 786, "eventType": "Twirl" },
{ "floor": 788, "eventType": "Twirl" },
{ "floor": 789, "eventType": "Twirl" },
{ "floor": 790, "eventType": "Twirl" },
{ "floor": 791, "eventType": "Twirl" },
{ "floor": 792, "eventType": "Twirl" },
{ "floor": 793, "eventType": "Twirl" },
{ "floor": 794, "eventType": "Twirl" },
{ "floor": 795, "eventType": "Twirl" },
{ "floor": 796, "eventType": "Twirl" },
{ "floor": 798, "eventType": "Twirl" },
{ "floor": 799, "eventType": "Twirl" },
{ "floor": 800, "eventType": "Twirl" },
{ "floor": 801, "eventType": "Twirl" },
{ "floor": 802, "eventType": "Twirl" },
{ "floor": 803, "eventType": "Twirl" },
{ "floor": 804, "eventType": "Twirl" },
{ "floor": 805, "eventType": "Twirl" },
{ "floor": 807, "eventType": "Twirl" },
{ "floor": 808, "eventType": "Twirl" },
{ "floor": 809, "eventType": "Twirl" },
{ "floor": 811, "eventType": "Twirl" },
{ "floor": 812, "eventType": "Twirl" },
{ "floor": 813, "eventType": "Twirl" },
{ "floor": 814, "eventType": "Twirl" },
{ "floor": 815, "eventType": "Twirl" },
{ "floor": 820, "eventType": "Twirl" },
{ "floor": 821, "eventType": "Twirl" },
{ "floor": 822, "eventType": "Twirl" },
{ "floor": 824, "eventType": "Twirl" },
{ "floor": 825, "eventType": "Twirl" },
{ "floor": 826, "eventType": "Twirl" },
{ "floor": 827, "eventType": "Twirl" },
{ "floor": 828, "eventType": "Twirl" },
{ "floor": 829, "eventType": "Twirl" },
{ "floor": 830, "eventType": "Twirl" },
{ "floor": 831, "eventType": "Twirl" },
{ "floor": 833, "eventType": "Twirl" },
{ "floor": 834, "eventType": "Twirl" },
{ "floor": 835, "eventType": "Twirl" },
{ "floor": 836, "eventType": "Twirl" },
{ "floor": 837, "eventType": "Twirl" },
{ "floor": 838, "eventType": "Twirl" },
{ "floor": 839, "eventType": "Twirl" },
{ "floor": 840, "eventType": "Twirl" },
{ "floor": 842, "eventType": "Twirl" },
{ "floor": 843, "eventType": "Twirl" },
{ "floor": 844, "eventType": "Twirl" },
{ "floor": 846, "eventType": "Twirl" },
{ "floor": 847, "eventType": "Twirl" },
{ "floor": 848, "eventType": "Twirl" },
{ "floor": 849, "eventType": "Twirl" },
{ "floor": 850, "eventType": "Twirl" },
{ "floor": 853, "eventType": "Flash", "duration": 5, "plane": "Foreground", "startColor": "ffffff", "startOpacity": 15, "endColor": "000000", "endOpacity": 100, "angleOffset": 0, "eventTag": "" }
]
}