Because-You-re-Here/backup.adofai
Just Monika 01af1790c6 0
2024-04-16 13:48:12 +08:00

151 lines
7.1 KiB
Plaintext

{
"angleData": [0, 0, 0, 0, 270, 225, 225, 225, 225, 135, 90, 90, 90, 90, 0, 315, 315, 315, 315, 315, 315, 45, 180, 315, 45, 180, 315, 45, 180, 315, 45, 180, 315, 45, 180, 315, 45, 180, 315, 45, 270, 45, 270, 45, 270, 45, 315, 180, 45, 315, 180, 45, 315, 180, 45, 315, 180, 45, 315, 180, 45, 315, 180, 45, 315, 90, 315, 90, 315, 90, 315, 45, 180, 315, 45, 180, 315, 45, 180, 315, 45, 180, 315, 45, 180, 315, 45, 180, 315, 45, 270, 45, 270, 45, 270, 315, 90, 315, 90, 315, 90, 315, 90, 315, 90, 315, 90, 315, 45, 180, 315, 45, 315, 180, 45, 315, 90, 315, 90, 0, 90, 135, 0, 45, 135, 999, 45, 45, 180, 315, 45, 270, 315, 45, 999, 315, 315, 45, 135, 270, 315, 45, 45, 135, 225, 315, 315, 45, 315, 315, 225, 315, 90, 135, 225, 315, 225, 315, 225, 315, 225, 135, 270, 315, 45, 315, 225, 315, 225, 315, 225, 135, 0, 315, 225, 135, 135, 225, 315, 90, 135, 225, 315, 315, 225, 135, 0, 315, 225, 135, 225, 225, 315, 45, 135, 225, 315, 315, 45, 135, 270, 315, 45, 315, 225, 315, 225, 315, 225, 135, 0, 315, 225, 315, 45, 315, 45, 0, 45, 90, 135, 45, 45, 135, 225, 315, 315, 45, 90, 225, 315, 45, 90, 225, 315, 45, 315, 225, 0, 225, 315, 0, 225, 315, 45, 315, 225, 270, 45, 999, 315],
"settings":
{
"version": 11 ,
"artist": "",
"specialArtistType": "None",
"artistPermission": "",
"song": "",
"author": "",
"separateCountdownTime": "Enabled",
"previewImage": "",
"previewIcon": "",
"previewIconColor": "003f52",
"previewSongStart": 0,
"previewSongDuration": 10,
"seizureWarning": "Disabled",
"levelDesc": "",
"levelTags": "",
"artistLinks": "",
"difficulty": 1,
"songFilename": "urhere.ogg",
"bpm": 150,
"volume": 80,
"offset": 21,
"pitch": 100,
"hitsound": "Kick",
"hitsoundVolume": 100,
"countdownTicks": 4,
"trackColorType": "Single",
"trackColor": "debb7b",
"secondaryTrackColor": "ffffff",
"trackColorAnimDuration": 2,
"trackColorPulse": "None",
"trackPulseLength": 10,
"trackStyle": "Standard",
"trackAnimation": "None",
"beatsAhead": 3,
"trackDisappearAnimation": "Retract",
"beatsBehind": 0,
"backgroundColor": "000000",
"showDefaultBGIfNoImage": "Enabled",
"bgImage": "",
"bgImageColor": "ffffff",
"parallax": [100, 100],
"bgDisplayMode": "FitToScreen",
"lockRot": "Disabled",
"loopBG": "Disabled",
"unscaledSize": 100,
"relativeTo": "Player",
"position": [0, 0],
"rotation": 0,
"zoom": 100,
"bgVideo": "",
"loopVideo": "Disabled",
"vidOffset": 0,
"floorIconOutlines": "Disabled",
"stickToFloors": "Enabled",
"planetEase": "Linear",
"planetEaseParts": 1,
"planetEasePartBehavior": "Mirror",
"customClass": "",
"legacyFlash": false ,
"legacyCamRelativeTo": true ,
"legacySpriteTiles": false
},
"actions":
[
{ "floor": 3, "eventType": "SetSpeed", "speedType": "Multiplier", "beatsPerMinute": 100, "bpmMultiplier": 0.5 },
{ "floor": 4, "eventType": "SetSpeed", "speedType": "Multiplier", "beatsPerMinute": 100, "bpmMultiplier": 2 },
{ "floor": 5, "eventType": "SetSpeed", "speedType": "Multiplier", "beatsPerMinute": 100, "bpmMultiplier": 0.5 },
{ "floor": 6, "eventType": "SetSpeed", "speedType": "Multiplier", "beatsPerMinute": 100, "bpmMultiplier": 2 },
{ "floor": 8, "eventType": "SetSpeed", "speedType": "Multiplier", "beatsPerMinute": 100, "bpmMultiplier": 0.5 },
{ "floor": 9, "eventType": "SetSpeed", "speedType": "Multiplier", "beatsPerMinute": 100, "bpmMultiplier": 2 },
{ "floor": 10, "eventType": "SetSpeed", "speedType": "Multiplier", "beatsPerMinute": 100, "bpmMultiplier": 0.5 },
{ "floor": 11, "eventType": "SetSpeed", "speedType": "Multiplier", "beatsPerMinute": 100, "bpmMultiplier": 2 },
{ "floor": 13, "eventType": "SetSpeed", "speedType": "Multiplier", "beatsPerMinute": 100, "bpmMultiplier": 0.5 },
{ "floor": 14, "eventType": "SetSpeed", "speedType": "Multiplier", "beatsPerMinute": 100, "bpmMultiplier": 2 },
{ "floor": 15, "eventType": "SetSpeed", "speedType": "Multiplier", "beatsPerMinute": 100, "bpmMultiplier": 0.5 },
{ "floor": 16, "eventType": "SetSpeed", "speedType": "Multiplier", "beatsPerMinute": 100, "bpmMultiplier": 2 },
{ "floor": 18, "eventType": "SetSpeed", "speedType": "Multiplier", "beatsPerMinute": 100, "bpmMultiplier": 0.5 },
{ "floor": 21, "eventType": "SetSpeed", "speedType": "Multiplier", "beatsPerMinute": 100, "bpmMultiplier": 2 },
{ "floor": 40, "eventType": "Twirl" },
{ "floor": 41, "eventType": "Twirl" },
{ "floor": 42, "eventType": "Twirl" },
{ "floor": 43, "eventType": "Twirl" },
{ "floor": 44, "eventType": "Twirl" },
{ "floor": 45, "eventType": "Twirl" },
{ "floor": 46, "eventType": "Twirl" },
{ "floor": 65, "eventType": "Twirl" },
{ "floor": 66, "eventType": "Twirl" },
{ "floor": 67, "eventType": "Twirl" },
{ "floor": 68, "eventType": "Twirl" },
{ "floor": 69, "eventType": "Twirl" },
{ "floor": 70, "eventType": "Twirl" },
{ "floor": 71, "eventType": "Twirl" },
{ "floor": 90, "eventType": "Twirl" },
{ "floor": 91, "eventType": "Twirl" },
{ "floor": 92, "eventType": "Twirl" },
{ "floor": 93, "eventType": "Twirl" },
{ "floor": 94, "eventType": "Twirl" },
{ "floor": 96, "eventType": "Twirl" },
{ "floor": 97, "eventType": "Twirl" },
{ "floor": 98, "eventType": "Twirl" },
{ "floor": 99, "eventType": "Twirl" },
{ "floor": 100, "eventType": "Twirl" },
{ "floor": 101, "eventType": "Twirl" },
{ "floor": 102, "eventType": "Twirl" },
{ "floor": 103, "eventType": "Twirl" },
{ "floor": 104, "eventType": "Twirl" },
{ "floor": 105, "eventType": "Twirl" },
{ "floor": 106, "eventType": "Twirl" },
{ "floor": 107, "eventType": "Twirl" },
{ "floor": 108, "eventType": "Twirl" },
{ "floor": 112, "eventType": "Twirl" },
{ "floor": 116, "eventType": "Twirl" },
{ "floor": 117, "eventType": "Twirl" },
{ "floor": 118, "eventType": "Twirl" },
{ "floor": 119, "eventType": "Twirl" },
{ "floor": 120, "eventType": "Twirl" },
{ "floor": 122, "eventType": "Twirl" },
{ "floor": 123, "eventType": "Twirl" },
{ "floor": 131, "eventType": "Twirl" },
{ "floor": 132, "eventType": "Twirl" },
{ "floor": 148, "eventType": "Twirl" },
{ "floor": 151, "eventType": "Twirl" },
{ "floor": 156, "eventType": "Twirl" },
{ "floor": 159, "eventType": "Pause", "duration": 1, "countdownTicks": 0, "angleCorrectionDir": -1 },
{ "floor": 162, "eventType": "Twirl" },
{ "floor": 165, "eventType": "Twirl" },
{ "floor": 169, "eventType": "Pause", "duration": 1, "countdownTicks": 0, "angleCorrectionDir": -1 },
{ "floor": 176, "eventType": "Twirl" },
{ "floor": 184, "eventType": "Twirl" },
{ "floor": 190, "eventType": "Twirl" },
{ "floor": 203, "eventType": "Twirl" },
{ "floor": 207, "eventType": "Pause", "duration": 1, "countdownTicks": 0, "angleCorrectionDir": -1 },
{ "floor": 213, "eventType": "Twirl" },
{ "floor": 236, "eventType": "Twirl" },
{ "floor": 238, "eventType": "Twirl" },
{ "floor": 239, "eventType": "Twirl" },
{ "floor": 240, "eventType": "Twirl" },
{ "floor": 242, "eventType": "Twirl" },
{ "floor": 243, "eventType": "Twirl" },
{ "floor": 245, "eventType": "Twirl" },
{ "floor": 247, "eventType": "Twirl" }
]
"decorations":
[
]
}