adofai-tunshiguoqu-1/tunshiguoqu.adofai

420 lines
26 KiB
Plaintext

{
"angleData": [0, 0, 0, 0, 0, 90, 180, 270, 0, 0, 90, 0, 270, 0, 90, 0, 270, 0, 0, 90, 180, 270, 0, 0, 90, 0, 270, 0, 90, 0, 270, 0, 0, 90, 180, 270, 0, 0, 90, 0, 270, 0, 90, 0, 270, 0, 0, 90, 180, 270, 0, 0, 90, 0, 270, 0, 90, 0, 270, 0, 0, 90, 180, 270, 0, 0, 90, 0, 270, 0, 90, 0, 270, 0, 0, 90, 180, 270, 0, 0, 90, 0, 270, 0, 90, 0, 270, 0, 0, 90, 180, 270, 0, 0, 90, 0, 270, 0, 90, 0, 270, 0, 0, 90, 180, 270, 0, 0, 90, 0, 270, 0, 90, 0, 270, 0, 90, 0, 90, 0, 270, 0, 90, 0, 270, 0, 90, 0, 270, 0, 270, 0, 90, 0, 270, 0, 90, 0, 270, 0, 90, 0, 270, 0, 0, 0, 0, 0, 0, 90, 0, 0, 0, 0, 0, 0, 0, 90, 0, 0, 0, 90, 0, 90, 0, 270, 0, 90, 0, 270, 0, 90, 0, 270, 0, 270, 0, 90, 0, 270, 0, 90, 0, 270, 0, 90, 0, 270, 0, 270, 0, 90, 0, 270, 0, 90, 0, 270, 0, 270, 0, 0, 90, 999, 0, 0, 0, 0, 0, 0, 0, 0, 90, 999, 0, 0, 90, 0, 0, 270, 270, 270, 0, 90, 999, 0, 0, 90, 0, 270, 0, 90, 90, 90, 0, 90, 999, 0, 0, 90, 0, 270, 270, 270, 270, 0, 90, 0, 270, 0, 90, 0, 0, 270, 270, 270, 0, 0, 0, 0, 0, 0, 90, 999, 0, 0, 0, 0, 0, 0, 0, 0, 270, 0, 0, 0, 0, 0, 0, 0, 0, 0, 0, 0, 90, 0, 270, 0, 90, 0, 270, 0, 0, 0, 0, 90, 999, 0, 90, 0, 270, 0, 90, 0, 270, 0, 90, 0, 270, 0, 90, 90, 0, 270, 0, 90, 0, 270, 0, 90, 0, 0, 0, 0, 270, 999, 0, 270, 0, 90, 0, 270, 0, 90, 0, 270, 0, 90, 0, 270, 270, 0, 90, 0, 270, 0, 90, 0, 270, 0, 0, 0, 0, 90, 999, 0, 90, 0, 270, 0, 90, 0, 270, 0, 90, 0, 270, 0, 90, 90, 0, 270, 0, 90, 0, 270, 0, 90, 0, 0, 0, 0, 270, 999, 0, 270, 0, 90, 0, 270, 0, 90, 0, 270, 0, 90, 0, 270, 270, 0, 90, 0, 270, 0, 90, 0, 270, 0, 0, 0, 0, 0, 0, 0, 0, 90, 90, 0, 0, 0, 270, 0, 0, 0, 0, 270, 0, 90, 0, 270, 0, 0, 90, 0, 0, 270, 270, 270, 270, 270, 0, 90, 0, 0, 0, 0, 0, 90, 0, 0, 0, 90, 180, 270, 0, 0, 90, 0, 270, 0, 90, 0, 270, 0, 0, 90, 180, 270, 0, 0, 90, 0, 270, 0, 90, 0, 270, 0, 0, 90, 180, 270, 0, 0, 90, 0, 270, 0, 90, 0, 270, 0, 0, 90, 180, 270, 0, 0, 90, 0, 270, 0, 90, 0, 270, 0, 0, 90, 180, 270, 0, 0, 90, 0, 270, 0, 90, 0, 270, 0, 0, 90, 180, 270, 0, 0, 90, 0, 270, 0, 90, 0, 270, 0, 0, 90, 180, 270, 0, 0, 90, 0, 270, 0, 90, 0, 270, 0, 0, 90, 180, 270, 0, 0, 90, 0, 270, 0, 90, 0, 270, 0, 0, 90, 0, 270, 0, 90, 0, 270, 0, 90, 0, 270, 0, 90, 0, 270, 0, 90, 0, 270, 0, 90, 0, 270, 0, 90, 90, 90, 0, 270, 270, 0, 90, 90, 0, 270, 270, 0, 90, 0, 270, 0, 90, 0, 270, 0, 90, 0, 270, 0, 90, 0, 0, 0, 0, 270, 0, 0, 90, 0, 0, 270, 0, 90, 0, 270, 0, 0, 0, 90, 0, 270, 0, 90, 0, 270, 0, 90, 0, 270, 0, 0, 0, 90, 0, 270, 0, 0, 0, 0, 0, 0, 0, 90, 0, 270, 0, 0, 90, 0, 0, 0, 0, 0, 270, 0, 90, 0, 270, 0, 90, 0, 270, 0, 90, 0, 270, 270, 0, 90, 0, 270, 0, 90, 0, 270, 0, 90, 0, 0, 0, 0, 0, 0, 0, 0, 0, 0, 0, 0, 90, 0, 0, 270, 999, 0, 270, 0, 90, 0, 270, 0, 0, 0, 0, 0, 0, 0, 0, 0, 0, 0, 0, 0, 0, 0, 0, 0, 0, 0, 0, 0, 0, 0, 0, 0, 0, 0, 0, 0, 0, 0, 0, 0, 90, 999, 0, 90, 0, 270, 0, 90, 0, 270, 0, 90, 0, 270, 0, 90, 90, 0, 270, 0, 90, 0, 270, 0, 90, 0, 270, 0, 90, 0, 270, 270, 0, 90, 0, 270, 0, 90, 90, 0, 270, 0, 90, 0, 0, 0, 0, 0, 0, 0, 0, 0, 0, 270, 999, 0, 0, 270, 0, 90, 0, 270, 0, 90, 0, 270, 0, 90, 90, 0, 270, 0, 90, 0, 270, 0, 90, 0, 270, 0, 90, 0, 270, 270, 270, 270, 0, 90, 0, 270, 0, 0, 0, 0, 90, 999, 0, 90, 0, 270, 0, 90, 0, 270, 0, 90, 0, 270, 0, 0, 0, 90, 0, 270, 0, 90, 0, 270, 0, 90, 0, 270, 0, 90, 90, 0, 270, 0, 90, 0, 270, 0, 90, 0, 0, 0, 0, 270, 999, 0, 270, 0, 90, 0, 270, 0, 90, 0, 270, 0, 90, 0, 270, 270, 0, 90, 0, 270, 0, 90, 0, 270, 0, 0, 0, 0, 90, 999, 0, 90, 0, 270, 0, 90, 0, 270, 0, 90, 0, 270, 0, 90, 90, 0, 270, 0, 90, 0, 270, 0, 90, 0, 0, 0, 0, 270, 999, 0, 270, 0, 90, 0, 270, 0, 90, 0, 0, 0, 0, 270, 999, 0, 270, 0, 90, 0, 270, 0, 90, 0, 0, 0, 0, 0, 0, 0, 0, 270, 270, 0, 0, 0, 90, 0, 0, 0, 0, 270, 270, 0, 90, 0, 90, 0, 0, 0, 0, 270, 270, 270, 0, 90, 0, 0, 0, 0, 0, 90, 0, 0, 0, 90, 180, 270, 0, 0, 90, 0, 270, 0, 90, 0, 270, 0, 0, 90, 180, 270, 0, 0, 90, 0, 270, 0, 90, 0, 270, 0, 0, 90, 180, 270, 0, 0, 90, 0, 270, 0, 90, 0, 270, 0],
"settings":
{
"version": 9 ,
"artist": "kaf",
"specialArtistType": "None",
"artistPermission": "",
"song": "過去を喰らう ",
"author": "tls",
"separateCountdownTime": "Enabled",
"previewImage": "kenji-kawasaki-thumbnail.jpg",
"previewIcon": "",
"previewIconColor": "003f52",
"previewSongStart": 0,
"previewSongDuration": 10,
"seizureWarning": "Disabled",
"levelDesc": "说说看你的关卡是什么样的吧!",
"levelTags": "",
"artistLinks": "",
"difficulty": 1,
"songFilename": "guoqu.wav",
"bpm": 187,
"volume": 70,
"offset": 542,
"pitch": 100,
"hitsound": "Kick",
"hitsoundVolume": 100,
"countdownTicks": 4,
"trackColorType": "Single",
"trackColor": "debb7b",
"secondaryTrackColor": "ffffff",
"trackColorAnimDuration": 2,
"trackColorPulse": "None",
"trackPulseLength": 10,
"trackStyle": "Standard",
"trackAnimation": "None",
"beatsAhead": 3,
"trackDisappearAnimation": "None",
"beatsBehind": 4,
"backgroundColor": "000000",
"showDefaultBGIfNoImage": "Disabled",
"bgImage": "",
"bgImageColor": "ffffff",
"parallax": [100, 100],
"bgDisplayMode": "FitToScreen",
"lockRot": "Disabled",
"loopBG": "Disabled",
"unscaledSize": 100,
"relativeTo": "Player",
"position": [0, 0],
"rotation": 0,
"zoom": 100,
"bgVideo": "",
"loopVideo": "Disabled",
"vidOffset": 0,
"floorIconOutlines": "Disabled",
"stickToFloors": "Disabled",
"planetEase": "Linear",
"planetEaseParts": 1,
"customClass": "",
"legacyFlash": false ,
"legacySpriteTiles": false
},
"actions":
[
{ "floor": 1, "eventType": "MoveCamera", "duration": 0, "relativeTo": "Tile", "position": [2, 0], "zoom": 50, "angleOffset": 0, "ease": "Linear", "dontDisable": "Disabled", "minVfxOnly": "Disabled", "eventTag": "", },
{ "floor": 5, "eventType": "MoveCamera", "duration": 0, "relativeTo": "Player", "position": [0, 0], "zoom": 100, "angleOffset": 0, "ease": "Linear", "dontDisable": "Disabled", "minVfxOnly": "Disabled", "eventTag": "", },
{ "floor": 11, "eventType": "Twirl" },
{ "floor": 13, "eventType": "Twirl" },
{ "floor": 15, "eventType": "Twirl" },
{ "floor": 17, "eventType": "Twirl" },
{ "floor": 25, "eventType": "Twirl" },
{ "floor": 27, "eventType": "Twirl" },
{ "floor": 29, "eventType": "Twirl" },
{ "floor": 31, "eventType": "Twirl" },
{ "floor": 39, "eventType": "Twirl" },
{ "floor": 41, "eventType": "Twirl" },
{ "floor": 43, "eventType": "Twirl" },
{ "floor": 45, "eventType": "Twirl" },
{ "floor": 53, "eventType": "Twirl" },
{ "floor": 55, "eventType": "Twirl" },
{ "floor": 57, "eventType": "Twirl" },
{ "floor": 59, "eventType": "Twirl" },
{ "floor": 67, "eventType": "Twirl" },
{ "floor": 69, "eventType": "Twirl" },
{ "floor": 71, "eventType": "Twirl" },
{ "floor": 73, "eventType": "Twirl" },
{ "floor": 81, "eventType": "Twirl" },
{ "floor": 83, "eventType": "Twirl" },
{ "floor": 85, "eventType": "Twirl" },
{ "floor": 87, "eventType": "Twirl" },
{ "floor": 95, "eventType": "Twirl" },
{ "floor": 97, "eventType": "Twirl" },
{ "floor": 99, "eventType": "Twirl" },
{ "floor": 101, "eventType": "Twirl" },
{ "floor": 109, "eventType": "Twirl" },
{ "floor": 111, "eventType": "Twirl" },
{ "floor": 113, "eventType": "Twirl" },
{ "floor": 115, "eventType": "Twirl" },
{ "floor": 117, "eventType": "Twirl" },
{ "floor": 118, "eventType": "Twirl" },
{ "floor": 119, "eventType": "Twirl" },
{ "floor": 121, "eventType": "Twirl" },
{ "floor": 123, "eventType": "Twirl" },
{ "floor": 125, "eventType": "Twirl" },
{ "floor": 127, "eventType": "Twirl" },
{ "floor": 129, "eventType": "Twirl" },
{ "floor": 133, "eventType": "Twirl" },
{ "floor": 135, "eventType": "Twirl" },
{ "floor": 137, "eventType": "Twirl" },
{ "floor": 139, "eventType": "Twirl" },
{ "floor": 141, "eventType": "Twirl" },
{ "floor": 143, "eventType": "Twirl" },
{ "floor": 162, "eventType": "Twirl" },
{ "floor": 163, "eventType": "Twirl" },
{ "floor": 164, "eventType": "Twirl" },
{ "floor": 166, "eventType": "Twirl" },
{ "floor": 168, "eventType": "Twirl" },
{ "floor": 170, "eventType": "Twirl" },
{ "floor": 172, "eventType": "Twirl" },
{ "floor": 174, "eventType": "Twirl" },
{ "floor": 178, "eventType": "Twirl" },
{ "floor": 180, "eventType": "Twirl" },
{ "floor": 182, "eventType": "Twirl" },
{ "floor": 184, "eventType": "Twirl" },
{ "floor": 186, "eventType": "Twirl" },
{ "floor": 188, "eventType": "Twirl" },
{ "floor": 192, "eventType": "Twirl" },
{ "floor": 194, "eventType": "Twirl" },
{ "floor": 196, "eventType": "Twirl" },
{ "floor": 198, "eventType": "Twirl" },
{ "floor": 217, "eventType": "Twirl" },
{ "floor": 223, "eventType": "Twirl" },
{ "floor": 228, "eventType": "Twirl" },
{ "floor": 230, "eventType": "Twirl" },
{ "floor": 240, "eventType": "Twirl" },
{ "floor": 246, "eventType": "Twirl" },
{ "floor": 247, "eventType": "Twirl" },
{ "floor": 249, "eventType": "Twirl" },
{ "floor": 251, "eventType": "Twirl" },
{ "floor": 257, "eventType": "Twirl" },
{ "floor": 285, "eventType": "Twirl" },
{ "floor": 287, "eventType": "Twirl" },
{ "floor": 289, "eventType": "Twirl" },
{ "floor": 291, "eventType": "Twirl" },
{ "floor": 299, "eventType": "Twirl" },
{ "floor": 301, "eventType": "Twirl" },
{ "floor": 303, "eventType": "Twirl" },
{ "floor": 305, "eventType": "Twirl" },
{ "floor": 307, "eventType": "Twirl" },
{ "floor": 309, "eventType": "Twirl" },
{ "floor": 311, "eventType": "Twirl" },
{ "floor": 314, "eventType": "Twirl" },
{ "floor": 316, "eventType": "Twirl" },
{ "floor": 318, "eventType": "Twirl" },
{ "floor": 320, "eventType": "Twirl" },
{ "floor": 328, "eventType": "Twirl" },
{ "floor": 330, "eventType": "Twirl" },
{ "floor": 332, "eventType": "Twirl" },
{ "floor": 334, "eventType": "Twirl" },
{ "floor": 336, "eventType": "Twirl" },
{ "floor": 338, "eventType": "Twirl" },
{ "floor": 340, "eventType": "Twirl" },
{ "floor": 343, "eventType": "Twirl" },
{ "floor": 345, "eventType": "Twirl" },
{ "floor": 347, "eventType": "Twirl" },
{ "floor": 349, "eventType": "Twirl" },
{ "floor": 357, "eventType": "Twirl" },
{ "floor": 359, "eventType": "Twirl" },
{ "floor": 361, "eventType": "Twirl" },
{ "floor": 363, "eventType": "Twirl" },
{ "floor": 365, "eventType": "Twirl" },
{ "floor": 367, "eventType": "Twirl" },
{ "floor": 369, "eventType": "Twirl" },
{ "floor": 372, "eventType": "Twirl" },
{ "floor": 374, "eventType": "Twirl" },
{ "floor": 376, "eventType": "Twirl" },
{ "floor": 378, "eventType": "Twirl" },
{ "floor": 386, "eventType": "Twirl" },
{ "floor": 388, "eventType": "Twirl" },
{ "floor": 390, "eventType": "Twirl" },
{ "floor": 392, "eventType": "Twirl" },
{ "floor": 394, "eventType": "Twirl" },
{ "floor": 396, "eventType": "Twirl" },
{ "floor": 398, "eventType": "Twirl" },
{ "floor": 401, "eventType": "Twirl" },
{ "floor": 403, "eventType": "Twirl" },
{ "floor": 405, "eventType": "Twirl" },
{ "floor": 407, "eventType": "Twirl" },
{ "floor": 412, "eventType": "ColorTrack", "trackColorType": "Single", "trackColor": "66db4cff", "secondaryTrackColor": "ffffff", "trackColorAnimDuration": 2, "trackColorPulse": "None", "trackPulseLength": 10, "trackStyle": "Standard", "trackTexture": "", "trackTextureScale": 1 },
{ "floor": 416, "eventType": "Twirl" },
{ "floor": 421, "eventType": "Twirl" },
{ "floor": 422, "eventType": "ColorTrack", "trackColorType": "Single", "trackColor": "aea89cff", "secondaryTrackColor": "ffffff", "trackColorAnimDuration": 2, "trackColorPulse": "None", "trackPulseLength": 10, "trackStyle": "Standard", "trackTexture": "", "trackTextureScale": 1 },
{ "floor": 425, "eventType": "Twirl" },
{ "floor": 426, "eventType": "Twirl" },
{ "floor": 428, "eventType": "Twirl" },
{ "floor": 430, "eventType": "Twirl" },
{ "floor": 433, "eventType": "Twirl" },
{ "floor": 434, "eventType": "ColorTrack", "trackColorType": "Single", "trackColor": "e2659aff", "secondaryTrackColor": "ffffff", "trackColorAnimDuration": 2, "trackColorPulse": "None", "trackPulseLength": 10, "trackStyle": "Standard", "trackTexture": "", "trackTextureScale": 1 },
{ "floor": 441, "eventType": "ColorTrack", "trackColorType": "Single", "trackColor": "debb7b", "secondaryTrackColor": "ffffff", "trackColorAnimDuration": 2, "trackColorPulse": "None", "trackPulseLength": 10, "trackStyle": "Standard", "trackTexture": "", "trackTextureScale": 1 },
{ "floor": 441, "eventType": "Twirl" },
{ "floor": 442, "eventType": "Twirl" },
{ "floor": 449, "eventType": "Checkpoint", "tileOffset": 0 },
{ "floor": 450, "eventType": "Twirl" },
{ "floor": 451, "eventType": "ColorTrack", "trackColorType": "Single", "trackColor": "b24dd8ff", "secondaryTrackColor": "ffffff", "trackColorAnimDuration": 2, "trackColorPulse": "None", "trackPulseLength": 10, "trackStyle": "Standard", "trackTexture": "", "trackTextureScale": 1 },
{ "floor": 457, "eventType": "Twirl" },
{ "floor": 459, "eventType": "Twirl" },
{ "floor": 461, "eventType": "Twirl" },
{ "floor": 463, "eventType": "Twirl" },
{ "floor": 471, "eventType": "Twirl" },
{ "floor": 473, "eventType": "Twirl" },
{ "floor": 475, "eventType": "Twirl" },
{ "floor": 477, "eventType": "Twirl" },
{ "floor": 485, "eventType": "Twirl" },
{ "floor": 487, "eventType": "Twirl" },
{ "floor": 489, "eventType": "Twirl" },
{ "floor": 491, "eventType": "Twirl" },
{ "floor": 499, "eventType": "Twirl" },
{ "floor": 501, "eventType": "Twirl" },
{ "floor": 503, "eventType": "Twirl" },
{ "floor": 505, "eventType": "Twirl" },
{ "floor": 513, "eventType": "Twirl" },
{ "floor": 515, "eventType": "Twirl" },
{ "floor": 517, "eventType": "Twirl" },
{ "floor": 519, "eventType": "Twirl" },
{ "floor": 527, "eventType": "Twirl" },
{ "floor": 529, "eventType": "Twirl" },
{ "floor": 531, "eventType": "Twirl" },
{ "floor": 533, "eventType": "Twirl" },
{ "floor": 541, "eventType": "Twirl" },
{ "floor": 543, "eventType": "Twirl" },
{ "floor": 545, "eventType": "Twirl" },
{ "floor": 547, "eventType": "Twirl" },
{ "floor": 555, "eventType": "Twirl" },
{ "floor": 557, "eventType": "Twirl" },
{ "floor": 559, "eventType": "Twirl" },
{ "floor": 561, "eventType": "Twirl" },
{ "floor": 563, "eventType": "ColorTrack", "trackColorType": "Single", "trackColor": "debb7b", "secondaryTrackColor": "ffffff", "trackColorAnimDuration": 2, "trackColorPulse": "None", "trackPulseLength": 10, "trackStyle": "Standard", "trackTexture": "", "trackTextureScale": 1 },
{ "floor": 564, "eventType": "Twirl" },
{ "floor": 566, "eventType": "Twirl" },
{ "floor": 568, "eventType": "Twirl" },
{ "floor": 570, "eventType": "Twirl" },
{ "floor": 572, "eventType": "Twirl" },
{ "floor": 574, "eventType": "Twirl" },
{ "floor": 576, "eventType": "Twirl" },
{ "floor": 578, "eventType": "Twirl" },
{ "floor": 580, "eventType": "Twirl" },
{ "floor": 582, "eventType": "Twirl" },
{ "floor": 584, "eventType": "Twirl" },
{ "floor": 586, "eventType": "Twirl" },
{ "floor": 588, "eventType": "Twirl" },
{ "floor": 592, "eventType": "Twirl" },
{ "floor": 594, "eventType": "ColorTrack", "trackColorType": "Single", "trackColor": "e2682bff", "secondaryTrackColor": "ffffff", "trackColorAnimDuration": 2, "trackColorPulse": "None", "trackPulseLength": 10, "trackStyle": "Standard", "trackTexture": "", "trackTextureScale": 1 },
{ "floor": 595, "eventType": "Twirl" },
{ "floor": 598, "eventType": "Twirl" },
{ "floor": 601, "eventType": "Twirl" },
{ "floor": 603, "eventType": "Twirl" },
{ "floor": 605, "eventType": "Twirl" },
{ "floor": 607, "eventType": "Twirl" },
{ "floor": 609, "eventType": "Twirl" },
{ "floor": 611, "eventType": "Twirl" },
{ "floor": 613, "eventType": "Twirl" },
{ "floor": 618, "eventType": "Twirl" },
{ "floor": 619, "eventType": "ColorTrack", "trackColorType": "Single", "trackColor": "5bcf62ff", "secondaryTrackColor": "ffffff", "trackColorAnimDuration": 2, "trackColorPulse": "None", "trackPulseLength": 10, "trackStyle": "Standard", "trackTexture": "", "trackTextureScale": 1 },
{ "floor": 621, "eventType": "Twirl" },
{ "floor": 624, "eventType": "Twirl" },
{ "floor": 626, "eventType": "Twirl" },
{ "floor": 628, "eventType": "Twirl" },
{ "floor": 631, "eventType": "ColorTrack", "trackColorType": "Single", "trackColor": "83d2e5ff", "secondaryTrackColor": "ffffff", "trackColorAnimDuration": 2, "trackColorPulse": "None", "trackPulseLength": 10, "trackStyle": "Standard", "trackTexture": "", "trackTextureScale": 1 },
{ "floor": 632, "eventType": "Twirl" },
{ "floor": 634, "eventType": "Twirl" },
{ "floor": 636, "eventType": "Twirl" },
{ "floor": 638, "eventType": "Twirl" },
{ "floor": 640, "eventType": "Twirl" },
{ "floor": 642, "eventType": "Twirl" },
{ "floor": 645, "eventType": "ColorTrack", "trackColorType": "Single", "trackColor": "73dbaaff", "secondaryTrackColor": "ffffff", "trackColorAnimDuration": 2, "trackColorPulse": "None", "trackPulseLength": 10, "trackStyle": "Standard", "trackTexture": "", "trackTextureScale": 1 },
{ "floor": 646, "eventType": "Twirl" },
{ "floor": 648, "eventType": "Twirl" },
{ "floor": 655, "eventType": "ColorTrack", "trackColorType": "Single", "trackColor": "d86f6fff", "secondaryTrackColor": "ffffff", "trackColorAnimDuration": 2, "trackColorPulse": "None", "trackPulseLength": 10, "trackStyle": "Standard", "trackTexture": "", "trackTextureScale": 1 },
{ "floor": 656, "eventType": "Twirl" },
{ "floor": 658, "eventType": "Twirl" },
{ "floor": 661, "eventType": "Twirl" },
{ "floor": 666, "eventType": "ColorTrack", "trackColorType": "Single", "trackColor": "debb7b", "secondaryTrackColor": "ffffff", "trackColorAnimDuration": 2, "trackColorPulse": "None", "trackPulseLength": 10, "trackStyle": "Standard", "trackTexture": "", "trackTextureScale": 1 },
{ "floor": 667, "eventType": "Twirl" },
{ "floor": 669, "eventType": "Twirl" },
{ "floor": 671, "eventType": "Twirl" },
{ "floor": 673, "eventType": "Twirl" },
{ "floor": 675, "eventType": "Twirl" },
{ "floor": 677, "eventType": "Twirl" },
{ "floor": 679, "eventType": "Twirl" },
{ "floor": 682, "eventType": "Twirl" },
{ "floor": 684, "eventType": "Twirl" },
{ "floor": 686, "eventType": "Twirl" },
{ "floor": 688, "eventType": "Twirl" },
{ "floor": 690, "eventType": "Twirl" },
{ "floor": 709, "eventType": "Twirl" },
{ "floor": 711, "eventType": "Twirl" },
{ "floor": 713, "eventType": "Twirl" },
{ "floor": 715, "eventType": "ColorTrack", "trackColorType": "Single", "trackColor": "ff0000ff", "secondaryTrackColor": "ffffff", "trackColorAnimDuration": 2, "trackColorPulse": "None", "trackPulseLength": 10, "trackStyle": "NeonLight", "trackTexture": "", "trackTextureScale": 1 },
{ "floor": 715, "eventType": "AnimateTrack", "trackAnimation": "Assemble", "beatsAhead": 3, "trackDisappearAnimation": "None", "beatsBehind": 4 },
{ "floor": 719, "eventType": "ColorTrack", "trackColorType": "Single", "trackColor": "fffe00ff", "secondaryTrackColor": "ffffff", "trackColorAnimDuration": 2, "trackColorPulse": "None", "trackPulseLength": 10, "trackStyle": "NeonLight", "trackTexture": "", "trackTextureScale": 1 },
{ "floor": 721, "eventType": "ColorTrack", "trackColorType": "Single", "trackColor": "14ff00ff", "secondaryTrackColor": "ffffff", "trackColorAnimDuration": 2, "trackColorPulse": "None", "trackPulseLength": 10, "trackStyle": "NeonLight", "trackTexture": "", "trackTextureScale": 1 },
{ "floor": 723, "eventType": "ColorTrack", "trackColorType": "Single", "trackColor": "12fff5ff", "secondaryTrackColor": "ffffff", "trackColorAnimDuration": 2, "trackColorPulse": "None", "trackPulseLength": 10, "trackStyle": "NeonLight", "trackTexture": "", "trackTextureScale": 1 },
{ "floor": 729, "eventType": "ColorTrack", "trackColorType": "Single", "trackColor": "0d2ffaff", "secondaryTrackColor": "ffffff", "trackColorAnimDuration": 2, "trackColorPulse": "None", "trackPulseLength": 10, "trackStyle": "NeonLight", "trackTexture": "", "trackTextureScale": 1 },
{ "floor": 731, "eventType": "ColorTrack", "trackColorType": "Single", "trackColor": "9b19e9ff", "secondaryTrackColor": "ffffff", "trackColorAnimDuration": 2, "trackColorPulse": "None", "trackPulseLength": 10, "trackStyle": "NeonLight", "trackTexture": "", "trackTextureScale": 1 },
{ "floor": 735, "eventType": "ColorTrack", "trackColorType": "Single", "trackColor": "ef1111ff", "secondaryTrackColor": "ffffff", "trackColorAnimDuration": 2, "trackColorPulse": "None", "trackPulseLength": 10, "trackStyle": "NeonLight", "trackTexture": "", "trackTextureScale": 1 },
{ "floor": 739, "eventType": "ColorTrack", "trackColorType": "Single", "trackColor": "fa8a1cff", "secondaryTrackColor": "ffffff", "trackColorAnimDuration": 2, "trackColorPulse": "None", "trackPulseLength": 10, "trackStyle": "NeonLight", "trackTexture": "", "trackTextureScale": 1 },
{ "floor": 741, "eventType": "ColorTrack", "trackColorType": "Single", "trackColor": "fff811ff", "secondaryTrackColor": "ffffff", "trackColorAnimDuration": 2, "trackColorPulse": "None", "trackPulseLength": 10, "trackStyle": "NeonLight", "trackTexture": "", "trackTextureScale": 1 },
{ "floor": 743, "eventType": "ColorTrack", "trackColorType": "Single", "trackColor": "67f600ff", "secondaryTrackColor": "ffffff", "trackColorAnimDuration": 2, "trackColorPulse": "None", "trackPulseLength": 10, "trackStyle": "NeonLight", "trackTexture": "", "trackTextureScale": 1 },
{ "floor": 745, "eventType": "ColorTrack", "trackColorType": "Single", "trackColor": "22b3adff", "secondaryTrackColor": "ffffff", "trackColorAnimDuration": 2, "trackColorPulse": "None", "trackPulseLength": 10, "trackStyle": "NeonLight", "trackTexture": "", "trackTextureScale": 1 },
{ "floor": 749, "eventType": "ColorTrack", "trackColorType": "Single", "trackColor": "21f35fff", "secondaryTrackColor": "ffffff", "trackColorAnimDuration": 2, "trackColorPulse": "None", "trackPulseLength": 10, "trackStyle": "NeonLight", "trackTexture": "", "trackTextureScale": 1 },
{ "floor": 749, "eventType": "AnimateTrack", "trackAnimation": "None", "beatsAhead": 3, "trackDisappearAnimation": "None", "beatsBehind": 4 },
{ "floor": 750, "eventType": "ColorTrack", "trackColorType": "Single", "trackColor": "debb7b", "secondaryTrackColor": "ffffff", "trackColorAnimDuration": 2, "trackColorPulse": "None", "trackPulseLength": 10, "trackStyle": "Standard", "trackTexture": "", "trackTextureScale": 1 },
{ "floor": 750, "eventType": "Twirl" },
{ "floor": 752, "eventType": "Twirl" },
{ "floor": 754, "eventType": "Twirl" },
{ "floor": 756, "eventType": "Twirl" },
{ "floor": 758, "eventType": "Twirl" },
{ "floor": 760, "eventType": "Twirl" },
{ "floor": 762, "eventType": "Twirl" },
{ "floor": 765, "eventType": "Twirl" },
{ "floor": 767, "eventType": "Twirl" },
{ "floor": 769, "eventType": "Twirl" },
{ "floor": 771, "eventType": "Twirl" },
{ "floor": 773, "eventType": "Twirl" },
{ "floor": 775, "eventType": "Twirl" },
{ "floor": 777, "eventType": "Twirl" },
{ "floor": 780, "eventType": "Twirl" },
{ "floor": 782, "eventType": "Twirl" },
{ "floor": 784, "eventType": "Twirl" },
{ "floor": 787, "eventType": "Twirl" },
{ "floor": 789, "eventType": "Twirl" },
{ "floor": 804, "eventType": "Twirl" },
{ "floor": 806, "eventType": "Twirl" },
{ "floor": 808, "eventType": "Twirl" },
{ "floor": 810, "eventType": "Twirl" },
{ "floor": 812, "eventType": "Twirl" },
{ "floor": 814, "eventType": "Twirl" },
{ "floor": 817, "eventType": "Twirl" },
{ "floor": 819, "eventType": "Twirl" },
{ "floor": 821, "eventType": "Twirl" },
{ "floor": 823, "eventType": "Twirl" },
{ "floor": 825, "eventType": "Twirl" },
{ "floor": 827, "eventType": "Twirl" },
{ "floor": 829, "eventType": "Twirl" },
{ "floor": 834, "eventType": "Twirl" },
{ "floor": 836, "eventType": "Twirl" },
{ "floor": 844, "eventType": "Twirl" },
{ "floor": 846, "eventType": "Twirl" },
{ "floor": 848, "eventType": "Twirl" },
{ "floor": 850, "eventType": "Twirl" },
{ "floor": 852, "eventType": "Twirl" },
{ "floor": 854, "eventType": "Twirl" },
{ "floor": 858, "eventType": "Twirl" },
{ "floor": 860, "eventType": "Twirl" },
{ "floor": 862, "eventType": "Twirl" },
{ "floor": 864, "eventType": "Twirl" },
{ "floor": 866, "eventType": "Twirl" },
{ "floor": 868, "eventType": "Twirl" },
{ "floor": 870, "eventType": "Twirl" },
{ "floor": 873, "eventType": "Twirl" },
{ "floor": 875, "eventType": "Twirl" },
{ "floor": 877, "eventType": "Twirl" },
{ "floor": 879, "eventType": "Twirl" },
{ "floor": 887, "eventType": "Twirl" },
{ "floor": 889, "eventType": "Twirl" },
{ "floor": 891, "eventType": "Twirl" },
{ "floor": 893, "eventType": "Twirl" },
{ "floor": 895, "eventType": "Twirl" },
{ "floor": 897, "eventType": "Twirl" },
{ "floor": 899, "eventType": "Twirl" },
{ "floor": 902, "eventType": "Twirl" },
{ "floor": 904, "eventType": "Twirl" },
{ "floor": 906, "eventType": "Twirl" },
{ "floor": 908, "eventType": "Twirl" },
{ "floor": 916, "eventType": "Twirl" },
{ "floor": 918, "eventType": "Twirl" },
{ "floor": 920, "eventType": "Twirl" },
{ "floor": 922, "eventType": "Twirl" },
{ "floor": 924, "eventType": "Twirl" },
{ "floor": 926, "eventType": "Twirl" },
{ "floor": 928, "eventType": "Twirl" },
{ "floor": 931, "eventType": "Twirl" },
{ "floor": 933, "eventType": "Twirl" },
{ "floor": 935, "eventType": "Twirl" },
{ "floor": 937, "eventType": "Twirl" },
{ "floor": 945, "eventType": "Twirl" },
{ "floor": 947, "eventType": "Twirl" },
{ "floor": 949, "eventType": "Twirl" },
{ "floor": 951, "eventType": "Twirl" },
{ "floor": 959, "eventType": "Twirl" },
{ "floor": 961, "eventType": "Twirl" },
{ "floor": 963, "eventType": "Twirl" },
{ "floor": 965, "eventType": "Twirl" },
{ "floor": 975, "eventType": "Twirl" },
{ "floor": 979, "eventType": "Twirl" },
{ "floor": 985, "eventType": "Twirl" },
{ "floor": 989, "eventType": "Twirl" },
{ "floor": 997, "eventType": "Twirl" },
{ "floor": 998, "eventType": "Twirl" },
{ "floor": 1006, "eventType": "Twirl" },
{ "floor": 1013, "eventType": "Twirl" },
{ "floor": 1015, "eventType": "Twirl" },
{ "floor": 1017, "eventType": "Twirl" },
{ "floor": 1019, "eventType": "Twirl" },
{ "floor": 1027, "eventType": "Twirl" },
{ "floor": 1029, "eventType": "Twirl" },
{ "floor": 1031, "eventType": "Twirl" },
{ "floor": 1033, "eventType": "Twirl" },
{ "floor": 1041, "eventType": "Twirl" },
{ "floor": 1043, "eventType": "Twirl" },
{ "floor": 1045, "eventType": "Twirl" },
{ "floor": 1047, "eventType": "Twirl" }
]
"decorations":
[
]
}