adofai-tell-ur-world/MAIN.adofai

147 lines
16 KiB
Plaintext

{
"angleData": [0, 90, 999, 0, 90, 999, 270, 0, 90, 999, 270, 0, 90, 999, 270, 0, 90, 999, 0, 90, 999, 0, 90, 999, 270, 0, 90, 999, 270, 0, 90, 999, 270, 0, 90, 999, 0, 90, 999, 0, 90, 999, 270, 0, 90, 999, 270, 0, 90, 999, 270, 0, 90, 999, 0, 90, 999, 0, 90, 999, 270, 0, 90, 999, 270, 0, 90, 999, 0, 0, 90, 999, 0, 90, 999, 0, 90, 999, 0, 90, 999, 0, 90, 999, 0, 90, 999, 0, 90, 999, 0, 90, 999, 0, 90, 999, 0, 90, 999, 0, 90, 999, 0, 90, 999, 0, 90, 999, 0, 90, 999, 0, 90, 999, 0, 90, 999, 0, 90, 999, 0, 90, 999, 0, 90, 999, 0, 90, 999, 0, 90, 999, 0, 90, 999, 0, 90, 999, 0, 90, 999, 0, 90, 999, 0, 90, 999, 0, 90, 999, 0, 90, 999, 0, 270, 0, 90, 999, 0, 90, 999, 0, 270, 0, 270, 0, 270, 0, 90, 999, 0, 90, 999, 270, 0, 90, 180, 180, 270, 270, 0, 90, 180, 180, 180, 180, 180, 180, 90, 180, 90, 180, 270, 0, 90, 180, 90, 180, 90, 180, 90, 180, 270, 0, 90, 90, 180, 270, 0, 0, 90, 90, 180, 270, 0, 0, 90, 90, 90, 180, 90, 180, 90, 180, 180, 180, 180, 270, 0, 90, 999, 0, 90, 999, 0, 0, 90, 90, 90, 90, 90, 180, 270, 0, 90, 180, 180, 270, 999, 90, 90, 90, 90, 180, 270, 0, 90, 180, 180, 270, 999, 90, 90, 90, 90, 180, 270, 0, 90, 180, 90, 180, 180, 270, 999, 90, 90, 180, 270, 0, 90, 180, 180, 270, 999, 90, 90, 90, 90, 180, 270, 0, 90, 180, 180, 270, 999, 90, 90, 90, 90, 180, 270, 0, 90, 180, 180, 270, 999, 90, 90, 90, 90, 180, 270, 0, 90, 180, 90, 180, 90, 180, 180, 180, 180, 180, 90, 180, 0, 90, 999, 0, 90, 999, 270, 0, 90, 90, 999, 0, 90, 90, 999, 0, 90, 999, 0, 90, 999, 0, 90, 90, 999, 0, 90, 90, 999, 0, 90, 999, 0, 90, 999, 0, 90, 999, 0, 270, 0, 270, 0, 270, 0, 90, 180, 270, 270, 0, 90, 180, 180, 270, 270, 0, 90, 180, 180, 180, 180, 180, 180, 90, 180, 90, 180, 270, 0, 90, 180, 90, 180, 90, 180, 90, 180, 270, 0, 90, 90, 180, 270, 0, 0, 90, 90, 180, 270, 0, 0, 90, 90, 90, 180, 90, 180, 90, 180, 180, 180, 180, 270, 0, 90, 999, 0, 90, 999, 0, 0, 90, 90, 90, 90, 90, 180, 270, 0, 90, 180, 180, 270, 999, 90, 90, 90, 90, 180, 270, 0, 90, 180, 180, 270, 999, 90, 90, 90, 90, 180, 270, 0, 90, 180, 90, 180, 180, 270, 999, 90, 90, 180, 270, 0, 90, 180, 180, 270, 999, 90, 90, 90, 90, 180, 270, 0, 90, 180, 180, 270, 999, 90, 90, 90, 90, 180, 270, 0, 90, 180, 180, 270, 999, 90, 90, 90, 90, 180, 270, 0, 90, 180, 90, 180, 90, 180, 180, 180, 180, 180, 90, 180, 90, 180, 90, 180, 90, 180, 270, 999, 180, 270, 999, 180, 90, 180, 180, 270, 999, 180, 90, 180, 180, 180, 180, 270, 999, 90, 90, 180, 180, 180, 180, 270, 999, 90, 90, 90, 180, 180, 270, 0, 90, 180, 180, 270, 270, 270, 90, 180, 270, 999, 180, 270, 999, 180, 90, 180, 270, 0, 90, 180, 90, 180, 180, 180, 180, 270, 999, 90, 90, 180, 180, 180, 180, 270, 180, 180, 180, 180, 90, 180, 180, 180, 90, 180, 270, 999, 180, 270, 999, 180, 180, 270, 999, 90, 90, 90, 90, 180, 270, 0, 90, 180, 180, 270, 999, 90, 90, 90, 90, 180, 270, 0, 90, 180, 180, 270, 999, 90, 90, 90, 90, 180, 270, 0, 90, 180, 90, 180, 180, 270, 999, 90, 90, 180, 270, 0, 90, 180, 180, 270, 999, 90, 90, 90, 90, 180, 270, 0, 90, 180, 180, 270, 999, 90, 90, 90, 90, 180, 270, 0, 90, 180, 180, 270, 999, 90, 90, 90, 90, 180, 270, 0, 90, 180, 90, 180, 90, 180, 180, 180, 180, 180, 90, 180, 0, 0, 90, 180, 90, 180],
"settings":
{
"version": 11 ,
"artist": "livetune",
"specialArtistType": "None",
"artistPermission": "",
"song": "tell your world",
"author": "tls",
"separateCountdownTime": "Enabled",
"previewImage": "Tell_Your_World.jpg",
"previewIcon": "",
"previewIconColor": "003f52",
"previewSongStart": 0,
"previewSongDuration": 10,
"seizureWarning": "Disabled",
"levelDesc": "",
"levelTags": "",
"artistLinks": "",
"difficulty": 1,
"requiredMods": [],
"songFilename": "output.ogg",
"bpm": 150,
"volume": 80,
"offset": 88,
"pitch": 100,
"hitsound": "Kick",
"hitsoundVolume": 40,
"countdownTicks": 4,
"trackColorType": "Single",
"trackColor": "debb7b",
"secondaryTrackColor": "ffffff",
"trackColorAnimDuration": 2,
"trackColorPulse": "None",
"trackPulseLength": 10,
"trackStyle": "Standard",
"trackGlowIntensity": 100,
"trackAnimation": "None",
"beatsAhead": 3,
"trackDisappearAnimation": "None",
"beatsBehind": 4,
"backgroundColor": "000000",
"showDefaultBGIfNoImage": "Enabled",
"bgImage": "",
"bgImageColor": "ffffff",
"parallax": [100, 100],
"bgDisplayMode": "FitToScreen",
"lockRot": "Disabled",
"loopBG": "Disabled",
"unscaledSize": 100,
"relativeTo": "Player",
"position": [0, 0],
"rotation": 0,
"zoom": 100,
"pulseOnFloor": "Enabled",
"startCamLowVFX": "Disabled",
"bgVideo": "",
"loopVideo": "Disabled",
"vidOffset": 0,
"floorIconOutlines": "Disabled",
"stickToFloors": "Enabled",
"planetEase": "Linear",
"planetEaseParts": 1,
"planetEasePartBehavior": "Mirror",
"customClass": "",
"legacyFlash": false ,
"legacyCamRelativeTo": false ,
"legacySpriteTiles": false
},
"actions":
[
{ "floor": 69, "eventType": "SetSpeed", "speedType": "Multiplier", "beatsPerMinute": 100, "bpmMultiplier": 0.5 },
{ "floor": 70, "eventType": "SetSpeed", "speedType": "Multiplier", "beatsPerMinute": 100, "bpmMultiplier": 2 },
{ "floor": 175, "eventType": "Pause", "duration": 4, "countdownTicks": 0, "angleCorrectionDir": -1 },
{ "floor": 175, "eventType": "MoveTrack", "startTile": [0, "ThisTile"], "endTile": [0, "ThisTile"], "gapLength": 0, "duration": 4, "positionOffset": [0, 4], "angleOffset": 0, "ease": "Linear", "maxVfxOnly": "Disabled", "eventTag": "", },
{ "floor": 175, "eventType": "MoveCamera", "duration": 1, "position": [0, 4], "angleOffset": 0, "ease": "Linear", "dontDisable": "Disabled", "minVfxOnly": "Disabled", "eventTag": "", },
{ "floor": 176, "eventType": "PositionTrack", "positionOffset": [0, 4], "relativeTo": [0, "ThisTile"], "rotation": 0, "scale": 100, "opacity": 100, "justThisTile": "Disabled", "editorOnly": "Disabled" },
{ "floor": 176, "eventType": "MoveCamera", "duration": 1, "position": [0, 0], "angleOffset": 0, "ease": "Linear", "dontDisable": "Disabled", "minVfxOnly": "Disabled", "eventTag": "", },
{ "floor": 181, "eventType": "Pause", "duration": 2, "countdownTicks": 0, "angleCorrectionDir": -1 },
{ "floor": 181, "eventType": "MoveTrack", "startTile": [0, "ThisTile"], "endTile": [0, "ThisTile"], "gapLength": 0, "duration": 2, "positionOffset": [0, 4], "angleOffset": 0, "ease": "Linear", "maxVfxOnly": "Disabled", "eventTag": "", },
{ "floor": 181, "eventType": "MoveCamera", "duration": 2, "position": [0, 4], "angleOffset": 0, "ease": "Linear", "dontDisable": "Disabled", "minVfxOnly": "Disabled", "eventTag": "", },
{ "floor": 182, "eventType": "PositionTrack", "positionOffset": [0, 4], "relativeTo": [0, "ThisTile"], "rotation": 0, "scale": 100, "opacity": 100, "justThisTile": "Disabled", "editorOnly": "Disabled" },
{ "floor": 182, "eventType": "MoveCamera", "duration": 2, "position": [0, 0], "angleOffset": 0, "ease": "Linear", "dontDisable": "Disabled", "minVfxOnly": "Disabled", "eventTag": "", },
{ "floor": 187, "eventType": "SetSpeed", "speedType": "Multiplier", "beatsPerMinute": 100, "bpmMultiplier": 0.5 },
{ "floor": 188, "eventType": "SetSpeed", "speedType": "Multiplier", "beatsPerMinute": 100, "bpmMultiplier": 2 },
{ "floor": 207, "eventType": "Pause", "duration": 4, "countdownTicks": 0, "angleCorrectionDir": -1 },
{ "floor": 207, "eventType": "MoveTrack", "startTile": [0, "ThisTile"], "endTile": [0, "ThisTile"], "gapLength": 0, "duration": 4, "positionOffset": [2, 0], "angleOffset": 0, "ease": "Linear", "maxVfxOnly": "Disabled", "eventTag": "", },
{ "floor": 208, "eventType": "PositionTrack", "positionOffset": [2, 0], "relativeTo": [0, "ThisTile"], "rotation": 0, "scale": 100, "opacity": 100, "justThisTile": "Disabled", "editorOnly": "Disabled" },
{ "floor": 213, "eventType": "Pause", "duration": 2, "countdownTicks": 0, "angleCorrectionDir": -1 },
{ "floor": 213, "eventType": "MoveTrack", "startTile": [0, "ThisTile"], "endTile": [0, "ThisTile"], "gapLength": 0, "duration": 2, "positionOffset": [2, 0], "angleOffset": 0, "ease": "Linear", "maxVfxOnly": "Disabled", "eventTag": "", },
{ "floor": 214, "eventType": "PositionTrack", "positionOffset": [2, 0], "relativeTo": [0, "ThisTile"], "rotation": 0, "scale": 100, "opacity": 100, "justThisTile": "Disabled", "editorOnly": "Disabled" },
{ "floor": 227, "eventType": "Pause", "duration": 2, "countdownTicks": 0, "angleCorrectionDir": -1 },
{ "floor": 227, "eventType": "MoveTrack", "startTile": [0, "ThisTile"], "endTile": [0, "ThisTile"], "gapLength": 0, "duration": 2, "positionOffset": [0, 2], "angleOffset": 0, "ease": "Linear", "maxVfxOnly": "Disabled", "eventTag": "", },
{ "floor": 228, "eventType": "PositionTrack", "positionOffset": [0, 2], "relativeTo": [0, "ThisTile"], "rotation": 0, "scale": 100, "opacity": 100, "justThisTile": "Disabled", "editorOnly": "Disabled" },
{ "floor": 326, "eventType": "SetSpeed", "speedType": "Multiplier", "beatsPerMinute": 100, "bpmMultiplier": 0.25 },
{ "floor": 328, "eventType": "Pause", "duration": 4, "countdownTicks": 0, "angleCorrectionDir": -1 },
{ "floor": 328, "eventType": "MoveTrack", "startTile": [0, "ThisTile"], "endTile": [0, "ThisTile"], "gapLength": 0, "duration": 4, "positionOffset": [0, 2], "angleOffset": 180, "ease": "Linear", "maxVfxOnly": "Disabled", "eventTag": "", },
{ "floor": 329, "eventType": "PositionTrack", "positionOffset": [0, 2], "relativeTo": [0, "ThisTile"], "rotation": 0, "scale": 100, "opacity": 100, "justThisTile": "Disabled", "editorOnly": "Disabled" },
{ "floor": 329, "eventType": "SetSpeed", "speedType": "Multiplier", "beatsPerMinute": 100, "bpmMultiplier": 4 },
{ "floor": 378, "eventType": "Pause", "duration": 4, "countdownTicks": 0, "angleCorrectionDir": -1 },
{ "floor": 378, "eventType": "MoveTrack", "startTile": [0, "ThisTile"], "endTile": [0, "ThisTile"], "gapLength": 0, "duration": 4, "positionOffset": [4, 0], "angleOffset": 0, "ease": "Linear", "maxVfxOnly": "Disabled", "eventTag": "", },
{ "floor": 379, "eventType": "PositionTrack", "positionOffset": [4, 0], "relativeTo": [0, "ThisTile"], "rotation": 0, "scale": 100, "opacity": 100, "justThisTile": "Disabled", "editorOnly": "Disabled" },
{ "floor": 384, "eventType": "Pause", "duration": 2, "countdownTicks": 0, "angleCorrectionDir": -1 },
{ "floor": 384, "eventType": "MoveTrack", "startTile": [0, "ThisTile"], "endTile": [0, "ThisTile"], "gapLength": 0, "duration": 2, "positionOffset": [0, 8], "angleOffset": 0, "ease": "Linear", "maxVfxOnly": "Disabled", "eventTag": "", },
{ "floor": 384, "eventType": "MoveCamera", "duration": 2, "position": [0, 8], "angleOffset": 0, "ease": "Linear", "dontDisable": "Disabled", "minVfxOnly": "Disabled", "eventTag": "", },
{ "floor": 385, "eventType": "PositionTrack", "positionOffset": [0, 8], "relativeTo": [0, "ThisTile"], "rotation": 0, "scale": 100, "opacity": 100, "justThisTile": "Disabled", "editorOnly": "Disabled" },
{ "floor": 385, "eventType": "MoveCamera", "duration": 4, "position": [0, 0], "angleOffset": 0, "ease": "Linear", "dontDisable": "Disabled", "minVfxOnly": "Disabled", "eventTag": "", },
{ "floor": 390, "eventType": "SetSpeed", "speedType": "Multiplier", "beatsPerMinute": 100, "bpmMultiplier": 0.5 },
{ "floor": 391, "eventType": "SetSpeed", "speedType": "Multiplier", "beatsPerMinute": 100, "bpmMultiplier": 2 },
{ "floor": 410, "eventType": "Pause", "duration": 4, "countdownTicks": 0, "angleCorrectionDir": -1 },
{ "floor": 410, "eventType": "MoveTrack", "startTile": [0, "ThisTile"], "endTile": [0, "ThisTile"], "gapLength": 0, "duration": 4, "positionOffset": [0, 4], "angleOffset": 0, "ease": "Linear", "maxVfxOnly": "Disabled", "eventTag": "", },
{ "floor": 410, "eventType": "MoveCamera", "duration": 2, "position": [0, 4], "angleOffset": 0, "ease": "Linear", "dontDisable": "Disabled", "minVfxOnly": "Disabled", "eventTag": "", },
{ "floor": 411, "eventType": "PositionTrack", "positionOffset": [0, 4], "relativeTo": [0, "ThisTile"], "rotation": 0, "scale": 100, "opacity": 100, "justThisTile": "Disabled", "editorOnly": "Disabled" },
{ "floor": 411, "eventType": "MoveCamera", "duration": 4, "position": [0, 0], "angleOffset": 0, "ease": "Linear", "dontDisable": "Disabled", "minVfxOnly": "Disabled", "eventTag": "", },
{ "floor": 416, "eventType": "Pause", "duration": 2, "countdownTicks": 0, "angleCorrectionDir": -1 },
{ "floor": 416, "eventType": "MoveTrack", "startTile": [0, "ThisTile"], "endTile": [0, "ThisTile"], "gapLength": 0, "duration": 2, "positionOffset": [2, 0], "angleOffset": 0, "ease": "Linear", "maxVfxOnly": "Disabled", "eventTag": "", },
{ "floor": 417, "eventType": "PositionTrack", "positionOffset": [2, 0], "relativeTo": [0, "ThisTile"], "rotation": 0, "scale": 100, "opacity": 100, "justThisTile": "Disabled", "editorOnly": "Disabled" },
{ "floor": 430, "eventType": "Pause", "duration": 2, "countdownTicks": 0, "angleCorrectionDir": -1 },
{ "floor": 430, "eventType": "MoveTrack", "startTile": [0, "ThisTile"], "endTile": [0, "ThisTile"], "gapLength": 0, "duration": 2, "positionOffset": [0, 2], "angleOffset": 0, "ease": "Linear", "maxVfxOnly": "Disabled", "eventTag": "", },
{ "floor": 431, "eventType": "PositionTrack", "positionOffset": [0, 2], "relativeTo": [0, "ThisTile"], "rotation": 0, "scale": 100, "opacity": 100, "justThisTile": "Disabled", "editorOnly": "Disabled" },
{ "floor": 529, "eventType": "SetSpeed", "speedType": "Multiplier", "beatsPerMinute": 100, "bpmMultiplier": 0.25 },
{ "floor": 535, "eventType": "SetSpeed", "speedType": "Multiplier", "beatsPerMinute": 100, "bpmMultiplier": 4 },
{ "floor": 535, "eventType": "Pause", "duration": 4, "countdownTicks": 0, "angleCorrectionDir": -1 },
{ "floor": 535, "eventType": "MoveTrack", "startTile": [0, "ThisTile"], "endTile": [0, "ThisTile"], "gapLength": 0, "duration": 4, "positionOffset": [0, 2], "angleOffset": 0, "ease": "Linear", "maxVfxOnly": "Disabled", "eventTag": "", },
{ "floor": 536, "eventType": "PositionTrack", "positionOffset": [0, 2], "relativeTo": [0, "ThisTile"], "rotation": 0, "scale": 100, "opacity": 100, "justThisTile": "Disabled", "editorOnly": "Disabled" },
{ "floor": 558, "eventType": "Pause", "duration": 2, "countdownTicks": 0, "angleCorrectionDir": -1 },
{ "floor": 558, "eventType": "MoveTrack", "startTile": [0, "ThisTile"], "endTile": [0, "ThisTile"], "gapLength": 0, "duration": 2, "positionOffset": [0, 2], "angleOffset": 0, "ease": "Linear", "maxVfxOnly": "Disabled", "eventTag": "", },
{ "floor": 559, "eventType": "PositionTrack", "positionOffset": [0, 2], "relativeTo": [0, "ThisTile"], "rotation": 0, "scale": 100, "opacity": 100, "justThisTile": "Disabled", "editorOnly": "Disabled" },
{ "floor": 600, "eventType": "Pause", "duration": 2, "countdownTicks": 0, "angleCorrectionDir": -1 },
{ "floor": 600, "eventType": "MoveTrack", "startTile": [0, "ThisTile"], "endTile": [0, "ThisTile"], "gapLength": 0, "duration": 2, "positionOffset": [0, 2], "angleOffset": 0, "ease": "Linear", "maxVfxOnly": "Disabled", "eventTag": "", },
{ "floor": 601, "eventType": "PositionTrack", "positionOffset": [0, 2], "relativeTo": [0, "ThisTile"], "rotation": 0, "scale": 100, "opacity": 100, "justThisTile": "Disabled", "editorOnly": "Disabled" },
{ "floor": 605, "eventType": "Pause", "duration": 2, "countdownTicks": 0, "angleCorrectionDir": -1 },
{ "floor": 605, "eventType": "MoveTrack", "startTile": [0, "ThisTile"], "endTile": [0, "ThisTile"], "gapLength": 0, "duration": 2, "positionOffset": [0, -2], "angleOffset": 0, "ease": "Linear", "maxVfxOnly": "Disabled", "eventTag": "", },
{ "floor": 606, "eventType": "PositionTrack", "positionOffset": [0, -2], "relativeTo": [0, "ThisTile"], "rotation": 0, "scale": 100, "opacity": 100, "justThisTile": "Disabled", "editorOnly": "Disabled" },
{ "floor": 609, "eventType": "SetSpeed", "speedType": "Multiplier", "beatsPerMinute": 100, "bpmMultiplier": 0.5 },
{ "floor": 613, "eventType": "SetSpeed", "speedType": "Multiplier", "beatsPerMinute": 100, "bpmMultiplier": 2 },
{ "floor": 613, "eventType": "Pause", "duration": 4, "countdownTicks": 0, "angleCorrectionDir": -1 },
{ "floor": 613, "eventType": "MoveTrack", "startTile": [0, "ThisTile"], "endTile": [0, "ThisTile"], "gapLength": 0, "duration": 4, "positionOffset": [0, 2], "angleOffset": 180, "ease": "Linear", "maxVfxOnly": "Disabled", "eventTag": "", },
{ "floor": 614, "eventType": "PositionTrack", "positionOffset": [0, 2], "relativeTo": [0, "ThisTile"], "rotation": 0, "scale": 100, "opacity": 100, "justThisTile": "Disabled", "editorOnly": "Disabled" },
{ "floor": 713, "eventType": "SetSpeed", "speedType": "Multiplier", "beatsPerMinute": 100, "bpmMultiplier": 0.25 }
],
"decorations":
[
]
}