adofai-sunny-day/level.adofai

152 lines
12 KiB
Plaintext
Raw Normal View History

2022-08-20 15:14:59 +00:00
{
"angleData": [0, 90, 999, 0, 90, 45, 135, 999, 45, 135, 90, 180, 999, 90, 180, 135, 225, 999, 135, 225, 90, 180, 270, 270, 180, 90, 0, 270, 180, 270, 270, 180, 180, 180, 180, 180, 180, 315, 225, 999, 315, 315, 315, 225, 225, 315, 315, 225, 225, 135, 225, 225, 315, 225, 225, 270, 0, 270, 270, 180, 135, 180, 225, 315, 0, 315, 0, 315, 45, 270, 0, 270, 180, 270, 0, 0, 0, 0, 0, 0, 0, 90, 90, 45, 45, 45, 45, 45, 135, 135, 45, 45, 45, 45, 315, 315, 0, 0, 0, 0, 0, 0, 270, 180, 270, 270, 270, 0, 0, 270, 270, 0, 0, 0, 0, 0, 0, 225, 315, 45, 45, 135, 45, 315, 315, 45, 45, 315, 315, 225, 999, 315, 315, 225, 999, 315, 315, 0, 315, 0, 315, 0, 0, 270, 270, 180, 999, 270, 180, 180, 270, 225, 270, 225, 270, 315, 45, 999, 315, 225, 135, 135, 135, 135, 135, 135, 135, 225, 225, 180, 180, 180, 180, 180, 270, 270, 180, 180, 180, 180, 270, 270, 225, 315, 45, 315, 225, 225, 225, 225, 225, 180, 135, 45, 45, 45, 90, 135, 225, 225, 225, 180, 135, 45, 45, 45, 90, 135, 225, 225, 225, 180, 135, 45, 45, 45, 90, 135, 225, 225, 225, 180, 135, 45, 45, 45, 45, 135, 225, 225, 135, 999, 225, 225, 135, 999, 225, 135, 45, 999, 135, 225, 135, 999, 225, 225, 135, 999, 225, 225, 135, 999, 225, 225, 135, 135, 45, 999, 135, 999, 225, 225, 135, 999, 225, 225, 135, 999, 225, 135, 45, 999, 135, 135, 45, 999, 135, 45, 999, 225, 135, 999, 225, 225, 135, 999, 225, 225, 135, 225, 135, 999, 225, 225, 135, 999, 225, 225, 135, 999, 225, 135, 45, 999, 135, 135, 45, 999, 135, 45, 999, 225, 135, 999, 225, 225, 135, 999, 225, 225, 135, 135, 45, 999, 135, 999, 225, 225, 135, 999, 225, 225, 135, 999, 225, 135, 45, 999, 135, 135, 45, 999, 135, 999, 225, 225, 135, 999, 225, 225, 135, 999, 225, 225, 135, 135, 135, 45, 45, 135, 135, 225, 225, 315, 999, 225, 315, 270, 270, 270, 0, 999, 270, 270, 270, 0, 0, 270, 270, 270, 180, 180, 90, 999, 180, 90, 999, 180, 90, 999, 180, 180, 90, 90, 90, 90, 90, 90, 0, 999, 90, 0, 90, 0, 999, 90, 90, 90, 90, 90],
"settings":
{
"version": 10 ,
"artist": "Vib-Ribbon",
"specialArtistType": "None",
"artistPermission": "",
"song": "SUNNY DAY",
"author": "tls",
"separateCountdownTime": "Enabled",
"previewImage": "",
"previewIcon": "",
"previewIconColor": "003f52",
"previewSongStart": 0,
"previewSongDuration": 10,
"seizureWarning": "Disabled",
"levelDesc": "",
"levelTags": "",
"artistLinks": "",
"difficulty": 1,
"songFilename": "sunny_day_clip.ogg",
"bpm": 138,
"volume": 100,
"offset": 30,
"pitch": 100,
"hitsound": "Kick",
"hitsoundVolume": 100,
"countdownTicks": 4,
"trackColorType": "Single",
"trackColor": "ffffffff",
"secondaryTrackColor": "ffffff",
"trackColorAnimDuration": 2,
"trackColorPulse": "None",
"trackPulseLength": 10,
"trackStyle": "Neon",
"trackAnimation": "None",
"beatsAhead": 3,
"trackDisappearAnimation": "None",
"beatsBehind": 4,
"backgroundColor": "000000",
"showDefaultBGIfNoImage": "Disabled",
"bgImage": "",
"bgImageColor": "ffffff",
"parallax": [100, 100],
"bgDisplayMode": "FitToScreen",
"lockRot": "Disabled",
"loopBG": "Disabled",
"unscaledSize": 100,
"relativeTo": "Player",
"position": [0, 0],
"rotation": 0,
"zoom": 100,
"bgVideo": "",
"loopVideo": "Disabled",
"vidOffset": 0,
"floorIconOutlines": "Disabled",
"stickToFloors": "Enabled",
"planetEase": "Linear",
"planetEaseParts": 1,
"planetEasePartBehavior": "Mirror",
"customClass": "",
"legacyFlash": false ,
"legacySpriteTiles": false
},
"actions":
[
{ "floor": 1, "eventType": "SetFilter", "active": false, "filter": "Drawing", "enabled": "Enabled", "intensity": 100, "duration": 0, "ease": "Linear", "disableOthers": "Disabled", "angleOffset": 0, "eventTag": "" },
{ "floor": 1, "eventType": "SetFilter", "active": false, "filter": "Invert", "enabled": "Enabled", "intensity": 100, "duration": 0, "ease": "Linear", "disableOthers": "Disabled", "angleOffset": 0, "eventTag": "" },
{ "floor": 5, "eventType": "SetSpeed", "speedType": "Multiplier", "beatsPerMinute": 100, "bpmMultiplier": 0.5 },
{ "floor": 6, "eventType": "SetSpeed", "speedType": "Multiplier", "beatsPerMinute": 100, "bpmMultiplier": 2 },
{ "floor": 10, "eventType": "SetSpeed", "speedType": "Multiplier", "beatsPerMinute": 100, "bpmMultiplier": 0.5 },
{ "floor": 11, "eventType": "SetSpeed", "speedType": "Multiplier", "beatsPerMinute": 100, "bpmMultiplier": 2 },
{ "floor": 15, "eventType": "SetSpeed", "speedType": "Multiplier", "beatsPerMinute": 100, "bpmMultiplier": 0.5 },
{ "floor": 16, "eventType": "SetSpeed", "speedType": "Multiplier", "beatsPerMinute": 100, "bpmMultiplier": 2 },
{ "floor": 20, "eventType": "SetSpeed", "speedType": "Multiplier", "beatsPerMinute": 100, "bpmMultiplier": 0.5 },
{ "floor": 21, "eventType": "SetSpeed", "speedType": "Multiplier", "beatsPerMinute": 100, "bpmMultiplier": 2 },
{ "floor": 23, "eventType": "Twirl" },
{ "floor": 37, "eventType": "SetSpeed", "speedType": "Multiplier", "beatsPerMinute": 100, "bpmMultiplier": 0.5 },
{ "floor": 38, "eventType": "SetSpeed", "speedType": "Multiplier", "beatsPerMinute": 100, "bpmMultiplier": 2 },
{ "floor": 50, "eventType": "Twirl" },
{ "floor": 53, "eventType": "Twirl" },
{ "floor": 55, "eventType": "SetSpeed", "speedType": "Multiplier", "beatsPerMinute": 100, "bpmMultiplier": 0.5 },
{ "floor": 56, "eventType": "SetSpeed", "speedType": "Multiplier", "beatsPerMinute": 100, "bpmMultiplier": 2 },
{ "floor": 57, "eventType": "Twirl" },
{ "floor": 60, "eventType": "SetSpeed", "speedType": "Multiplier", "beatsPerMinute": 100, "bpmMultiplier": 0.5 },
{ "floor": 69, "eventType": "Twirl" },
{ "floor": 70, "eventType": "SetSpeed", "speedType": "Multiplier", "beatsPerMinute": 100, "bpmMultiplier": 2 },
{ "floor": 76, "eventType": "SetSpeed", "speedType": "Multiplier", "beatsPerMinute": 100, "bpmMultiplier": 0.5 },
{ "floor": 77, "eventType": "Twirl" },
{ "floor": 78, "eventType": "SetSpeed", "speedType": "Multiplier", "beatsPerMinute": 100, "bpmMultiplier": 2 },
{ "floor": 80, "eventType": "SetSpeed", "speedType": "Multiplier", "beatsPerMinute": 100, "bpmMultiplier": 0.5 },
{ "floor": 81, "eventType": "SetSpeed", "speedType": "Multiplier", "beatsPerMinute": 100, "bpmMultiplier": 2 },
{ "floor": 83, "eventType": "SetSpeed", "speedType": "Multiplier", "beatsPerMinute": 100, "bpmMultiplier": 0.5 },
{ "floor": 84, "eventType": "SetSpeed", "speedType": "Multiplier", "beatsPerMinute": 100, "bpmMultiplier": 2 },
{ "floor": 86, "eventType": "SetSpeed", "speedType": "Multiplier", "beatsPerMinute": 100, "bpmMultiplier": 0.5 },
{ "floor": 87, "eventType": "SetSpeed", "speedType": "Multiplier", "beatsPerMinute": 100, "bpmMultiplier": 2 },
{ "floor": 91, "eventType": "Twirl" },
{ "floor": 93, "eventType": "SetSpeed", "speedType": "Multiplier", "beatsPerMinute": 100, "bpmMultiplier": 0.5 },
{ "floor": 94, "eventType": "SetSpeed", "speedType": "Multiplier", "beatsPerMinute": 100, "bpmMultiplier": 2 },
{ "floor": 96, "eventType": "SetSpeed", "speedType": "Multiplier", "beatsPerMinute": 100, "bpmMultiplier": 0.5 },
{ "floor": 97, "eventType": "SetSpeed", "speedType": "Multiplier", "beatsPerMinute": 100, "bpmMultiplier": 2 },
{ "floor": 99, "eventType": "SetSpeed", "speedType": "Multiplier", "beatsPerMinute": 100, "bpmMultiplier": 0.5 },
{ "floor": 102, "eventType": "Pause", "duration": 8, "countdownTicks": 1, "angleCorrectionDir": -1 },
{ "floor": 102, "eventType": "ColorTrack", "trackColorType": "Single", "trackColor": "ffffffff", "secondaryTrackColor": "ffffff", "trackColorAnimDuration": 2, "trackColorPulse": "None", "trackPulseLength": 10, "trackStyle": "Neon", "trackTexture": "", "trackTextureScale": 1 },
{ "floor": 103, "eventType": "AnimateTrack", "trackAnimation": "Assemble", "beatsAhead": 1, "trackDisappearAnimation": "None", "beatsBehind": 4 },
{ "floor": 103, "eventType": "ColorTrack", "trackColorType": "Single", "trackColor": "ffffffff", "secondaryTrackColor": "ffffff", "trackColorAnimDuration": 2, "trackColorPulse": "None", "trackPulseLength": 10, "trackStyle": "Neon", "trackTexture": "", "trackTextureScale": 1 },
{ "floor": 103, "eventType": "SetSpeed", "speedType": "Multiplier", "beatsPerMinute": 100, "bpmMultiplier": 2 },
{ "floor": 104, "eventType": "AnimateTrack", "trackAnimation": "None", "beatsAhead": 3, "trackDisappearAnimation": "None", "beatsBehind": 4 },
{ "floor": 104, "eventType": "Twirl" },
{ "floor": 117, "eventType": "SetSpeed", "speedType": "Multiplier", "beatsPerMinute": 100, "bpmMultiplier": 0.5 },
{ "floor": 118, "eventType": "SetSpeed", "speedType": "Multiplier", "beatsPerMinute": 100, "bpmMultiplier": 2 },
{ "floor": 122, "eventType": "Twirl" },
{ "floor": 137, "eventType": "SetSpeed", "speedType": "Multiplier", "beatsPerMinute": 100, "bpmMultiplier": 0.5 },
{ "floor": 142, "eventType": "SetSpeed", "speedType": "Multiplier", "beatsPerMinute": 100, "bpmMultiplier": 2 },
{ "floor": 150, "eventType": "Twirl" },
{ "floor": 151, "eventType": "SetSpeed", "speedType": "Multiplier", "beatsPerMinute": 100, "bpmMultiplier": 0.5 },
{ "floor": 156, "eventType": "SetSpeed", "speedType": "Multiplier", "beatsPerMinute": 100, "bpmMultiplier": 2 },
{ "floor": 162, "eventType": "SetSpeed", "speedType": "Multiplier", "beatsPerMinute": 100, "bpmMultiplier": 0.5 },
{ "floor": 164, "eventType": "SetSpeed", "speedType": "Multiplier", "beatsPerMinute": 100, "bpmMultiplier": 2 },
{ "floor": 166, "eventType": "SetSpeed", "speedType": "Multiplier", "beatsPerMinute": 100, "bpmMultiplier": 0.5 },
{ "floor": 167, "eventType": "SetSpeed", "speedType": "Multiplier", "beatsPerMinute": 100, "bpmMultiplier": 2 },
{ "floor": 169, "eventType": "SetSpeed", "speedType": "Multiplier", "beatsPerMinute": 100, "bpmMultiplier": 0.5 },
{ "floor": 170, "eventType": "SetSpeed", "speedType": "Multiplier", "beatsPerMinute": 100, "bpmMultiplier": 2 },
{ "floor": 172, "eventType": "SetSpeed", "speedType": "Multiplier", "beatsPerMinute": 100, "bpmMultiplier": 0.5 },
{ "floor": 173, "eventType": "SetSpeed", "speedType": "Multiplier", "beatsPerMinute": 100, "bpmMultiplier": 2 },
{ "floor": 179, "eventType": "SetSpeed", "speedType": "Multiplier", "beatsPerMinute": 100, "bpmMultiplier": 0.5 },
{ "floor": 180, "eventType": "SetSpeed", "speedType": "Multiplier", "beatsPerMinute": 100, "bpmMultiplier": 2 },
{ "floor": 182, "eventType": "SetSpeed", "speedType": "Multiplier", "beatsPerMinute": 100, "bpmMultiplier": 0.5 },
{ "floor": 185, "eventType": "Twirl" },
{ "floor": 187, "eventType": "MoveCamera", "duration": 2, "position": [0, 0], "rotation": 45, "angleOffset": 0, "ease": "Linear", "dontDisable": "Disabled", "minVfxOnly": "Disabled", "eventTag": "", },
{ "floor": 189, "eventType": "SetSpeed", "speedType": "Multiplier", "beatsPerMinute": 100, "bpmMultiplier": 2 },
{ "floor": 194, "eventType": "Twirl" },
{ "floor": 199, "eventType": "Twirl" },
{ "floor": 204, "eventType": "Twirl" },
{ "floor": 209, "eventType": "Twirl" },
{ "floor": 214, "eventType": "Twirl" },
{ "floor": 219, "eventType": "Twirl" },
{ "floor": 224, "eventType": "Twirl" },
{ "floor": 229, "eventType": "Twirl" },
{ "floor": 358, "eventType": "Twirl" },
{ "floor": 367, "eventType": "SetSpeed", "speedType": "Multiplier", "beatsPerMinute": 100, "bpmMultiplier": 0.5 },
{ "floor": 367, "eventType": "MoveCamera", "duration": 1.25, "position": [0, 0], "rotation": 0, "angleOffset": 0, "ease": "Linear", "dontDisable": "Disabled", "minVfxOnly": "Disabled", "eventTag": "", },
{ "floor": 368, "eventType": "SetSpeed", "speedType": "Multiplier", "beatsPerMinute": 100, "bpmMultiplier": 2 },
{ "floor": 376, "eventType": "Twirl" },
{ "floor": 406, "eventType": "SetSpeed", "speedType": "Multiplier", "beatsPerMinute": 100, "bpmMultiplier": 0.25 }
]
"decorations":
[
]
}