adofai-slow-motion-hard/motion_hard.adofai

542 lines
55 KiB
Plaintext

{
"angleData": [0, 0, 90, 0, 270, 270, 270, 270, 0, 0, 0, 0, 90, 0, 270, 270, 270, 270, 0, 0, 0, 0, 90, 0, 270, 270, 270, 270, 0, 90, 0, 0, -180, 270, 270, 0, 90, 999, 0, 0, 90, 999, 0, 0, 0, 0, 0, 0, 0, 90, 180, 270, 0, 0, 0, 0, 0, 0, 0, 90, 180, 270, 0, 0, 0, 90, 180, 270, 0, 0, 0, 90, 180, 270, 0, 0, 0, 0, 0, 0, 90, 90, 0, 270, 270, 270, 270, 0, 90, 90, 90, 0, 270, 0, 90, 0, 270, 270, 0, 90, 0, 270, 0, 90, 90, 0, 270, 0, 90, 0, 270, 270, 0, 90, 0, 270, 270, 270, 0, 90, 0, 270, 0, 90, 90, 0, 270, 0, 90, 0, 270, 270, 0, 90, 0, 270, 270, 270, 0, 90, 0, 270, 0, 90, 90, 0, 270, 0, 90, 0, 270, 270, 0, 90, 0, 270, 0, 90, 90, 0, 270, 0, 90, 0, 270, 270, 0, 90, 0, 270, 270, 270, 0, 90, 0, 270, 0, 0, 90, 0, 270, 0, 90, 0, 270, 0, 90, 999, 0, 0, 0, 0, 90, 0, 270, 0, 90, 0, 270, 0, 90, 999, 0, 0, 0, 0, 90, 0, 270, 0, 90, 0, 270, 0, 90, 999, 0, 0, 0, 0, 90, 0, 270, 0, 90, 0, 270, 0, 90, 999, 0, 0, 90, 0, 270, 0, 90, 999, 0, 0, 90, 90, 0, 270, 0, 0, 90, 0, 0, 270, 0, 0, 90, 0, 270, 0, 90, 0, 270, 0, 90, 90, 0, 270, 0, 90, 0, 270, 0, 0, 0, 0, 90, 0, 270, 0, 90, 0, 270, 270, 270, 0, 90, 999, 0, 0, 90, 0, 270, 0, 90, 0, 270, 0, 90, 999, 0, 0, 270, 0, 0, -180, 180, 270, 270, 0, 270, 180, 270, 0, 270, 180, 270, 0, 0, 90, 90, 0, 270, 0, 90, 0, 270, 270, 270, 0, 90, 0, 270, 0, 90, 0, 270, 0, 90, 0, 270, 270, 0, 90, 0, 270, 0, 90, 999, 0, 270, 0, 90, 0, 270, 0, -180, 180, 270, 270, 0, 270, 180, 270, 0, 270, 180, 270, 0, 0, 90, 90, 0, 270, 0, 90, 0, 270, 270, 0, 270, 0, 0, 90, 90, 180, 270, 0, 0, 0, 90, 0, 270, 0, 90, 0, 270, 0, 90, 90, 0, 270, 0, 90, 0, 270, 0, 0, 0, 0, 0, 0, 90, 180, 270, 0, 0, 0, 0, 0, 0, 0, 90, 180, 270, 0, 0, 0, 90, 180, 270, 0, 0, 0, 90, 180, 270, 0, 0, 0, 0, 0, 0, 90, 0, 270, 0, 90, 90, 90, 90, 0, 270, 270, 270, 0, 90, 0, 270, 0, 90, 90, 0, 270, 0, 90, 90, 90, 0, 270, 0, 90, 90, 90, 0, 270, 0, 90, 90, 90, 0, 270, 0, 90, 0, 270, 270, 0, 90, 0, 270, 270, 270, 0, 90, 0, 270, 270, 270, 0, 90, 0, 270, 0, 90, 90, 0, 270, 0, 90, 0, 270, 270, 0, 90, 0, 270, 0, 90, 90, 0, 270, 0, 90, 90, 90, 0, 270, 0, 90, 90, 90, 0, 270, 0, 90, 0, 270, 0, 90, 0, 270, 0, 90, 0, 270, 0, 90, 0, 90, 0, 0, 270, 0, 90, 0, 270, 0, 90, 0, 270, 0, 0, 90, 0, 0, 270, 0, 90, 0, 270, 0, 90, 0, 270, 0, 0, 0, 0, 90, 0, 270, 0, 90, 0, 270, 0, 90, 999, 0, 0, 90, 0, 270, 0, 90, 0, 0, 270, 270, 0, 90, 999, 0, 0, 90, 0, 0, 270, 0, 0, 90, 0, 270, 0, 90, 0, 270, 0, 90, 90, 0, 270, 0, 90, 0, 270, 0, 90, 0, 270, 0, 0, 90, 0, 270, 0, 90, 0, 270, 0, 90, 90, 0, 270, 0, 0, 90, 0, 270, 0, 90, 0, 270, 0, 90, 999, 0, 0, 0, 0, 0, 0, 0, 90, 0, 270, 0, -180, 180, 270, 270, 0, 270, 180, 270, 0, 270, 180, 270, 0, 0, 90, 90, 0, 270, 0, 90, 0, 270, 270, 0, 90, 0, 270, 0, 90, 0, 270, 0, 90, 0, 270, 0, 0, 90, 0, 270, 0, 90, 0, 270, 0, 270, 0, 90, 0, 270, 0, -180, 180, 270, 270, 0, 270, 180, 270, 0, 270, 180, 270, 0, 0, 90, 90, 0, 270, 0, 90, 0, 270, 270, 0, 90, 0, 270, 0, 90, 0, 270, 0, 90, 999, 0, 0, 0, 90, 0, 270, 0, 90, 0, 270, 0, 90, 90, 0, 270, 0, 90, 999, 0, 90, -90, 270, 0, 270, 270, 0, 0, 90, -90, 270, 0, 0, 90, 0, 90, 0, 270, 270, 0, 90, 90, 0, 270, 0, 90, 0, 270, 270, 0, 90, 90, 0, 270, 270, 0, 90, 0, 270, 0, 0, 90, 90, 0, 270, 0, 90, 0, 270, 0, 90, 0, 270, 0, 0, 90, 90, 0, 270, 0, 45, 90, 180, 270, 0, 90, 999, 0, 0, 0, 0, 0, 0, 0, 0, 0, 90, 999, 0, 90, 999, 0, 90, 999, 0, 90, 999, 0, 0, 0, 0, 0, 0, 0, 270, 270, 0, 90, 0, 270, 0, 0, 0, 270, 0, 0, 270, 0, 270, 270, 0, 90, 0, 270, 270, 0, 0, 0, 270, 0, 0, 270, 0, 270, 270, 0, 90, 0, 270, 270, 0, 0, 0, 270, 0, 0, 270, 0, 270, 0, 0, 90, 0, 0, 0, 0, 0, 0, 0, 0, 0, 0, 0, 0, 0, 0, 0, 0, 90, 0, 0, 90, 90, 0, 270, 0, 90, 0, 270, 0, 270, 0, 0, 90, 90, 0, 270, 0, 90, 0, 270, 270, 0, 90, 0, 270, 0, 90, 0, 270, 0, 90, 0, 270, 0, 0, 90, 0, 270, 0, 90, 0, 270, 0, 270, 0, 90, 0, 270, 0, -180, 180, 270, 270, 0, 270, 180, 270, 0, 270, 180, 270, 0, 0, 90, 90, 0, 270, 0, 90, 0, 270, 270, 0, 90, 0, 270, 0, 90, 0, 270, 0, 90, 0, 270, 0, 0, 90, 0, 270, 0, 90, 0, 270, 270, 0, 90, 0, 270, 0, 90, 999, 0, -180, 180, 270, 270, 0, 270, 180, 270, 0, 270, 180, 270, 0, 0, 90, 90, 0, 270, 0, 90, 0, 270, 270, 0, 90, 0, 0, 270, 270, 0, 90, 0, 270, 0, 0, 90, 0, 270, 0, 90, 0, 270, 0, 90, 0, 270, 0, 90, 0, 270, 0, 90, 0, 270, 0, 90, 0, 270, 0, 90, 90, 0, 270, 0, 90, 0, 270, 0, 0, 0, 0, 0, 0, 0, 0, 0, 0, 0, 0, 0, 0, 0, 90, 999, 0, 0, 0, 0, 0, 0, 0, 0, 0, 0, 0, 0, 0, 0, 0, 90, 180, 270, 0, 0, 0, 0, 0, 0, 0, 90, 180, 270, 0, 0, 0, 0, 0, 0, 0, 90, 180, 270, 0, 0, 0, 90, 180, 270, 0, 0, 0, 90, 180, 270, 0, 0, 0, 0, 90, 90, 0, 270, 0, 0, 90, 999, 0, 0, 45],
"settings":
{
"version": 11 ,
"artist": " ",
"specialArtistType": "None",
"artistPermission": "",
"song": "",
"author": "tls",
"separateCountdownTime": "Enabled",
"previewImage": "",
"previewIcon": "",
"previewIconColor": "003f52",
"previewSongStart": 0,
"previewSongDuration": 10,
"seizureWarning": "Disabled",
"levelDesc": "",
"levelTags": "",
"artistLinks": "",
"difficulty": 1,
"songFilename": "mo.ogg",
"bpm": 160,
"volume": 80,
"offset": 48,
"pitch": 100,
"hitsound": "Kick",
"hitsoundVolume": 100,
"countdownTicks": 4,
"trackColorType": "Single",
"trackColor": "ffffffff",
"secondaryTrackColor": "ffffff",
"trackColorAnimDuration": 2,
"trackColorPulse": "None",
"trackPulseLength": 10,
"trackStyle": "Basic",
"trackAnimation": "None",
"beatsAhead": 3,
"trackDisappearAnimation": "None",
"beatsBehind": 4,
"backgroundColor": "000000",
"showDefaultBGIfNoImage": "Enabled",
"bgImage": "",
"bgImageColor": "ffffff",
"parallax": [100, 100],
"bgDisplayMode": "FitToScreen",
"lockRot": "Disabled",
"loopBG": "Disabled",
"unscaledSize": 100,
"relativeTo": "Player",
"position": [0, 0],
"rotation": 0,
"zoom": 100,
"bgVideo": "",
"loopVideo": "Disabled",
"vidOffset": 1750,
"floorIconOutlines": "Disabled",
"stickToFloors": "Enabled",
"planetEase": "Linear",
"planetEaseParts": 1,
"planetEasePartBehavior": "Mirror",
"customClass": "",
"legacyFlash": false ,
"legacyCamRelativeTo": true ,
"legacySpriteTiles": false
},
"actions":
[
{ "floor": 1, "eventType": "RecolorTrack", "startTile": [0, "Start"], "endTile": [0, "End"], "trackColorType": "Stripes", "trackColor": "ffffff", "secondaryTrackColor": "f2aace", "trackColorAnimDuration": 2, "trackColorPulse": "None", "trackPulseLength": 10, "trackStyle": "Basic", "angleOffset": 135, "eventTag": "" },
{ "floor": 1, "eventType": "RecolorTrack", "startTile": [0, "Start"], "endTile": [0, "End"], "trackColorType": "Stripes", "trackColor": "f2aace", "secondaryTrackColor": "ffffff", "trackColorAnimDuration": 2, "trackColorPulse": "None", "trackPulseLength": 10, "trackStyle": "Basic", "angleOffset": 0, "eventTag": "" },
{ "floor": 3, "eventType": "Twirl" },
{ "floor": 3, "eventType": "RecolorTrack", "startTile": [0, "Start"], "endTile": [0, "End"], "trackColorType": "Stripes", "trackColor": "f2aace", "secondaryTrackColor": "ffffff", "trackColorAnimDuration": 2, "trackColorPulse": "None", "trackPulseLength": 10, "trackStyle": "Basic", "angleOffset": 45, "eventTag": "" },
{ "floor": 7, "eventType": "RecolorTrack", "startTile": [0, "Start"], "endTile": [0, "End"], "trackColorType": "Stripes", "trackColor": "ffffff", "secondaryTrackColor": "f9cf7d", "trackColorAnimDuration": 2, "trackColorPulse": "None", "trackPulseLength": 10, "trackStyle": "Basic", "angleOffset": 45, "eventTag": "" },
{ "floor": 8, "eventType": "Twirl" },
{ "floor": 8, "eventType": "RecolorTrack", "startTile": [0, "Start"], "endTile": [0, "End"], "trackColorType": "Stripes", "trackColor": "f2aace", "secondaryTrackColor": "ffffff", "trackColorAnimDuration": 2, "trackColorPulse": "None", "trackPulseLength": 10, "trackStyle": "Basic", "angleOffset": 45, "eventTag": "" },
{ "floor": 10, "eventType": "RecolorTrack", "startTile": [0, "Start"], "endTile": [0, "End"], "trackColorType": "Stripes", "trackColor": "ffffff", "secondaryTrackColor": "d6ffe1", "trackColorAnimDuration": 2, "trackColorPulse": "None", "trackPulseLength": 10, "trackStyle": "Basic", "angleOffset": 0, "eventTag": "" },
{ "floor": 13, "eventType": "Twirl" },
{ "floor": 18, "eventType": "Twirl" },
{ "floor": 20, "eventType": "RecolorTrack", "startTile": [0, "Start"], "endTile": [0, "End"], "trackColorType": "Stripes", "trackColor": "f2aace", "secondaryTrackColor": "ffffff", "trackColorAnimDuration": 2, "trackColorPulse": "None", "trackPulseLength": 10, "trackStyle": "Basic", "angleOffset": 0, "eventTag": "" },
{ "floor": 21, "eventType": "RecolorTrack", "startTile": [0, "Start"], "endTile": [0, "End"], "trackColorType": "Stripes", "trackColor": "ffffff", "secondaryTrackColor": "f2aace", "trackColorAnimDuration": 2, "trackColorPulse": "None", "trackPulseLength": 10, "trackStyle": "Basic", "angleOffset": 0, "eventTag": "" },
{ "floor": 23, "eventType": "Twirl" },
{ "floor": 28, "eventType": "Twirl" },
{ "floor": 29, "eventType": "RecolorTrack", "startTile": [0, "Start"], "endTile": [0, "End"], "trackColorType": "Single", "trackColor": "ffffff", "secondaryTrackColor": "ffffff", "trackColorAnimDuration": 2, "trackColorPulse": "None", "trackPulseLength": 10, "trackStyle": "Basic", "angleOffset": 45, "eventTag": "" },
{ "floor": 30, "eventType": "Twirl" },
{ "floor": 32, "eventType": "MoveTrack", "startTile": [0, "ThisTile"], "endTile": [0, "ThisTile"], "gapLength": 0, "duration": 1, "positionOffset": [0, -2], "angleOffset": 0, "ease": "Linear", "maxVfxOnly": "Disabled", "eventTag": "", },
{ "floor": 33, "eventType": "PositionTrack", "positionOffset": [0, -2], "relativeTo": [0, "ThisTile"], "rotation": 0, "scale": 100, "opacity": 100, "justThisTile": "Disabled", "editorOnly": "Disabled" },
{ "floor": 34, "eventType": "RecolorTrack", "startTile": [0, "Start"], "endTile": [0, "End"], "trackColorType": "Stripes", "trackColor": "f2aace", "secondaryTrackColor": "ffffff", "trackColorAnimDuration": 2, "trackColorPulse": "None", "trackPulseLength": 10, "trackStyle": "Basic", "angleOffset": 0, "eventTag": "" },
{ "floor": 35, "eventType": "Twirl" },
{ "floor": 43, "eventType": "RecolorTrack", "startTile": [0, "Start"], "endTile": [0, "End"], "trackColorType": "Single", "trackColor": "ffffff", "secondaryTrackColor": "ffffff", "trackColorAnimDuration": 2, "trackColorPulse": "None", "trackPulseLength": 10, "trackStyle": "Basic", "angleOffset": 0, "eventTag": "" },
{ "floor": 49, "eventType": "RecolorTrack", "startTile": [0, "Start"], "endTile": [0, "End"], "trackColorType": "Stripes", "trackColor": "ffffff", "secondaryTrackColor": "f9ff84", "trackColorAnimDuration": 2, "trackColorPulse": "None", "trackPulseLength": 10, "trackStyle": "Basic", "angleOffset": 0, "eventTag": "" },
{ "floor": 53, "eventType": "RecolorTrack", "startTile": [0, "Start"], "endTile": [0, "End"], "trackColorType": "Single", "trackColor": "ffffff", "secondaryTrackColor": "ffffff", "trackColorAnimDuration": 2, "trackColorPulse": "None", "trackPulseLength": 10, "trackStyle": "Basic", "angleOffset": 0, "eventTag": "" },
{ "floor": 61, "eventType": "RecolorTrack", "startTile": [0, "Start"], "endTile": [0, "End"], "trackColorType": "Stripes", "trackColor": "ffffff", "secondaryTrackColor": "ffc0ef", "trackColorAnimDuration": 2, "trackColorPulse": "None", "trackPulseLength": 10, "trackStyle": "Basic", "angleOffset": 0, "eventTag": "" },
{ "floor": 63, "eventType": "RecolorTrack", "startTile": [0, "Start"], "endTile": [0, "End"], "trackColorType": "Single", "trackColor": "ffffff", "secondaryTrackColor": "ffffff", "trackColorAnimDuration": 2, "trackColorPulse": "None", "trackPulseLength": 10, "trackStyle": "Basic", "angleOffset": 0, "eventTag": "" },
{ "floor": 67, "eventType": "RecolorTrack", "startTile": [0, "Start"], "endTile": [0, "End"], "trackColorType": "Stripes", "trackColor": "ffffff", "secondaryTrackColor": "aff8ff", "trackColorAnimDuration": 2, "trackColorPulse": "None", "trackPulseLength": 10, "trackStyle": "Basic", "angleOffset": 0, "eventTag": "" },
{ "floor": 69, "eventType": "RecolorTrack", "startTile": [0, "Start"], "endTile": [0, "End"], "trackColorType": "Single", "trackColor": "ffffff", "secondaryTrackColor": "ffffff", "trackColorAnimDuration": 2, "trackColorPulse": "None", "trackPulseLength": 10, "trackStyle": "Basic", "angleOffset": 0, "eventTag": "" },
{ "floor": 73, "eventType": "RecolorTrack", "startTile": [0, "Start"], "endTile": [0, "End"], "trackColorType": "Stripes", "trackColor": "ffffff", "secondaryTrackColor": "ffcb9a", "trackColorAnimDuration": 2, "trackColorPulse": "None", "trackPulseLength": 10, "trackStyle": "Basic", "angleOffset": 0, "eventTag": "" },
{ "floor": 75, "eventType": "RecolorTrack", "startTile": [0, "Start"], "endTile": [0, "End"], "trackColorType": "Single", "trackColor": "ffffff", "secondaryTrackColor": "ffffff", "trackColorAnimDuration": 2, "trackColorPulse": "None", "trackPulseLength": 10, "trackStyle": "Basic", "angleOffset": 0, "eventTag": "" },
{ "floor": 82, "eventType": "Twirl" },
{ "floor": 87, "eventType": "Twirl" },
{ "floor": 91, "eventType": "Twirl" },
{ "floor": 93, "eventType": "Twirl" },
{ "floor": 95, "eventType": "Twirl" },
{ "floor": 98, "eventType": "Twirl" },
{ "floor": 100, "eventType": "Twirl" },
{ "floor": 102, "eventType": "Twirl" },
{ "floor": 105, "eventType": "Twirl" },
{ "floor": 107, "eventType": "Twirl" },
{ "floor": 109, "eventType": "Twirl" },
{ "floor": 112, "eventType": "Twirl" },
{ "floor": 114, "eventType": "Twirl" },
{ "floor": 118, "eventType": "Twirl" },
{ "floor": 120, "eventType": "Twirl" },
{ "floor": 122, "eventType": "Twirl" },
{ "floor": 125, "eventType": "Twirl" },
{ "floor": 127, "eventType": "Twirl" },
{ "floor": 129, "eventType": "Twirl" },
{ "floor": 132, "eventType": "Twirl" },
{ "floor": 134, "eventType": "Twirl" },
{ "floor": 138, "eventType": "Twirl" },
{ "floor": 140, "eventType": "Twirl" },
{ "floor": 142, "eventType": "Twirl" },
{ "floor": 144, "eventType": "Twirl" },
{ "floor": 147, "eventType": "Twirl" },
{ "floor": 149, "eventType": "Twirl" },
{ "floor": 152, "eventType": "Twirl" },
{ "floor": 154, "eventType": "Twirl" },
{ "floor": 156, "eventType": "Twirl" },
{ "floor": 159, "eventType": "Twirl" },
{ "floor": 161, "eventType": "Twirl" },
{ "floor": 163, "eventType": "Twirl" },
{ "floor": 166, "eventType": "Twirl" },
{ "floor": 168, "eventType": "Twirl" },
{ "floor": 172, "eventType": "Twirl" },
{ "floor": 174, "eventType": "Twirl" },
{ "floor": 176, "eventType": "Twirl" },
{ "floor": 179, "eventType": "Twirl" },
{ "floor": 181, "eventType": "Twirl" },
{ "floor": 183, "eventType": "Twirl" },
{ "floor": 185, "eventType": "Twirl" },
{ "floor": 191, "eventType": "RecolorTrack", "startTile": [0, "Start"], "endTile": [0, "End"], "trackColorType": "Stripes", "trackColor": "ffffff", "secondaryTrackColor": "f9ff84", "trackColorAnimDuration": 2, "trackColorPulse": "None", "trackPulseLength": 10, "trackStyle": "Basic", "angleOffset": 0, "eventTag": "" },
{ "floor": 193, "eventType": "Twirl" },
{ "floor": 195, "eventType": "Twirl" },
{ "floor": 197, "eventType": "Twirl" },
{ "floor": 199, "eventType": "Twirl" },
{ "floor": 205, "eventType": "RecolorTrack", "startTile": [0, "Start"], "endTile": [0, "End"], "trackColorType": "Stripes", "trackColor": "ffffff", "secondaryTrackColor": "c9ffdb", "trackColorAnimDuration": 2, "trackColorPulse": "None", "trackPulseLength": 10, "trackStyle": "Basic", "angleOffset": 0, "eventTag": "" },
{ "floor": 207, "eventType": "Twirl" },
{ "floor": 209, "eventType": "Twirl" },
{ "floor": 211, "eventType": "Twirl" },
{ "floor": 213, "eventType": "Twirl" },
{ "floor": 219, "eventType": "RecolorTrack", "startTile": [0, "Start"], "endTile": [0, "End"], "trackColorType": "Stripes", "trackColor": "ffffff", "secondaryTrackColor": "e0c7ff", "trackColorAnimDuration": 2, "trackColorPulse": "None", "trackPulseLength": 10, "trackStyle": "Basic", "angleOffset": 0, "eventTag": "" },
{ "floor": 221, "eventType": "Twirl" },
{ "floor": 223, "eventType": "Twirl" },
{ "floor": 225, "eventType": "Twirl" },
{ "floor": 227, "eventType": "Twirl" },
{ "floor": 233, "eventType": "Twirl" },
{ "floor": 235, "eventType": "Twirl" },
{ "floor": 235, "eventType": "RecolorTrack", "startTile": [0, "Start"], "endTile": [0, "End"], "trackColorType": "Single", "trackColor": "ffffff", "secondaryTrackColor": "ffffff", "trackColorAnimDuration": 2, "trackColorPulse": "None", "trackPulseLength": 10, "trackStyle": "Basic", "angleOffset": 0, "eventTag": "" },
{ "floor": 241, "eventType": "Twirl" },
{ "floor": 241, "eventType": "RecolorTrack", "startTile": [0, "Start"], "endTile": [0, "End"], "trackColorType": "Stripes", "trackColor": "ffffff", "secondaryTrackColor": "f9ff84", "trackColorAnimDuration": 2, "trackColorPulse": "None", "trackPulseLength": 10, "trackStyle": "Basic", "angleOffset": 45, "eventTag": "" },
{ "floor": 243, "eventType": "RecolorTrack", "startTile": [0, "Start"], "endTile": [0, "End"], "trackColorType": "Stripes", "trackColor": "ffffff", "secondaryTrackColor": "c9ffdb", "trackColorAnimDuration": 2, "trackColorPulse": "None", "trackPulseLength": 10, "trackStyle": "Basic", "angleOffset": 360, "eventTag": "" },
{ "floor": 244, "eventType": "Twirl" },
{ "floor": 245, "eventType": "RecolorTrack", "startTile": [0, "Start"], "endTile": [0, "End"], "trackColorType": "Stripes", "trackColor": "ffffff", "secondaryTrackColor": "e0c7ff", "trackColorAnimDuration": 2, "trackColorPulse": "None", "trackPulseLength": 10, "trackStyle": "Basic", "angleOffset": 0, "eventTag": "" },
{ "floor": 247, "eventType": "Twirl" },
{ "floor": 248, "eventType": "RecolorTrack", "startTile": [0, "Start"], "endTile": [0, "End"], "trackColorType": "Stripes", "trackColor": "ffffff", "secondaryTrackColor": "000000", "trackColorAnimDuration": 2, "trackColorPulse": "None", "trackPulseLength": 10, "trackStyle": "Basic", "angleOffset": 90, "eventTag": "" },
{ "floor": 250, "eventType": "Twirl" },
{ "floor": 253, "eventType": "Twirl" },
{ "floor": 255, "eventType": "Twirl" },
{ "floor": 257, "eventType": "Twirl" },
{ "floor": 259, "eventType": "Twirl" },
{ "floor": 261, "eventType": "Twirl" },
{ "floor": 264, "eventType": "Twirl" },
{ "floor": 266, "eventType": "Twirl" },
{ "floor": 268, "eventType": "Twirl" },
{ "floor": 273, "eventType": "Twirl" },
{ "floor": 275, "eventType": "Twirl" },
{ "floor": 277, "eventType": "Twirl" },
{ "floor": 281, "eventType": "Twirl" },
{ "floor": 287, "eventType": "Twirl" },
{ "floor": 289, "eventType": "Twirl" },
{ "floor": 291, "eventType": "Twirl" },
{ "floor": 293, "eventType": "Twirl" },
{ "floor": 298, "eventType": "RecolorTrack", "startTile": [0, "Start"], "endTile": [0, "End"], "trackColorType": "Single", "trackColor": "ffffff", "secondaryTrackColor": "ffffff", "trackColorAnimDuration": 2, "trackColorPulse": "None", "trackPulseLength": 10, "trackStyle": "Basic", "angleOffset": 135, "eventTag": "" },
{ "floor": 301, "eventType": "MoveTrack", "startTile": [0, "ThisTile"], "endTile": [0, "ThisTile"], "gapLength": 0, "duration": 1, "positionOffset": [0, -1], "angleOffset": 0, "ease": "Linear", "maxVfxOnly": "Disabled", "eventTag": "", },
{ "floor": 302, "eventType": "PositionTrack", "positionOffset": [0, -1], "relativeTo": [0, "ThisTile"], "rotation": 0, "scale": 100, "opacity": 100, "justThisTile": "Disabled", "editorOnly": "Disabled" },
{ "floor": 303, "eventType": "RecolorTrack", "startTile": [0, "Start"], "endTile": [0, "End"], "trackColorType": "Stripes", "trackColor": "ffffff", "secondaryTrackColor": "c9ffdb", "trackColorAnimDuration": 2, "trackColorPulse": "None", "trackPulseLength": 10, "trackStyle": "Basic", "angleOffset": 0, "eventTag": "" },
{ "floor": 304, "eventType": "RecolorTrack", "startTile": [0, "Start"], "endTile": [0, "End"], "trackColorType": "Single", "trackColor": "ffffff", "secondaryTrackColor": "ffffff", "trackColorAnimDuration": 2, "trackColorPulse": "None", "trackPulseLength": 10, "trackStyle": "Basic", "angleOffset": 90, "eventTag": "" },
{ "floor": 306, "eventType": "Twirl" },
{ "floor": 308, "eventType": "Twirl" },
{ "floor": 310, "eventType": "Twirl" },
{ "floor": 313, "eventType": "Twirl" },
{ "floor": 315, "eventType": "RecolorTrack", "startTile": [0, "Start"], "endTile": [0, "End"], "trackColorType": "Stripes", "trackColor": "ffffff", "secondaryTrackColor": "dac0ff", "trackColorAnimDuration": 2, "trackColorPulse": "None", "trackPulseLength": 10, "trackStyle": "Basic", "angleOffset": 90, "eventTag": "" },
{ "floor": 316, "eventType": "RecolorTrack", "startTile": [0, "Start"], "endTile": [0, "End"], "trackColorType": "Single", "trackColor": "ffffff", "secondaryTrackColor": "ffffff", "trackColorAnimDuration": 2, "trackColorPulse": "None", "trackPulseLength": 10, "trackStyle": "Basic", "angleOffset": 90, "eventTag": "" },
{ "floor": 317, "eventType": "Twirl" },
{ "floor": 319, "eventType": "Twirl" },
{ "floor": 321, "eventType": "Twirl" },
{ "floor": 323, "eventType": "Twirl" },
{ "floor": 327, "eventType": "Twirl" },
{ "floor": 329, "eventType": "Twirl" },
{ "floor": 331, "eventType": "Twirl" },
{ "floor": 333, "eventType": "Twirl" },
{ "floor": 335, "eventType": "Twirl" },
{ "floor": 338, "eventType": "Twirl" },
{ "floor": 340, "eventType": "Twirl" },
{ "floor": 342, "eventType": "Twirl" },
{ "floor": 349, "eventType": "Twirl" },
{ "floor": 351, "eventType": "Twirl" },
{ "floor": 352, "eventType": "MoveTrack", "startTile": [0, "ThisTile"], "endTile": [0, "ThisTile"], "gapLength": 0, "duration": 1, "positionOffset": [0, -1], "angleOffset": 0, "ease": "Linear", "maxVfxOnly": "Disabled", "eventTag": "", },
{ "floor": 353, "eventType": "PositionTrack", "positionOffset": [0, -1], "relativeTo": [0, "ThisTile"], "rotation": 0, "scale": 100, "opacity": 100, "justThisTile": "Disabled", "editorOnly": "Disabled" },
{ "floor": 354, "eventType": "RecolorTrack", "startTile": [0, "Start"], "endTile": [0, "End"], "trackColorType": "Stripes", "trackColor": "ffffff", "secondaryTrackColor": "ffc0ef", "trackColorAnimDuration": 2, "trackColorPulse": "None", "trackPulseLength": 10, "trackStyle": "Basic", "angleOffset": 0, "eventTag": "" },
{ "floor": 355, "eventType": "RecolorTrack", "startTile": [0, "Start"], "endTile": [0, "End"], "trackColorType": "Single", "trackColor": "ffffff", "secondaryTrackColor": "ffffff", "trackColorAnimDuration": 2, "trackColorPulse": "None", "trackPulseLength": 10, "trackStyle": "Basic", "angleOffset": 0, "eventTag": "" },
{ "floor": 357, "eventType": "Twirl" },
{ "floor": 359, "eventType": "Twirl" },
{ "floor": 361, "eventType": "Twirl" },
{ "floor": 364, "eventType": "Twirl" },
{ "floor": 366, "eventType": "RecolorTrack", "startTile": [0, "Start"], "endTile": [0, "End"], "trackColorType": "Stripes", "trackColor": "ffffff", "secondaryTrackColor": "aff8ff", "trackColorAnimDuration": 2, "trackColorPulse": "None", "trackPulseLength": 10, "trackStyle": "Basic", "angleOffset": 0, "eventTag": "" },
{ "floor": 367, "eventType": "RecolorTrack", "startTile": [0, "Start"], "endTile": [0, "End"], "trackColorType": "Single", "trackColor": "ffffff", "secondaryTrackColor": "ffffff", "trackColorAnimDuration": 2, "trackColorPulse": "None", "trackPulseLength": 10, "trackStyle": "Basic", "angleOffset": 0, "eventTag": "" },
{ "floor": 368, "eventType": "Twirl" },
{ "floor": 370, "eventType": "Twirl" },
{ "floor": 372, "eventType": "Twirl" },
{ "floor": 374, "eventType": "Twirl" },
{ "floor": 376, "eventType": "Twirl" },
{ "floor": 377, "eventType": "Twirl" },
{ "floor": 387, "eventType": "Twirl" },
{ "floor": 389, "eventType": "Twirl" },
{ "floor": 391, "eventType": "Twirl" },
{ "floor": 393, "eventType": "Twirl" },
{ "floor": 396, "eventType": "Twirl" },
{ "floor": 398, "eventType": "Twirl" },
{ "floor": 400, "eventType": "Twirl" },
{ "floor": 402, "eventType": "Twirl" },
{ "floor": 408, "eventType": "RecolorTrack", "startTile": [0, "Start"], "endTile": [0, "End"], "trackColorType": "Stripes", "trackColor": "ffffff", "secondaryTrackColor": "f9ff84", "trackColorAnimDuration": 2, "trackColorPulse": "None", "trackPulseLength": 10, "trackStyle": "Basic", "angleOffset": 0, "eventTag": "" },
{ "floor": 412, "eventType": "RecolorTrack", "startTile": [0, "Start"], "endTile": [0, "End"], "trackColorType": "Single", "trackColor": "ffffff", "secondaryTrackColor": "ffffff", "trackColorAnimDuration": 2, "trackColorPulse": "None", "trackPulseLength": 10, "trackStyle": "Basic", "angleOffset": 0, "eventTag": "" },
{ "floor": 420, "eventType": "RecolorTrack", "startTile": [0, "Start"], "endTile": [0, "End"], "trackColorType": "Stripes", "trackColor": "ffffff", "secondaryTrackColor": "ffc0ef", "trackColorAnimDuration": 2, "trackColorPulse": "None", "trackPulseLength": 10, "trackStyle": "Basic", "angleOffset": 0, "eventTag": "" },
{ "floor": 422, "eventType": "RecolorTrack", "startTile": [0, "Start"], "endTile": [0, "End"], "trackColorType": "Single", "trackColor": "ffffff", "secondaryTrackColor": "ffffff", "trackColorAnimDuration": 2, "trackColorPulse": "None", "trackPulseLength": 10, "trackStyle": "Basic", "angleOffset": 0, "eventTag": "" },
{ "floor": 426, "eventType": "RecolorTrack", "startTile": [0, "Start"], "endTile": [0, "End"], "trackColorType": "Stripes", "trackColor": "ffffff", "secondaryTrackColor": "aff8ff", "trackColorAnimDuration": 2, "trackColorPulse": "None", "trackPulseLength": 10, "trackStyle": "Basic", "angleOffset": 0, "eventTag": "" },
{ "floor": 428, "eventType": "RecolorTrack", "startTile": [0, "Start"], "endTile": [0, "End"], "trackColorType": "Single", "trackColor": "ffffff", "secondaryTrackColor": "ffffff", "trackColorAnimDuration": 2, "trackColorPulse": "None", "trackPulseLength": 10, "trackStyle": "Basic", "angleOffset": 0, "eventTag": "" },
{ "floor": 432, "eventType": "RecolorTrack", "startTile": [0, "Start"], "endTile": [0, "End"], "trackColorType": "Stripes", "trackColor": "ffffff", "secondaryTrackColor": "ffcb9a", "trackColorAnimDuration": 2, "trackColorPulse": "None", "trackPulseLength": 10, "trackStyle": "Basic", "angleOffset": 0, "eventTag": "" },
{ "floor": 434, "eventType": "RecolorTrack", "startTile": [0, "Start"], "endTile": [0, "End"], "trackColorType": "Single", "trackColor": "ffffff", "secondaryTrackColor": "ffffff", "trackColorAnimDuration": 2, "trackColorPulse": "None", "trackPulseLength": 10, "trackStyle": "Basic", "angleOffset": 0, "eventTag": "" },
{ "floor": 438, "eventType": "RecolorTrack", "startTile": [0, "Start"], "endTile": [0, "End"], "trackColorType": "Stripes", "trackColor": "ffffff", "secondaryTrackColor": "000000", "trackColorAnimDuration": 2, "trackColorPulse": "None", "trackPulseLength": 10, "trackStyle": "Basic", "angleOffset": 0, "eventTag": "" },
{ "floor": 440, "eventType": "Twirl" },
{ "floor": 442, "eventType": "Twirl" },
{ "floor": 447, "eventType": "Twirl" },
{ "floor": 451, "eventType": "Twirl" },
{ "floor": 453, "eventType": "Twirl" },
{ "floor": 455, "eventType": "Twirl" },
{ "floor": 458, "eventType": "Twirl" },
{ "floor": 460, "eventType": "Twirl" },
{ "floor": 464, "eventType": "Twirl" },
{ "floor": 466, "eventType": "Twirl" },
{ "floor": 470, "eventType": "Twirl" },
{ "floor": 472, "eventType": "Twirl" },
{ "floor": 476, "eventType": "Twirl" },
{ "floor": 478, "eventType": "Twirl" },
{ "floor": 480, "eventType": "Twirl" },
{ "floor": 483, "eventType": "Twirl" },
{ "floor": 485, "eventType": "Twirl" },
{ "floor": 487, "eventType": "Twirl" },
{ "floor": 487, "eventType": "RecolorTrack", "startTile": [0, "Start"], "endTile": [0, "End"], "trackColorType": "Single", "trackColor": "ffffff", "secondaryTrackColor": "ffffff", "trackColorAnimDuration": 2, "trackColorPulse": "None", "trackPulseLength": 10, "trackStyle": "Basic", "angleOffset": 0, "eventTag": "" },
{ "floor": 491, "eventType": "Twirl" },
{ "floor": 493, "eventType": "Twirl" },
{ "floor": 497, "eventType": "Twirl" },
{ "floor": 499, "eventType": "Twirl" },
{ "floor": 502, "eventType": "Twirl" },
{ "floor": 504, "eventType": "Twirl" },
{ "floor": 506, "eventType": "Twirl" },
{ "floor": 509, "eventType": "Twirl" },
{ "floor": 511, "eventType": "Twirl" },
{ "floor": 513, "eventType": "Twirl" },
{ "floor": 516, "eventType": "Twirl" },
{ "floor": 518, "eventType": "Twirl" },
{ "floor": 522, "eventType": "Twirl" },
{ "floor": 524, "eventType": "Twirl" },
{ "floor": 528, "eventType": "Twirl" },
{ "floor": 530, "eventType": "Twirl" },
{ "floor": 532, "eventType": "Twirl" },
{ "floor": 534, "eventType": "Twirl" },
{ "floor": 536, "eventType": "Twirl" },
{ "floor": 538, "eventType": "Twirl" },
{ "floor": 540, "eventType": "Twirl" },
{ "floor": 542, "eventType": "Twirl" },
{ "floor": 546, "eventType": "Twirl" },
{ "floor": 547, "eventType": "RecolorTrack", "startTile": [0, "Start"], "endTile": [0, "End"], "trackColorType": "Stripes", "trackColor": "ffffff", "secondaryTrackColor": "febd98", "trackColorAnimDuration": 2, "trackColorPulse": "None", "trackPulseLength": 10, "trackStyle": "Basic", "angleOffset": 0, "eventTag": "" },
{ "floor": 549, "eventType": "Twirl" },
{ "floor": 551, "eventType": "Twirl" },
{ "floor": 553, "eventType": "Twirl" },
{ "floor": 555, "eventType": "Twirl" },
{ "floor": 557, "eventType": "Twirl" },
{ "floor": 560, "eventType": "Twirl" },
{ "floor": 561, "eventType": "RecolorTrack", "startTile": [0, "Start"], "endTile": [0, "End"], "trackColorType": "Stripes", "trackColor": "ffffff", "secondaryTrackColor": "b6e593", "trackColorAnimDuration": 2, "trackColorPulse": "None", "trackPulseLength": 10, "trackStyle": "Basic", "angleOffset": 0, "eventTag": "" },
{ "floor": 563, "eventType": "Twirl" },
{ "floor": 565, "eventType": "Twirl" },
{ "floor": 567, "eventType": "Twirl" },
{ "floor": 569, "eventType": "Twirl" },
{ "floor": 571, "eventType": "Twirl" },
{ "floor": 574, "eventType": "RecolorTrack", "startTile": [0, "Start"], "endTile": [0, "End"], "trackColorType": "Stripes", "trackColor": "ffffff", "secondaryTrackColor": "80a0bf", "trackColorAnimDuration": 2, "trackColorPulse": "None", "trackPulseLength": 10, "trackStyle": "Basic", "angleOffset": 0, "eventTag": "" },
{ "floor": 576, "eventType": "Twirl" },
{ "floor": 578, "eventType": "Twirl" },
{ "floor": 580, "eventType": "Twirl" },
{ "floor": 582, "eventType": "Twirl" },
{ "floor": 588, "eventType": "Twirl" },
{ "floor": 590, "eventType": "Twirl" },
{ "floor": 590, "eventType": "RecolorTrack", "startTile": [0, "Start"], "endTile": [0, "End"], "trackColorType": "Single", "trackColor": "ffffff", "secondaryTrackColor": "b6e593", "trackColorAnimDuration": 2, "trackColorPulse": "None", "trackPulseLength": 10, "trackStyle": "Basic", "angleOffset": 0, "eventTag": "" },
{ "floor": 592, "eventType": "Twirl" },
{ "floor": 595, "eventType": "RecolorTrack", "startTile": [0, "Start"], "endTile": [0, "End"], "trackColorType": "Stripes", "trackColor": "ffffff", "secondaryTrackColor": "febd98", "trackColorAnimDuration": 2, "trackColorPulse": "None", "trackPulseLength": 10, "trackStyle": "Basic", "angleOffset": 90, "eventTag": "" },
{ "floor": 596, "eventType": "Twirl" },
{ "floor": 599, "eventType": "RecolorTrack", "startTile": [0, "Start"], "endTile": [0, "End"], "trackColorType": "Stripes", "trackColor": "ffffff", "secondaryTrackColor": "b6e593", "trackColorAnimDuration": 2, "trackColorPulse": "None", "trackPulseLength": 10, "trackStyle": "Basic", "angleOffset": 0, "eventTag": "" },
{ "floor": 600, "eventType": "RecolorTrack", "startTile": [0, "Start"], "endTile": [0, "End"], "trackColorType": "Stripes", "trackColor": "ffffff", "secondaryTrackColor": "80a0bf", "trackColorAnimDuration": 2, "trackColorPulse": "None", "trackPulseLength": 10, "trackStyle": "Basic", "angleOffset": 0, "eventTag": "" },
{ "floor": 602, "eventType": "Twirl" },
{ "floor": 603, "eventType": "RecolorTrack", "startTile": [0, "Start"], "endTile": [0, "End"], "trackColorType": "Stripes", "trackColor": "ffffff", "secondaryTrackColor": "000000", "trackColorAnimDuration": 2, "trackColorPulse": "None", "trackPulseLength": 10, "trackStyle": "Basic", "angleOffset": 45, "eventTag": "" },
{ "floor": 605, "eventType": "Twirl" },
{ "floor": 608, "eventType": "Twirl" },
{ "floor": 610, "eventType": "Twirl" },
{ "floor": 612, "eventType": "Twirl" },
{ "floor": 614, "eventType": "Twirl" },
{ "floor": 617, "eventType": "Twirl" },
{ "floor": 619, "eventType": "Twirl" },
{ "floor": 621, "eventType": "Twirl" },
{ "floor": 623, "eventType": "Twirl" },
{ "floor": 625, "eventType": "Twirl" },
{ "floor": 627, "eventType": "Twirl" },
{ "floor": 630, "eventType": "Twirl" },
{ "floor": 632, "eventType": "Twirl" },
{ "floor": 634, "eventType": "Twirl" },
{ "floor": 636, "eventType": "Twirl" },
{ "floor": 638, "eventType": "Twirl" },
{ "floor": 641, "eventType": "Twirl" },
{ "floor": 644, "eventType": "Twirl" },
{ "floor": 646, "eventType": "Twirl" },
{ "floor": 648, "eventType": "Twirl" },
{ "floor": 650, "eventType": "Twirl" },
{ "floor": 658, "eventType": "Checkpoint", "tileOffset": 0 },
{ "floor": 658, "eventType": "RecolorTrack", "startTile": [0, "Start"], "endTile": [0, "End"], "trackColorType": "Single", "trackColor": "ffffff", "secondaryTrackColor": "80a0bf", "trackColorAnimDuration": 2, "trackColorPulse": "None", "trackPulseLength": 10, "trackStyle": "Basic", "angleOffset": 0, "eventTag": "" },
{ "floor": 661, "eventType": "Twirl" },
{ "floor": 663, "eventType": "Twirl" },
{ "floor": 664, "eventType": "MoveTrack", "startTile": [0, "ThisTile"], "endTile": [0, "ThisTile"], "gapLength": 0, "duration": 1, "positionOffset": [0, -1], "angleOffset": 0, "ease": "Linear", "maxVfxOnly": "Disabled", "eventTag": "", },
{ "floor": 665, "eventType": "PositionTrack", "positionOffset": [0, -1], "relativeTo": [0, "ThisTile"], "rotation": 0, "scale": 100, "opacity": 100, "justThisTile": "Disabled", "editorOnly": "Disabled" },
{ "floor": 666, "eventType": "RecolorTrack", "startTile": [0, "Start"], "endTile": [0, "End"], "trackColorType": "Stripes", "trackColor": "ffffff", "secondaryTrackColor": "ffffff", "trackColorAnimDuration": 2, "trackColorPulse": "None", "trackPulseLength": 10, "trackStyle": "Basic", "angleOffset": 0, "eventTag": "" },
{ "floor": 667, "eventType": "RecolorTrack", "startTile": [0, "Start"], "endTile": [0, "End"], "trackColorType": "Single", "trackColor": "ffffff", "secondaryTrackColor": "80a0bf", "trackColorAnimDuration": 2, "trackColorPulse": "None", "trackPulseLength": 10, "trackStyle": "Basic", "angleOffset": 90, "eventTag": "" },
{ "floor": 669, "eventType": "AnimateTrack", "trackAnimation": "None", "beatsAhead": 3, "trackDisappearAnimation": "None", "beatsBehind": 4 },
{ "floor": 669, "eventType": "Twirl" },
{ "floor": 671, "eventType": "Twirl" },
{ "floor": 673, "eventType": "Twirl" },
{ "floor": 676, "eventType": "Twirl" },
{ "floor": 678, "eventType": "RecolorTrack", "startTile": [0, "Start"], "endTile": [0, "End"], "trackColorType": "Stripes", "trackColor": "ffffff", "secondaryTrackColor": "ffe5be", "trackColorAnimDuration": 2, "trackColorPulse": "None", "trackPulseLength": 10, "trackStyle": "Basic", "angleOffset": 0, "eventTag": "" },
{ "floor": 679, "eventType": "Twirl" },
{ "floor": 679, "eventType": "RecolorTrack", "startTile": [0, "Start"], "endTile": [0, "End"], "trackColorType": "Single", "trackColor": "ffffff", "secondaryTrackColor": "80a0bf", "trackColorAnimDuration": 2, "trackColorPulse": "None", "trackPulseLength": 10, "trackStyle": "Basic", "angleOffset": 90, "eventTag": "" },
{ "floor": 682, "eventType": "Twirl" },
{ "floor": 684, "eventType": "Twirl" },
{ "floor": 687, "eventType": "Twirl" },
{ "floor": 689, "eventType": "Twirl" },
{ "floor": 691, "eventType": "Twirl" },
{ "floor": 693, "eventType": "Twirl" },
{ "floor": 695, "eventType": "Twirl" },
{ "floor": 697, "eventType": "Twirl" },
{ "floor": 699, "eventType": "Twirl" },
{ "floor": 702, "eventType": "Twirl" },
{ "floor": 704, "eventType": "Twirl" },
{ "floor": 706, "eventType": "Twirl" },
{ "floor": 708, "eventType": "Twirl" },
{ "floor": 712, "eventType": "Twirl" },
{ "floor": 714, "eventType": "Twirl" },
{ "floor": 715, "eventType": "MoveTrack", "startTile": [0, "ThisTile"], "endTile": [0, "ThisTile"], "gapLength": 0, "duration": 1, "positionOffset": [0, -1], "angleOffset": 0, "ease": "Linear", "maxVfxOnly": "Disabled", "eventTag": "", },
{ "floor": 716, "eventType": "PositionTrack", "positionOffset": [0, -1], "relativeTo": [0, "ThisTile"], "rotation": 0, "scale": 100, "opacity": 100, "justThisTile": "Disabled", "editorOnly": "Disabled" },
{ "floor": 717, "eventType": "RecolorTrack", "startTile": [0, "Start"], "endTile": [0, "End"], "trackColorType": "Stripes", "trackColor": "ffffff", "secondaryTrackColor": "ccfebb", "trackColorAnimDuration": 2, "trackColorPulse": "None", "trackPulseLength": 10, "trackStyle": "Basic", "angleOffset": 0, "eventTag": "" },
{ "floor": 718, "eventType": "RecolorTrack", "startTile": [0, "Start"], "endTile": [0, "End"], "trackColorType": "Single", "trackColor": "ffffff", "secondaryTrackColor": "80a0bf", "trackColorAnimDuration": 2, "trackColorPulse": "None", "trackPulseLength": 10, "trackStyle": "Basic", "angleOffset": 90, "eventTag": "" },
{ "floor": 720, "eventType": "Twirl" },
{ "floor": 722, "eventType": "Twirl" },
{ "floor": 724, "eventType": "Twirl" },
{ "floor": 727, "eventType": "Twirl" },
{ "floor": 729, "eventType": "RecolorTrack", "startTile": [0, "Start"], "endTile": [0, "End"], "trackColorType": "Stripes", "trackColor": "ffffff", "secondaryTrackColor": "ccfebb", "trackColorAnimDuration": 2, "trackColorPulse": "None", "trackPulseLength": 10, "trackStyle": "Basic", "angleOffset": 0, "eventTag": "" },
{ "floor": 730, "eventType": "RecolorTrack", "startTile": [0, "Start"], "endTile": [0, "End"], "trackColorType": "Single", "trackColor": "ffffff", "secondaryTrackColor": "ccfebb", "trackColorAnimDuration": 2, "trackColorPulse": "None", "trackPulseLength": 10, "trackStyle": "Basic", "angleOffset": 0, "eventTag": "" },
{ "floor": 731, "eventType": "Twirl" },
{ "floor": 733, "eventType": "Twirl" },
{ "floor": 735, "eventType": "Twirl" },
{ "floor": 737, "eventType": "Twirl" },
{ "floor": 740, "eventType": "Twirl" },
{ "floor": 742, "eventType": "Twirl" },
{ "floor": 744, "eventType": "Twirl" },
{ "floor": 746, "eventType": "Twirl" },
{ "floor": 753, "eventType": "Twirl" },
{ "floor": 755, "eventType": "Twirl" },
{ "floor": 757, "eventType": "Twirl" },
{ "floor": 759, "eventType": "Twirl" },
{ "floor": 762, "eventType": "Twirl" },
{ "floor": 764, "eventType": "Twirl" },
{ "floor": 768, "eventType": "SetFilter", "filter": "Compression", "enabled": "Enabled", "intensity": 100, "duration": 0, "ease": "Linear", "disableOthers": "Disabled", "angleOffset": 0, "eventTag": "" },
{ "floor": 783, "eventType": "SetFilter", "filter": "Compression", "enabled": "Disabled", "intensity": 100, "duration": 0, "ease": "Linear", "disableOthers": "Disabled", "angleOffset": 0, "eventTag": "" },
{ "floor": 784, "eventType": "Twirl" },
{ "floor": 787, "eventType": "Twirl" },
{ "floor": 790, "eventType": "Twirl" },
{ "floor": 792, "eventType": "Twirl" },
{ "floor": 794, "eventType": "Twirl" },
{ "floor": 797, "eventType": "Twirl" },
{ "floor": 800, "eventType": "Twirl" },
{ "floor": 803, "eventType": "Twirl" },
{ "floor": 805, "eventType": "Twirl" },
{ "floor": 807, "eventType": "Twirl" },
{ "floor": 811, "eventType": "Twirl" },
{ "floor": 813, "eventType": "Twirl" },
{ "floor": 815, "eventType": "Twirl" },
{ "floor": 817, "eventType": "Twirl" },
{ "floor": 819, "eventType": "Twirl" },
{ "floor": 821, "eventType": "Twirl" },
{ "floor": 825, "eventType": "Twirl" },
{ "floor": 827, "eventType": "Twirl" },
{ "floor": 831, "eventType": "Pause", "duration": 2, "countdownTicks": 0, "angleCorrectionDir": -1 },
{ "floor": 831, "eventType": "MoveTrack", "startTile": [0, "ThisTile"], "endTile": [0, "ThisTile"], "gapLength": 0, "duration": 2, "positionOffset": [2, 0], "angleOffset": 0, "ease": "Linear", "maxVfxOnly": "Disabled", "eventTag": "", },
{ "floor": 832, "eventType": "PositionTrack", "positionOffset": [2, 0], "relativeTo": [0, "ThisTile"], "rotation": 0, "scale": 100, "opacity": 100, "justThisTile": "Disabled", "editorOnly": "Disabled" },
{ "floor": 837, "eventType": "RecolorTrack", "startTile": [0, "Start"], "endTile": [0, "End"], "trackColorType": "Stripes", "trackColor": "ffffff", "secondaryTrackColor": "f9ff84", "trackColorAnimDuration": 2, "trackColorPulse": "None", "trackPulseLength": 10, "trackStyle": "Basic", "angleOffset": 0, "eventTag": "" },
{ "floor": 838, "eventType": "RecolorTrack", "startTile": [0, "Start"], "endTile": [0, "End"], "trackColorType": "Single", "trackColor": "ffffff", "secondaryTrackColor": "80a0bf", "trackColorAnimDuration": 2, "trackColorPulse": "None", "trackPulseLength": 10, "trackStyle": "Basic", "angleOffset": 0, "eventTag": "" },
{ "floor": 839, "eventType": "RecolorTrack", "startTile": [0, "Start"], "endTile": [0, "End"], "trackColorType": "Stripes", "trackColor": "ffffff", "secondaryTrackColor": "c9ffdb", "trackColorAnimDuration": 2, "trackColorPulse": "None", "trackPulseLength": 10, "trackStyle": "Basic", "angleOffset": 0, "eventTag": "" },
{ "floor": 840, "eventType": "RecolorTrack", "startTile": [0, "Start"], "endTile": [0, "End"], "trackColorType": "Single", "trackColor": "ffffff", "secondaryTrackColor": "80a0bf", "trackColorAnimDuration": 2, "trackColorPulse": "None", "trackPulseLength": 10, "trackStyle": "Basic", "angleOffset": 0, "eventTag": "" },
{ "floor": 841, "eventType": "RecolorTrack", "startTile": [0, "Start"], "endTile": [0, "End"], "trackColorType": "Stripes", "trackColor": "ffffff", "secondaryTrackColor": "e0c7ff", "trackColorAnimDuration": 2, "trackColorPulse": "None", "trackPulseLength": 10, "trackStyle": "Basic", "angleOffset": 0, "eventTag": "" },
{ "floor": 842, "eventType": "RecolorTrack", "startTile": [0, "Start"], "endTile": [0, "End"], "trackColorType": "Single", "trackColor": "ffffff", "secondaryTrackColor": "80a0bf", "trackColorAnimDuration": 2, "trackColorPulse": "None", "trackPulseLength": 10, "trackStyle": "Basic", "angleOffset": 0, "eventTag": "" },
{ "floor": 843, "eventType": "RecolorTrack", "startTile": [0, "Start"], "endTile": [0, "End"], "trackColorType": "Stripes", "trackColor": "ffffff", "secondaryTrackColor": "d1fff5", "trackColorAnimDuration": 2, "trackColorPulse": "None", "trackPulseLength": 10, "trackStyle": "Basic", "angleOffset": 0, "eventTag": "" },
{ "floor": 844, "eventType": "RecolorTrack", "startTile": [0, "Start"], "endTile": [0, "End"], "trackColorType": "Single", "trackColor": "ffffff", "secondaryTrackColor": "80a0bf", "trackColorAnimDuration": 2, "trackColorPulse": "None", "trackPulseLength": 10, "trackStyle": "Basic", "angleOffset": 0, "eventTag": "" },
{ "floor": 856, "eventType": "SetSpeed", "speedType": "Multiplier", "beatsPerMinute": 100, "bpmMultiplier": 0.5 },
{ "floor": 862, "eventType": "SetSpeed", "speedType": "Multiplier", "beatsPerMinute": 100, "bpmMultiplier": 2 },
{ "floor": 866, "eventType": "Twirl" },
{ "floor": 869, "eventType": "SetSpeed", "speedType": "Multiplier", "beatsPerMinute": 100, "bpmMultiplier": 0.5 },
{ "floor": 870, "eventType": "Twirl" },
{ "floor": 871, "eventType": "SetSpeed", "speedType": "Multiplier", "beatsPerMinute": 100, "bpmMultiplier": 2 },
{ "floor": 873, "eventType": "SetSpeed", "speedType": "Multiplier", "beatsPerMinute": 100, "bpmMultiplier": 0.5 },
{ "floor": 874, "eventType": "SetSpeed", "speedType": "Multiplier", "beatsPerMinute": 100, "bpmMultiplier": 2 },
{ "floor": 880, "eventType": "Twirl" },
{ "floor": 882, "eventType": "Twirl" },
{ "floor": 884, "eventType": "SetSpeed", "speedType": "Multiplier", "beatsPerMinute": 100, "bpmMultiplier": 0.5 },
{ "floor": 886, "eventType": "SetSpeed", "speedType": "Multiplier", "beatsPerMinute": 100, "bpmMultiplier": 2 },
{ "floor": 888, "eventType": "SetSpeed", "speedType": "Multiplier", "beatsPerMinute": 100, "bpmMultiplier": 0.5 },
{ "floor": 889, "eventType": "SetSpeed", "speedType": "Multiplier", "beatsPerMinute": 100, "bpmMultiplier": 2 },
{ "floor": 895, "eventType": "Twirl" },
{ "floor": 897, "eventType": "Twirl" },
{ "floor": 899, "eventType": "SetSpeed", "speedType": "Multiplier", "beatsPerMinute": 100, "bpmMultiplier": 0.5 },
{ "floor": 901, "eventType": "SetSpeed", "speedType": "Multiplier", "beatsPerMinute": 100, "bpmMultiplier": 2 },
{ "floor": 903, "eventType": "SetSpeed", "speedType": "Multiplier", "beatsPerMinute": 100, "bpmMultiplier": 0.5 },
{ "floor": 904, "eventType": "SetSpeed", "speedType": "Multiplier", "beatsPerMinute": 100, "bpmMultiplier": 2 },
{ "floor": 906, "eventType": "Pause", "duration": 2, "countdownTicks": 0, "angleCorrectionDir": -1 },
{ "floor": 906, "eventType": "MoveTrack", "startTile": [0, "ThisTile"], "endTile": [0, "ThisTile"], "gapLength": 0, "duration": 3, "positionOffset": [0, -2], "angleOffset": 0, "ease": "Linear", "maxVfxOnly": "Disabled", "eventTag": "", },
{ "floor": 907, "eventType": "PositionTrack", "positionOffset": [0, -2], "relativeTo": [0, "ThisTile"], "rotation": 0, "scale": 100, "opacity": 100, "justThisTile": "Disabled", "editorOnly": "Disabled" },
{ "floor": 908, "eventType": "Pause", "duration": 2, "countdownTicks": 0, "angleCorrectionDir": -1 },
{ "floor": 908, "eventType": "MoveTrack", "startTile": [0, "ThisTile"], "endTile": [0, "ThisTile"], "gapLength": 0, "duration": 3, "positionOffset": [0, 2], "angleOffset": 0, "ease": "Linear", "maxVfxOnly": "Disabled", "eventTag": "", },
{ "floor": 909, "eventType": "PositionTrack", "positionOffset": [0, 2], "relativeTo": [0, "ThisTile"], "rotation": 0, "scale": 100, "opacity": 100, "justThisTile": "Disabled", "editorOnly": "Disabled" },
{ "floor": 931, "eventType": "Twirl" },
{ "floor": 933, "eventType": "Twirl" },
{ "floor": 935, "eventType": "Twirl" },
{ "floor": 937, "eventType": "Twirl" },
{ "floor": 943, "eventType": "Twirl" },
{ "floor": 945, "eventType": "Twirl" },
{ "floor": 947, "eventType": "Twirl" },
{ "floor": 950, "eventType": "Twirl" },
{ "floor": 952, "eventType": "Twirl" },
{ "floor": 954, "eventType": "Twirl" },
{ "floor": 956, "eventType": "Twirl" },
{ "floor": 958, "eventType": "Twirl" },
{ "floor": 960, "eventType": "Twirl" },
{ "floor": 962, "eventType": "Twirl" },
{ "floor": 965, "eventType": "Twirl" },
{ "floor": 967, "eventType": "Twirl" },
{ "floor": 969, "eventType": "Twirl" },
{ "floor": 971, "eventType": "Twirl" },
{ "floor": 975, "eventType": "Twirl" },
{ "floor": 977, "eventType": "Twirl" },
{ "floor": 978, "eventType": "MoveTrack", "startTile": [0, "ThisTile"], "endTile": [0, "ThisTile"], "gapLength": 0, "duration": 1, "positionOffset": [0, -1], "angleOffset": 0, "ease": "Linear", "maxVfxOnly": "Disabled", "eventTag": "", },
{ "floor": 979, "eventType": "PositionTrack", "positionOffset": [0, -1], "relativeTo": [0, "ThisTile"], "rotation": 0, "scale": 100, "opacity": 100, "justThisTile": "Disabled", "editorOnly": "Disabled" },
{ "floor": 980, "eventType": "RecolorTrack", "startTile": [0, "Start"], "endTile": [0, "End"], "trackColorType": "Stripes", "trackColor": "ffffff", "secondaryTrackColor": "aff8ff", "trackColorAnimDuration": 2, "trackColorPulse": "None", "trackPulseLength": 10, "trackStyle": "Basic", "angleOffset": 0, "eventTag": "" },
{ "floor": 981, "eventType": "RecolorTrack", "startTile": [0, "Start"], "endTile": [0, "End"], "trackColorType": "Single", "trackColor": "ffffff", "secondaryTrackColor": "80a0bf", "trackColorAnimDuration": 2, "trackColorPulse": "None", "trackPulseLength": 10, "trackStyle": "Basic", "angleOffset": 90, "eventTag": "" },
{ "floor": 983, "eventType": "Twirl" },
{ "floor": 985, "eventType": "Twirl" },
{ "floor": 987, "eventType": "Twirl" },
{ "floor": 990, "eventType": "Twirl" },
{ "floor": 992, "eventType": "RecolorTrack", "startTile": [0, "Start"], "endTile": [0, "End"], "trackColorType": "Stripes", "trackColor": "ffffff", "secondaryTrackColor": "c9ffdb", "trackColorAnimDuration": 2, "trackColorPulse": "None", "trackPulseLength": 10, "trackStyle": "Basic", "angleOffset": 0, "eventTag": "" },
{ "floor": 993, "eventType": "RecolorTrack", "startTile": [0, "Start"], "endTile": [0, "End"], "trackColorType": "Single", "trackColor": "ffffff", "secondaryTrackColor": "80a0bf", "trackColorAnimDuration": 2, "trackColorPulse": "None", "trackPulseLength": 10, "trackStyle": "Basic", "angleOffset": 90, "eventTag": "" },
{ "floor": 994, "eventType": "Twirl" },
{ "floor": 996, "eventType": "Twirl" },
{ "floor": 998, "eventType": "Twirl" },
{ "floor": 1001, "eventType": "Twirl" },
{ "floor": 1003, "eventType": "Twirl" },
{ "floor": 1005, "eventType": "Twirl" },
{ "floor": 1007, "eventType": "Twirl" },
{ "floor": 1009, "eventType": "Twirl" },
{ "floor": 1011, "eventType": "Twirl" },
{ "floor": 1013, "eventType": "Twirl" },
{ "floor": 1016, "eventType": "Twirl" },
{ "floor": 1018, "eventType": "Twirl" },
{ "floor": 1020, "eventType": "Twirl" },
{ "floor": 1023, "eventType": "Twirl" },
{ "floor": 1025, "eventType": "Twirl" },
{ "floor": 1027, "eventType": "Twirl" },
{ "floor": 1031, "eventType": "MoveTrack", "startTile": [0, "ThisTile"], "endTile": [0, "ThisTile"], "gapLength": 0, "duration": 1, "positionOffset": [0, -1], "angleOffset": 0, "ease": "Linear", "maxVfxOnly": "Disabled", "eventTag": "", },
{ "floor": 1032, "eventType": "PositionTrack", "positionOffset": [0, -1], "relativeTo": [0, "ThisTile"], "rotation": 0, "scale": 100, "opacity": 100, "justThisTile": "Disabled", "editorOnly": "Disabled" },
{ "floor": 1033, "eventType": "RecolorTrack", "startTile": [0, "Start"], "endTile": [0, "End"], "trackColorType": "Stripes", "trackColor": "ffffff", "secondaryTrackColor": "ffc0ef", "trackColorAnimDuration": 2, "trackColorPulse": "None", "trackPulseLength": 10, "trackStyle": "Basic", "angleOffset": 0, "eventTag": "" },
{ "floor": 1034, "eventType": "RecolorTrack", "startTile": [0, "Start"], "endTile": [0, "End"], "trackColorType": "Single", "trackColor": "ffffff", "secondaryTrackColor": "80a0bf", "trackColorAnimDuration": 2, "trackColorPulse": "None", "trackPulseLength": 10, "trackStyle": "Basic", "angleOffset": 90, "eventTag": "" },
{ "floor": 1036, "eventType": "Twirl" },
{ "floor": 1038, "eventType": "Twirl" },
{ "floor": 1040, "eventType": "Twirl" },
{ "floor": 1043, "eventType": "Twirl" },
{ "floor": 1045, "eventType": "RecolorTrack", "startTile": [0, "Start"], "endTile": [0, "End"], "trackColorType": "Stripes", "trackColor": "ffffff", "secondaryTrackColor": "dac0ff", "trackColorAnimDuration": 2, "trackColorPulse": "None", "trackPulseLength": 10, "trackStyle": "Basic", "angleOffset": 0, "eventTag": "" },
{ "floor": 1046, "eventType": "RecolorTrack", "startTile": [0, "Start"], "endTile": [0, "End"], "trackColorType": "Single", "trackColor": "ffffff", "secondaryTrackColor": "80a0bf", "trackColorAnimDuration": 2, "trackColorPulse": "None", "trackPulseLength": 10, "trackStyle": "Basic", "angleOffset": 90, "eventTag": "" },
{ "floor": 1047, "eventType": "Twirl" },
{ "floor": 1049, "eventType": "Twirl" },
{ "floor": 1051, "eventType": "Twirl" },
{ "floor": 1054, "eventType": "Twirl" },
{ "floor": 1056, "eventType": "Twirl" },
{ "floor": 1060, "eventType": "Twirl" },
{ "floor": 1062, "eventType": "Twirl" },
{ "floor": 1064, "eventType": "Twirl" },
{ "floor": 1067, "eventType": "Twirl" },
{ "floor": 1069, "eventType": "Twirl" },
{ "floor": 1071, "eventType": "Twirl" },
{ "floor": 1073, "eventType": "Twirl" },
{ "floor": 1075, "eventType": "Twirl" },
{ "floor": 1077, "eventType": "Twirl" },
{ "floor": 1079, "eventType": "Twirl" },
{ "floor": 1081, "eventType": "Twirl" },
{ "floor": 1083, "eventType": "Twirl" },
{ "floor": 1085, "eventType": "Twirl" },
{ "floor": 1087, "eventType": "Twirl" },
{ "floor": 1089, "eventType": "Twirl" },
{ "floor": 1089, "eventType": "MoveTrack", "startTile": [3, "ThisTile"], "endTile": [3, "ThisTile"], "gapLength": 0, "duration": 1, "positionOffset": [0, 4], "angleOffset": 0, "ease": "Linear", "maxVfxOnly": "Disabled", "eventTag": "", },
{ "floor": 1091, "eventType": "Pause", "duration": 4, "countdownTicks": 4, "angleCorrectionDir": -1 },
{ "floor": 1091, "eventType": "MoveTrack", "startTile": [1, "ThisTile"], "endTile": [1, "ThisTile"], "gapLength": 0, "duration": 4, "positionOffset": [0, 0], "angleOffset": 0, "ease": "Linear", "maxVfxOnly": "Disabled", "eventTag": "", },
{ "floor": 1092, "eventType": "Twirl" },
{ "floor": 1094, "eventType": "Twirl" },
{ "floor": 1096, "eventType": "Twirl" },
{ "floor": 1098, "eventType": "Twirl" },
{ "floor": 1140, "eventType": "RecolorTrack", "startTile": [0, "Start"], "endTile": [0, "End"], "trackColorType": "Stripes", "trackColor": "ffffff", "secondaryTrackColor": "f9ff84", "trackColorAnimDuration": 2, "trackColorPulse": "None", "trackPulseLength": 10, "trackStyle": "Basic", "angleOffset": 0, "eventTag": "" },
{ "floor": 1144, "eventType": "RecolorTrack", "startTile": [0, "Start"], "endTile": [0, "End"], "trackColorType": "Single", "trackColor": "ffffff", "secondaryTrackColor": "f9ff84", "trackColorAnimDuration": 2, "trackColorPulse": "None", "trackPulseLength": 10, "trackStyle": "Basic", "angleOffset": 0, "eventTag": "" },
{ "floor": 1152, "eventType": "RecolorTrack", "startTile": [0, "Start"], "endTile": [0, "End"], "trackColorType": "Stripes", "trackColor": "ffffff", "secondaryTrackColor": "ffc0ef", "trackColorAnimDuration": 2, "trackColorPulse": "None", "trackPulseLength": 10, "trackStyle": "Basic", "angleOffset": 0, "eventTag": "" },
{ "floor": 1154, "eventType": "RecolorTrack", "startTile": [0, "Start"], "endTile": [0, "End"], "trackColorType": "Single", "trackColor": "ffffff", "secondaryTrackColor": "f9ff84", "trackColorAnimDuration": 2, "trackColorPulse": "None", "trackPulseLength": 10, "trackStyle": "Basic", "angleOffset": 0, "eventTag": "" },
{ "floor": 1158, "eventType": "RecolorTrack", "startTile": [0, "Start"], "endTile": [0, "End"], "trackColorType": "Stripes", "trackColor": "ffffff", "secondaryTrackColor": "aff8ff", "trackColorAnimDuration": 2, "trackColorPulse": "None", "trackPulseLength": 10, "trackStyle": "Basic", "angleOffset": 0, "eventTag": "" },
{ "floor": 1160, "eventType": "RecolorTrack", "startTile": [0, "Start"], "endTile": [0, "End"], "trackColorType": "Single", "trackColor": "ffffff", "secondaryTrackColor": "f9ff84", "trackColorAnimDuration": 2, "trackColorPulse": "None", "trackPulseLength": 10, "trackStyle": "Basic", "angleOffset": 0, "eventTag": "" },
{ "floor": 1164, "eventType": "RecolorTrack", "startTile": [0, "Start"], "endTile": [0, "End"], "trackColorType": "Stripes", "trackColor": "ffffff", "secondaryTrackColor": "ffcb9a", "trackColorAnimDuration": 2, "trackColorPulse": "None", "trackPulseLength": 10, "trackStyle": "Basic", "angleOffset": 0, "eventTag": "" },
{ "floor": 1166, "eventType": "RecolorTrack", "startTile": [0, "Start"], "endTile": [0, "End"], "trackColorType": "Single", "trackColor": "ffffff", "secondaryTrackColor": "f9ff84", "trackColorAnimDuration": 2, "trackColorPulse": "None", "trackPulseLength": 10, "trackStyle": "Basic", "angleOffset": 0, "eventTag": "" },
{ "floor": 1171, "eventType": "Twirl" },
{ "floor": 1173, "eventType": "Twirl" },
{ "floor": 1178, "eventType": "SetSpeed", "speedType": "Multiplier", "beatsPerMinute": 100, "bpmMultiplier": 0.5 }
]
"decorations":
[
]
}