370 lines
17 KiB
Plaintext
370 lines
17 KiB
Plaintext
{
|
|
"angleData": [0, 0, 0, 0, 0, 0, 45, 180, 315, 0, 0, 0, 90, 315, 90, 315, 90, 315, 90, 315, 0, 0, 0, 90, 999, 0, 0, 45, 180, 135, 0, 90, 999, 0, 0, 45, 180, 135, 0, 90, 999, 0, 0, 45, 180, 135, 0, 90, 999, 0, 90, 999, 0, 90, 315, 999, 0, 90, 999, 0, 90, 315, 999, 0, 90, 999, 0, 45, 180, 135, 0, 90, 999, 0, 0, 45, 180, 135, 0, 90, 999, 0, 0, 45, 180, 135, 0, 90, 999, 0, 90, 999, 0, 90, 315, 999, 0, 0, 0, 0, 0, 0, 270, 0, 90, 0, 0, 0, 270, 0, 90, 0, 270, 0, 90, -90, 0, 0, 45, 180, 90, 0, 90, 0, 270, 0, 90, 90, 0, 270, 0, 0, 45, 270, 0, 90, 0, 270, 0, 90, 0, 0, 90, 999, 0, 0, 90, 999, 0, 0, 90, 0, 270, 0, 90, 0, 0, 270, 0, 90, 90, 90, 0, 270, 0, 90, 0, 270, 0, -180, 270, 270, 315, 90, 0, 270, 0, 90, 0, 270, 0, 0, 90, 0, 270, 270, 315, 90, 0, 270, 0, 90, 0, 270, 0, 0, 90, 999, 0, 180, 270, 315, 270, 0, 0, 0, 270, 180, 180, 180, 225, 90, 180, 270, 180, 180, 180, 180, 270, 0, 270, 0, 90, 0, 0, 270, 180, 270, 0, 270, 270, 315, 90, 0, 270, 0, 270, 270, 315, 90, 0, 270, 0, 0, 0, 270, 0, 225, 0, 270, 270, 0, 90, 999, 0, 0, 0, 0, 0, 0, 0, 0, 0, 45, 180, 135, 0, 90, 999, 0, 0, 45, 180, 135, 0, 90, 999, 0, 0, 45, 180, 135, 0, 90, 999, 0, 90, 999, 0, 90, 0, 270, 0, 90, 0, 270, 0, 45, 180, 135, 0, 90, 999, 0, 0, 45, 180, 135, 0, 90, 999, 0, 0, 45, 180, 135, 0, 90, 999, 0, 90, 999, 0, 0, 270, 0, 90, 999, 0, 45, 180, 135, 0, 90, 999, 0, 0, 45, 180, 135, 0, 90, 999, 0, 0, 45, 180, 135, 0, 90, 999, 0, 90, 999, 0, 90, 0, 270, 0, 90, 0, 270, 0, 45, 180, 135, 0, 90, 999, 0, 0, 45, 180, 135, 0, 90, 999, 0, 0, 45, 180, 135, 0, 90, 999, 0, 90, 999, 0, 90, 0, 0, 0, 0, 0, 90, 0, 270, 999, 0, 0, 0, 270, 0, 90, 225, 0, 90, 0, 270, 90, 0, 0, 315, 90, 0, 270, 0, 90, 0, 270, 0, 0, 90, 0, 270, 270, 315, 90, 0, 270, 0, 90, 0, 270, 0, 0, 90, 0, 0, 270, 0, 0, 90, 0, 270, 0, 90, 0, 0, 270, 999, 0, 270, 270, 270, 0, 90, 0, 270, 0, 90, 0, 0, 270, 0, 90, 90, 45, 270, 0, 270, 0, 90, 0, 270, 0, 0, 90, 0, 270, 270, 315, 90, 0, 90, 0, 270, 0, 90, 0, 0, 270, 0, -180, 315, 999, 270, 180, 270, 0, 0, 0, 0, 90, 90, 90, 45, 270, 0, 90, 0, 0, 0, 0, 270, 0, 270, 0, 270, 0, 270, 0, 270, 270, 270, 315, 90, 0, 270, 0, 270, 270, 315, 90, 0, 270, 0, 0, 0, 0, 0, 135, 0, 315, 270, 270, 180, 999, 270, 180, 270, 0, 0, 0, 0, 0, 45, 180, 135, 0, 90, 999, 0, 0, 45, 180, 135, 0, 90, 999, 0, 0, 45, 180, 135, 0, 90, 999, 0, 90, 999, 0, 90, 0, 270, 0, 90, 0, 270, 0, 45, 180, 135, 0, 90, 999, 0, 0, 45, 180, 135, 0, 90, 999, 0, 0, 45, 180, 135, 0, 90, 0, 90, 0, 0, 0, 270, 0, 90, 0, 45, 180, 135, 0, 90, 999, 0, 0, 45, 180, 135, 0, 90, 999, 0, 0, 0, 45, 180, 90, 0, 90, 0, 270, 0, 90, 0, 270, 0, 90, 0, 45, 180, 135, 0, 90, 999, 0, 0, 45, 180, 135, 0, 90, 999, 0, 0, 45, 180, 135, 0, 90, 999, 0, 90, 999, 0, 90, 0, 90, 0, 270, 0, 0, 0, 90, 0, 270, 0, 90, 90, 90, 0, 270, 0, 0, 90, 180, 90, 0, 90, 999, 0, 90, 0, 270, 270, 0, 90, 999, 0, 0, 90, 180, 90, 0, 90, 90, 0, 225, 90, 90, 0, 270, 270, 270, 270, 270, 270, 270, 270, 0, 90, 0, 0, 0, 0, 0, 0, 0, 0, 0, 0, 45, 180, 90, 0, 0, 0, 45, 180, 90, 0, 0, 0, 45, 180, 90, 0, 90, 999, 0, 90, 0, 270, 0, 90, 0, 270, 0, 0, 45, 180, 90, 0, 0, 0, 45, 180, 90, 0, 0, 0, 45, 180, 90, 0, 90, 0, 0, 90, 0, 270, 0, 45, 180, 135, 0, 90, 999, 0, 0, 0, 45, 180, 90, 0, 0, 0, 45, 180, 90, 0, 90, 0, 270, 0, 90, 0, 270, 0, 90, 0, 45, 180, 135, 0, 90, 999, 0, 0, 45, 180, 135, 0, 90, 999, 0, 0, 45, 180, 135, 0, 90, 0, 270, 0, 0, 0, 90, 0, 270, 0, 0, 0, 90, 999, 0, 0, 0, 0, 90, 999, 0, 0, 0, 45, 180, 90, 0, 90, 999, 0, 90, 0, 270, 0, 0, 0, 0, 45, 180, 90, 0, 0, 0, 45, 180, 90, 0, 0, 0, 0, 90, 0, 270, 0, 0, 0, 90, 0, 270, 0, 0, 45, 180, 90, 0, 0, 0, 45, 180, 90, 0, 0, 0, 0, 90, 0, 270, 0, 90, 0, 270, 0, 0, 0, 0, 45, 180, 90, 0, 0, 0, 45, 180, 90, 0, 0, 0, 45, 180, 90, 0, 90, 999, 0, 0, 0, 0, 90],
|
|
"settings":
|
|
{
|
|
"version": 9 ,
|
|
"artist": "yosa",
|
|
"specialArtistType": "None",
|
|
"artistPermission": "",
|
|
"song": "神的随波逐流",
|
|
"author": "tls",
|
|
"separateCountdownTime": "Enabled",
|
|
"previewImage": "hqdefault.jpg",
|
|
"previewIcon": "",
|
|
"previewIconColor": "003f52",
|
|
"previewSongStart": 0,
|
|
"previewSongDuration": 10,
|
|
"seizureWarning": "Disabled",
|
|
"levelDesc": "说说看你的关卡是什么样的吧!",
|
|
"levelTags": "",
|
|
"artistLinks": "",
|
|
"difficulty": 1,
|
|
"songFilename": "shende-cn.wav",
|
|
"bpm": 135,
|
|
"volume": 70,
|
|
"offset": 458,
|
|
"pitch": 100,
|
|
"hitsound": "Kick",
|
|
"hitsoundVolume": 100,
|
|
"countdownTicks": 4,
|
|
"trackColorType": "Single",
|
|
"trackColor": "debb7b",
|
|
"secondaryTrackColor": "ffffff",
|
|
"trackColorAnimDuration": 2,
|
|
"trackColorPulse": "None",
|
|
"trackPulseLength": 10,
|
|
"trackStyle": "Standard",
|
|
"trackAnimation": "None",
|
|
"beatsAhead": 3,
|
|
"trackDisappearAnimation": "None",
|
|
"beatsBehind": 4,
|
|
"backgroundColor": "000000",
|
|
"showDefaultBGIfNoImage": "Enabled",
|
|
"bgImage": "",
|
|
"bgImageColor": "ffffff",
|
|
"parallax": [100, 100],
|
|
"bgDisplayMode": "FitToScreen",
|
|
"lockRot": "Disabled",
|
|
"loopBG": "Disabled",
|
|
"unscaledSize": 100,
|
|
"relativeTo": "Player",
|
|
"position": [0, 0],
|
|
"rotation": 0,
|
|
"zoom": 100,
|
|
"bgVideo": "",
|
|
"loopVideo": "Disabled",
|
|
"vidOffset": 0,
|
|
"floorIconOutlines": "Disabled",
|
|
"stickToFloors": "Disabled",
|
|
"planetEase": "Linear",
|
|
"planetEaseParts": 1,
|
|
"customClass": "",
|
|
"legacyFlash": false ,
|
|
"legacySpriteTiles": false
|
|
},
|
|
"actions":
|
|
[
|
|
{ "floor": 13, "eventType": "Twirl" },
|
|
{ "floor": 14, "eventType": "Twirl" },
|
|
{ "floor": 15, "eventType": "Twirl" },
|
|
{ "floor": 16, "eventType": "Twirl" },
|
|
{ "floor": 17, "eventType": "Twirl" },
|
|
{ "floor": 18, "eventType": "Twirl" },
|
|
{ "floor": 19, "eventType": "Twirl" },
|
|
{ "floor": 20, "eventType": "Twirl" },
|
|
{ "floor": 29, "eventType": "Twirl" },
|
|
{ "floor": 31, "eventType": "Twirl" },
|
|
{ "floor": 37, "eventType": "Twirl" },
|
|
{ "floor": 39, "eventType": "Twirl" },
|
|
{ "floor": 45, "eventType": "Twirl" },
|
|
{ "floor": 47, "eventType": "Twirl" },
|
|
{ "floor": 54, "eventType": "Twirl" },
|
|
{ "floor": 57, "eventType": "Twirl" },
|
|
{ "floor": 61, "eventType": "Twirl" },
|
|
{ "floor": 64, "eventType": "Twirl" },
|
|
{ "floor": 69, "eventType": "Twirl" },
|
|
{ "floor": 71, "eventType": "Twirl" },
|
|
{ "floor": 77, "eventType": "Twirl" },
|
|
{ "floor": 79, "eventType": "Twirl" },
|
|
{ "floor": 85, "eventType": "Twirl" },
|
|
{ "floor": 87, "eventType": "Twirl" },
|
|
{ "floor": 94, "eventType": "Twirl" },
|
|
{ "floor": 103, "eventType": "Twirl" },
|
|
{ "floor": 105, "eventType": "Twirl" },
|
|
{ "floor": 109, "eventType": "Twirl" },
|
|
{ "floor": 111, "eventType": "Twirl" },
|
|
{ "floor": 113, "eventType": "Twirl" },
|
|
{ "floor": 120, "eventType": "Twirl" },
|
|
{ "floor": 122, "eventType": "Twirl" },
|
|
{ "floor": 123, "eventType": "Twirl" },
|
|
{ "floor": 125, "eventType": "Twirl" },
|
|
{ "floor": 127, "eventType": "Twirl" },
|
|
{ "floor": 130, "eventType": "Twirl" },
|
|
{ "floor": 133, "eventType": "Twirl" },
|
|
{ "floor": 134, "eventType": "Twirl" },
|
|
{ "floor": 136, "eventType": "Twirl" },
|
|
{ "floor": 138, "eventType": "Twirl" },
|
|
{ "floor": 140, "eventType": "Twirl" },
|
|
{ "floor": 141, "eventType": "Twirl" },
|
|
{ "floor": 151, "eventType": "Twirl" },
|
|
{ "floor": 153, "eventType": "Twirl" },
|
|
{ "floor": 155, "eventType": "Twirl" },
|
|
{ "floor": 158, "eventType": "Twirl" },
|
|
{ "floor": 160, "eventType": "Twirl" },
|
|
{ "floor": 164, "eventType": "Twirl" },
|
|
{ "floor": 166, "eventType": "Twirl" },
|
|
{ "floor": 168, "eventType": "Twirl" },
|
|
{ "floor": 174, "eventType": "Twirl" },
|
|
{ "floor": 176, "eventType": "Twirl" },
|
|
{ "floor": 178, "eventType": "Twirl" },
|
|
{ "floor": 180, "eventType": "Twirl" },
|
|
{ "floor": 183, "eventType": "Twirl" },
|
|
{ "floor": 185, "eventType": "Twirl" },
|
|
{ "floor": 188, "eventType": "Twirl" },
|
|
{ "floor": 190, "eventType": "Twirl" },
|
|
{ "floor": 192, "eventType": "Twirl" },
|
|
{ "floor": 194, "eventType": "Twirl" },
|
|
{ "floor": 202, "eventType": "Twirl" },
|
|
{ "floor": 203, "eventType": "Twirl" },
|
|
{ "floor": 206, "eventType": "Twirl" },
|
|
{ "floor": 209, "eventType": "Twirl" },
|
|
{ "floor": 211, "eventType": "Twirl" },
|
|
{ "floor": 212, "eventType": "Twirl" },
|
|
{ "floor": 214, "eventType": "Twirl" },
|
|
{ "floor": 218, "eventType": "Twirl" },
|
|
{ "floor": 221, "eventType": "Twirl" },
|
|
{ "floor": 222, "eventType": "Twirl" },
|
|
{ "floor": 223, "eventType": "Twirl" },
|
|
{ "floor": 226, "eventType": "Twirl" },
|
|
{ "floor": 229, "eventType": "Twirl" },
|
|
{ "floor": 230, "eventType": "Twirl" },
|
|
{ "floor": 233, "eventType": "Twirl" },
|
|
{ "floor": 235, "eventType": "Twirl" },
|
|
{ "floor": 236, "eventType": "Twirl" },
|
|
{ "floor": 238, "eventType": "Twirl" },
|
|
{ "floor": 240, "eventType": "Twirl" },
|
|
{ "floor": 242, "eventType": "Twirl" },
|
|
{ "floor": 247, "eventType": "Twirl" },
|
|
{ "floor": 248, "eventType": "Twirl" },
|
|
{ "floor": 249, "eventType": "Twirl" },
|
|
{ "floor": 252, "eventType": "Twirl" },
|
|
{ "floor": 265, "eventType": "Twirl" },
|
|
{ "floor": 267, "eventType": "Twirl" },
|
|
{ "floor": 273, "eventType": "Twirl" },
|
|
{ "floor": 275, "eventType": "Twirl" },
|
|
{ "floor": 281, "eventType": "Twirl" },
|
|
{ "floor": 283, "eventType": "Twirl" },
|
|
{ "floor": 290, "eventType": "Twirl" },
|
|
{ "floor": 292, "eventType": "Twirl" },
|
|
{ "floor": 294, "eventType": "Twirl" },
|
|
{ "floor": 296, "eventType": "Twirl" },
|
|
{ "floor": 299, "eventType": "Twirl" },
|
|
{ "floor": 301, "eventType": "Twirl" },
|
|
{ "floor": 307, "eventType": "Twirl" },
|
|
{ "floor": 309, "eventType": "Twirl" },
|
|
{ "floor": 315, "eventType": "Twirl" },
|
|
{ "floor": 317, "eventType": "Twirl" },
|
|
{ "floor": 331, "eventType": "Twirl" },
|
|
{ "floor": 333, "eventType": "Twirl" },
|
|
{ "floor": 339, "eventType": "Twirl" },
|
|
{ "floor": 341, "eventType": "Twirl" },
|
|
{ "floor": 347, "eventType": "Twirl" },
|
|
{ "floor": 349, "eventType": "Twirl" },
|
|
{ "floor": 356, "eventType": "Twirl" },
|
|
{ "floor": 358, "eventType": "Twirl" },
|
|
{ "floor": 360, "eventType": "Twirl" },
|
|
{ "floor": 362, "eventType": "Twirl" },
|
|
{ "floor": 365, "eventType": "Twirl" },
|
|
{ "floor": 367, "eventType": "Twirl" },
|
|
{ "floor": 373, "eventType": "Twirl" },
|
|
{ "floor": 375, "eventType": "Twirl" },
|
|
{ "floor": 381, "eventType": "Twirl" },
|
|
{ "floor": 383, "eventType": "Twirl" },
|
|
{ "floor": 390, "eventType": "Twirl" },
|
|
{ "floor": 403, "eventType": "Twirl" },
|
|
{ "floor": 408, "eventType": "Twirl" },
|
|
{ "floor": 414, "eventType": "Twirl" },
|
|
{ "floor": 415, "eventType": "Twirl" },
|
|
{ "floor": 417, "eventType": "Twirl" },
|
|
{ "floor": 419, "eventType": "Twirl" },
|
|
{ "floor": 421, "eventType": "Twirl" },
|
|
{ "floor": 424, "eventType": "Twirl" },
|
|
{ "floor": 426, "eventType": "Twirl" },
|
|
{ "floor": 429, "eventType": "Twirl" },
|
|
{ "floor": 431, "eventType": "Twirl" },
|
|
{ "floor": 433, "eventType": "Twirl" },
|
|
{ "floor": 435, "eventType": "Twirl" },
|
|
{ "floor": 438, "eventType": "Twirl" },
|
|
{ "floor": 441, "eventType": "Twirl" },
|
|
{ "floor": 444, "eventType": "Twirl" },
|
|
{ "floor": 446, "eventType": "Twirl" },
|
|
{ "floor": 448, "eventType": "Twirl" },
|
|
{ "floor": 456, "eventType": "Twirl" },
|
|
{ "floor": 458, "eventType": "Twirl" },
|
|
{ "floor": 460, "eventType": "Twirl" },
|
|
{ "floor": 462, "eventType": "Twirl" },
|
|
{ "floor": 465, "eventType": "Twirl" },
|
|
{ "floor": 467, "eventType": "Twirl" },
|
|
{ "floor": 470, "eventType": "Twirl" },
|
|
{ "floor": 471, "eventType": "Twirl" },
|
|
{ "floor": 472, "eventType": "Twirl" },
|
|
{ "floor": 474, "eventType": "Twirl" },
|
|
{ "floor": 476, "eventType": "Twirl" },
|
|
{ "floor": 479, "eventType": "Twirl" },
|
|
{ "floor": 481, "eventType": "Twirl" },
|
|
{ "floor": 484, "eventType": "Twirl" },
|
|
{ "floor": 485, "eventType": "Twirl" },
|
|
{ "floor": 486, "eventType": "Twirl" },
|
|
{ "floor": 488, "eventType": "Twirl" },
|
|
{ "floor": 490, "eventType": "Twirl" },
|
|
{ "floor": 493, "eventType": "Twirl" },
|
|
{ "floor": 498, "eventType": "Twirl" },
|
|
{ "floor": 499, "eventType": "Twirl" },
|
|
{ "floor": 505, "eventType": "Twirl" },
|
|
{ "floor": 509, "eventType": "Twirl" },
|
|
{ "floor": 511, "eventType": "Twirl" },
|
|
{ "floor": 516, "eventType": "Twirl" },
|
|
{ "floor": 518, "eventType": "Twirl" },
|
|
{ "floor": 520, "eventType": "Twirl" },
|
|
{ "floor": 522, "eventType": "Twirl" },
|
|
{ "floor": 524, "eventType": "Twirl" },
|
|
{ "floor": 528, "eventType": "Twirl" },
|
|
{ "floor": 530, "eventType": "Twirl" },
|
|
{ "floor": 531, "eventType": "Twirl" },
|
|
{ "floor": 532, "eventType": "Twirl" },
|
|
{ "floor": 535, "eventType": "Twirl" },
|
|
{ "floor": 537, "eventType": "Twirl" },
|
|
{ "floor": 543, "eventType": "Twirl" },
|
|
{ "floor": 550, "eventType": "Twirl" },
|
|
{ "floor": 551, "eventType": "Twirl" },
|
|
{ "floor": 553, "eventType": "Twirl" },
|
|
{ "floor": 559, "eventType": "Twirl" },
|
|
{ "floor": 561, "eventType": "Twirl" },
|
|
{ "floor": 567, "eventType": "Twirl" },
|
|
{ "floor": 569, "eventType": "Twirl" },
|
|
{ "floor": 575, "eventType": "Twirl" },
|
|
{ "floor": 577, "eventType": "Twirl" },
|
|
{ "floor": 584, "eventType": "Twirl" },
|
|
{ "floor": 586, "eventType": "Twirl" },
|
|
{ "floor": 588, "eventType": "Twirl" },
|
|
{ "floor": 590, "eventType": "Twirl" },
|
|
{ "floor": 593, "eventType": "Twirl" },
|
|
{ "floor": 595, "eventType": "Twirl" },
|
|
{ "floor": 601, "eventType": "Twirl" },
|
|
{ "floor": 603, "eventType": "Twirl" },
|
|
{ "floor": 609, "eventType": "Twirl" },
|
|
{ "floor": 611, "eventType": "Twirl" },
|
|
{ "floor": 612, "eventType": "Twirl" },
|
|
{ "floor": 613, "eventType": "Twirl" },
|
|
{ "floor": 614, "eventType": "Twirl" },
|
|
{ "floor": 618, "eventType": "Twirl" },
|
|
{ "floor": 620, "eventType": "Twirl" },
|
|
{ "floor": 621, "eventType": "Twirl" },
|
|
{ "floor": 623, "eventType": "Twirl" },
|
|
{ "floor": 625, "eventType": "Twirl" },
|
|
{ "floor": 631, "eventType": "Twirl" },
|
|
{ "floor": 633, "eventType": "Twirl" },
|
|
{ "floor": 640, "eventType": "Twirl" },
|
|
{ "floor": 642, "eventType": "Twirl" },
|
|
{ "floor": 643, "eventType": "Twirl" },
|
|
{ "floor": 645, "eventType": "Twirl" },
|
|
{ "floor": 647, "eventType": "Twirl" },
|
|
{ "floor": 649, "eventType": "Twirl" },
|
|
{ "floor": 651, "eventType": "Twirl" },
|
|
{ "floor": 652, "eventType": "Twirl" },
|
|
{ "floor": 654, "eventType": "Twirl" },
|
|
{ "floor": 656, "eventType": "Twirl" },
|
|
{ "floor": 662, "eventType": "Twirl" },
|
|
{ "floor": 664, "eventType": "Twirl" },
|
|
{ "floor": 670, "eventType": "Twirl" },
|
|
{ "floor": 672, "eventType": "Twirl" },
|
|
{ "floor": 679, "eventType": "Twirl" },
|
|
{ "floor": 683, "eventType": "Twirl" },
|
|
{ "floor": 687, "eventType": "Twirl" },
|
|
{ "floor": 689, "eventType": "Twirl" },
|
|
{ "floor": 691, "eventType": "Twirl" },
|
|
{ "floor": 695, "eventType": "Twirl" },
|
|
{ "floor": 699, "eventType": "Twirl" },
|
|
{ "floor": 701, "eventType": "Twirl" },
|
|
{ "floor": 705, "eventType": "Twirl" },
|
|
{ "floor": 707, "eventType": "Twirl" },
|
|
{ "floor": 715, "eventType": "Twirl" },
|
|
{ "floor": 717, "eventType": "Twirl" },
|
|
{ "floor": 718, "eventType": "Twirl" },
|
|
{ "floor": 725, "eventType": "Twirl" },
|
|
{ "floor": 734, "eventType": "Twirl" },
|
|
{ "floor": 740, "eventType": "Twirl" },
|
|
{ "floor": 741, "eventType": "Twirl" },
|
|
{ "floor": 742, "eventType": "Twirl" },
|
|
{ "floor": 746, "eventType": "Twirl" },
|
|
{ "floor": 748, "eventType": "Twirl" },
|
|
{ "floor": 752, "eventType": "Twirl" },
|
|
{ "floor": 754, "eventType": "Twirl" },
|
|
{ "floor": 758, "eventType": "Twirl" },
|
|
{ "floor": 760, "eventType": "Twirl" },
|
|
{ "floor": 764, "eventType": "Twirl" },
|
|
{ "floor": 766, "eventType": "Twirl" },
|
|
{ "floor": 768, "eventType": "Twirl" },
|
|
{ "floor": 770, "eventType": "Twirl" },
|
|
{ "floor": 774, "eventType": "Twirl" },
|
|
{ "floor": 776, "eventType": "Twirl" },
|
|
{ "floor": 780, "eventType": "Twirl" },
|
|
{ "floor": 782, "eventType": "Twirl" },
|
|
{ "floor": 786, "eventType": "Twirl" },
|
|
{ "floor": 788, "eventType": "Twirl" },
|
|
{ "floor": 789, "eventType": "Twirl" },
|
|
{ "floor": 794, "eventType": "Twirl" },
|
|
{ "floor": 797, "eventType": "Twirl" },
|
|
{ "floor": 799, "eventType": "Twirl" },
|
|
{ "floor": 806, "eventType": "Twirl" },
|
|
{ "floor": 808, "eventType": "Twirl" },
|
|
{ "floor": 812, "eventType": "Twirl" },
|
|
{ "floor": 814, "eventType": "Twirl" },
|
|
{ "floor": 815, "eventType": "Twirl" },
|
|
{ "floor": 817, "eventType": "Twirl" },
|
|
{ "floor": 819, "eventType": "Twirl" },
|
|
{ "floor": 821, "eventType": "Twirl" },
|
|
{ "floor": 823, "eventType": "Twirl" },
|
|
{ "floor": 824, "eventType": "Twirl" },
|
|
{ "floor": 826, "eventType": "Twirl" },
|
|
{ "floor": 828, "eventType": "Twirl" },
|
|
{ "floor": 834, "eventType": "Twirl" },
|
|
{ "floor": 836, "eventType": "Twirl" },
|
|
{ "floor": 842, "eventType": "Twirl" },
|
|
{ "floor": 844, "eventType": "Twirl" },
|
|
{ "floor": 845, "eventType": "Twirl" },
|
|
{ "floor": 847, "eventType": "Twirl" },
|
|
{ "floor": 851, "eventType": "Twirl" },
|
|
{ "floor": 853, "eventType": "Twirl" },
|
|
{ "floor": 869, "eventType": "Twirl" },
|
|
{ "floor": 871, "eventType": "Twirl" },
|
|
{ "floor": 875, "eventType": "Twirl" },
|
|
{ "floor": 877, "eventType": "Twirl" },
|
|
{ "floor": 883, "eventType": "Twirl" },
|
|
{ "floor": 885, "eventType": "Twirl" },
|
|
{ "floor": 889, "eventType": "Twirl" },
|
|
{ "floor": 891, "eventType": "Twirl" },
|
|
{ "floor": 895, "eventType": "Twirl" },
|
|
{ "floor": 897, "eventType": "Twirl" },
|
|
{ "floor": 901, "eventType": "Twirl" },
|
|
{ "floor": 903, "eventType": "Twirl" },
|
|
{ "floor": 907, "eventType": "Twirl" },
|
|
{ "floor": 909, "eventType": "Twirl" },
|
|
{ "floor": 913, "eventType": "Twirl" },
|
|
{ "floor": 915, "eventType": "Twirl" },
|
|
{ "floor": 919, "eventType": "Twirl" },
|
|
{ "floor": 921, "eventType": "Twirl" },
|
|
{ "floor": 923, "eventType": "Twirl" },
|
|
{ "floor": 925, "eventType": "Twirl" },
|
|
{ "floor": 931, "eventType": "Twirl" },
|
|
{ "floor": 933, "eventType": "Twirl" },
|
|
{ "floor": 937, "eventType": "Twirl" },
|
|
{ "floor": 939, "eventType": "Twirl" },
|
|
{ "floor": 943, "eventType": "Twirl" },
|
|
{ "floor": 945, "eventType": "Twirl" }
|
|
]
|
|
"decorations":
|
|
[
|
|
]
|
|
}
|