finish
This commit is contained in:
@@ -1,5 +1,5 @@
|
||||
{
|
||||
"angleData": [0, 0, 0, 0, 0, 0, 45, 180, 315, 0, 0, 0, 90, 315, 90, 315, 90, 315, 90, 315, 0, 0, 0, 90, 999, 0, 0, 45, 180, 135, 0, 90, 999, 0, 0, 45, 180, 135, 0, 90, 999, 0, 0, 45, 180, 135, 0, 90, 999, 0, 90, 999, 0, 90, 315, 999, 0, 90, 999, 0, 90, 315, 999, 0, 90, 999, 0, 45, 180, 135, 0, 90, 999, 0, 0, 45, 180, 135, 0, 90, 999, 0, 0, 45, 180, 135, 0, 90, 999, 0, 90, 999, 0, 90, 315, 999, 0, 0, 0, 0, 0, 0, 270, 0, 90, 0, 0, 0, 270, 0, 90, 0, 270, 0, 90, -90, 0, 0, 45, 180, 90, 0, 90, 0, 270, 0, 90, 90, 0, 270, 0, 0, 45, 270, 0, 90, 0, 270, 0, 90, 0, 0, 90, 999, 0, 0, 90, 999, 0, 0, 90, 0, 270, 0, 90, 0, 0, 270, 0, 90, 90, 90, 0, 270, 0, 90, 0, 270, 0, -180, 270, 270, 315, 90, 0, 270, 0, 90, 0, 270, 0, 0, 90, 0, 270, 270, 315, 90, 0, 270, 0, 90, 0, 270, 0, 0, 90, 999, 0, 180, 270, 315, 270, 0, 315, 180, 180, 180, 225, 0, 270, 0, 270, 270, 270, 270, 0, 90, 0, 90, 0, 0, 270, 180, 270, 0, 270, 270, 315, 90, 0, 270, 0, 270, 270, 315, 90, 0, 270, 0, 0, 0, -180, 315, 180, 270, 270, 180, 270, 270, 0, 0, 0, 0, 0, 0, 0, 0, 45, 180, 135, 0, 90, 999, 0, 0, 45, 180, 135, 0, 90, 999, 0, 0, 45, 180, 135, 0, 90, 999, 0, 90, 999, 0, 90, 0, 270, 0, 90, 0, 270, 0, 45, 180, 135, 0, 90, 999, 0, 0, 45, 180, 135, 0, 90, 999, 0, 0, 45, 180, 135, 0, 90, 999, 0, 90, 999, 0, 0, 270, 0, 90, 999, 0, 45, 180, 135, 0, 90, 999, 0, 0, 45, 180, 135, 0, 90, 999, 0, 0, 45, 180, 135, 0, 90, 999, 0, 90, 999, 0, 90, 0, 270, 0, 90, 0, 270, 0, 45, 180, 135, 0, 90, 999, 0, 0, 45, 180, 135, 0, 90, 999, 0, 0, 45, 180, 135, 0, 90, 999, 0, 90, 999, 0, 90, 0, 0, 0, 0, 0, 90, 0, 270, 999, 0, 0, 0, 270, 0, 90, 225, 0, 90, 0, 270, 90, 0, 0, 90, 0, 270, 0, 90, 0, 270, 0, 0, 90, 0, 270, 0, 270, 0, 90, 0, 270, 0, 90, 0, 0, 270, 0, 0, 90, 0, 0, 270, 0, 90, 0, 270, 0, 0, 90, 0, 270, 270, 270, 0, 0, 0, 90, 0, 0, 270, 0, 90, 45, 270, 315, 90, 0, 270, 0, 90, 0, 270, 0, 0, 90, 0, 270, 315, 90, 45, 270, 0, 90, 0, 270, 0, 90, 0, 0, 270, 999, 0, 90, 0, 270, 0, 0, 90, 45, 180, 90, 90, 45, 270, 315, 90, 0, 270, 0, 90, 0, 0, 0, 270, 0, 270, 0, 270, 0, 270, 0, 225, 999, 270, 0, 90, 45, 270, 315, 90, 0, 270, 270, 315, 90, 45, 270, 0, 90, 0, 270, 0, 0, 270, 0, 135, 0, 315, 270, 270, 180, 999, 270, 180, 270, 0, 0, 0, 0, 0, 45, 180, 135, 0, 90, 999, 0, 0, 45, 180, 135, 0, 90, 999, 0, 0, 45, 180, 135, 0, 90, 999, 0, 90, 999, 0, 90, 0, 270, 0, 90, 0, 270, 0, 45, 180, 135, 0, 0, 0, 45, 180, 135, 0, 90, 999, 0, 45, 180, 135, 0, 45, 180, 90, 0, 90, 0, 270, 0, 90, 0, 270, 135, 0, 45, 180, 135, 0, 90, 999, 0, 0, 45, 180, 135, 0, 90, 999, 0, 0, 45, 180, 135, 0, 90, 999, 0, 90, 999, 0, 90, 0, 270, 0, 90, 0, 270, 0, 45, 180, 135, 0, 90, 999, 0, 0, 45, 180, 135, 0, 90, 999, 0, 0, 45, 180, 135, 0, 90, 999, 0, 90, 999, 0, 90, 0, 90, 0, 270, 0, 0, 0, 90, 0, 270, 270, 0, 90, 90, 0, 270, 0, 45, 180, 135, 0, 90, 999, 0, 90, 90, 0, 270, 270, 0, 90, 999, 0, 45, 180, 135, 0, 90, 999, 0, 90, 90, 0, 225, 90, 90, 0, 270, 270, 0, 90, 90, 0, 270, 270, 0, 90, 0, 0, 0, 0, 0, 0, 0, 0, 0, 45, 180, 135, 0, 90, 999, 0, 0, 45, 180, 135, 0, 90, 999, 0, 0, 45, 180, 135, 0, 90, 999, 0, 90, 999, 0, 90, 0, 270, 0, 90, 0, 270, 0, 45, 180, 135, 0, 90, 999, 0, 0, 0, 45, 180, 90, 0, 0, 0, 0, 90, 0, 270, 0, 90, 0, 90, 0, 270, 0, 45, 180, 135, 0, 90, 999, 0, 0, 0, 45, 180, 90, 0, 0, 0, 45, 180, 90, 0, 90, 0, 270, 0, 270, 0, 0, 0, 45, 180, 135, 0, 90, 999, 0, 0, 0, 45, 180, 90, 0, 0, 0, 45, 180, 90, 0, 90, 0, 270, 0, 0, 90, 999, 0, 90, 999, 0, 45, 180, 135, 0, 90, 999, 0, 0, 45, 180, 135, 0, 90, 999, 0, 0, 45, 180, 135, 0, 90, 999, 0, 90, 999, 0, 90, 0, 270, 0, 0, 0, 45, 180, 135, 0, 90, 999, 0, 0, 45, 180, 135, 0, 90, 999, 0, 0, 45, 180, 135, 0, 90, 999, 0, 90, 999, 0, 0, 0, 90, 999, 0, 90, 999, 0, 45, 180, 135, 0, 90, 999, 0, 0, 45, 180, 135, 0, 90, 999, 0, 0, 45, 180, 135, 0, 90, 999, 0, 90, 999, 0, 90, 0, 270, 0, 0, 0, 45, 180, 135, 0, 90, 999, 0, 0, 45, 180, 135, 0, 90, 999, 0, 0, 45, 180, 135, 0, 90, 999, 0, 90, 999, 0, 0, 0, 0, 90],
|
||||
"angleData": [0, 0, 0, 0, 0, 0, 45, 180, 315, 0, 0, 0, 90, 315, 90, 315, 90, 315, 90, 315, 0, 0, 0, 90, 999, 0, 0, 45, 180, 135, 0, 90, 999, 0, 0, 45, 180, 135, 0, 90, 999, 0, 0, 45, 180, 135, 0, 90, 999, 0, 90, 999, 0, 90, 315, 999, 0, 90, 999, 0, 90, 315, 999, 0, 90, 999, 0, 45, 180, 135, 0, 90, 999, 0, 0, 45, 180, 135, 0, 90, 999, 0, 0, 45, 180, 135, 0, 90, 999, 0, 90, 999, 0, 90, 315, 999, 0, 0, 0, 0, 0, 0, 270, 0, 90, 0, 0, 0, 270, 0, 90, 0, 270, 0, 90, -90, 0, 0, 45, 180, 90, 0, 90, 0, 270, 0, 90, 90, 0, 270, 0, 0, 45, 270, 0, 90, 0, 270, 0, 90, 0, 0, 90, 999, 0, 0, 90, 999, 0, 0, 90, 0, 270, 0, 90, 0, 0, 270, 0, 90, 90, 90, 0, 270, 0, 90, 0, 270, 0, -180, 270, 270, 315, 90, 0, 270, 0, 90, 0, 270, 0, 0, 90, 0, 270, 270, 315, 90, 0, 270, 0, 90, 0, 270, 0, 0, 90, 999, 0, 180, 270, 315, 270, 0, 315, 180, 180, 180, 225, 0, 270, 0, 270, 270, 270, 270, 0, 90, 0, 90, 0, 0, 270, 180, 270, 0, 270, 270, 315, 90, 0, 270, 0, 270, 270, 315, 90, 0, 270, 0, 0, 0, -180, 315, 180, 270, 270, 180, 270, 270, 0, 0, 0, 0, 0, 0, 0, 0, 45, 180, 135, 0, 90, 999, 0, 0, 45, 180, 135, 0, 90, 999, 0, 0, 45, 180, 135, 0, 90, 999, 0, 90, 999, 0, 90, 0, 270, 0, 90, 0, 270, 0, 45, 180, 135, 0, 90, 999, 0, 0, 45, 180, 135, 0, 90, 999, 0, 0, 45, 180, 135, 0, 90, 999, 0, 90, 999, 0, 0, 270, 0, 90, 999, 0, 45, 180, 135, 0, 90, 999, 0, 0, 45, 180, 135, 0, 90, 999, 0, 0, 45, 180, 135, 0, 90, 999, 0, 90, 999, 0, 90, 0, 270, 0, 90, 0, 270, 0, 45, 180, 135, 0, 90, 999, 0, 0, 45, 180, 135, 0, 90, 999, 0, 0, 45, 180, 135, 0, 90, 999, 0, 90, 999, 0, 90, 0, 0, 0, 0, 0, 90, 0, 270, 999, 0, 0, 0, 270, 0, 90, 225, 0, 90, 0, 270, 90, 0, 0, 315, 90, 0, 270, 0, 90, 0, 270, 0, 0, 90, 0, 270, 270, 315, 90, 0, 270, 0, 90, 0, 270, 0, 0, 90, 0, 0, 270, 0, 0, 90, 0, 270, 0, 90, 0, 0, 270, 999, 0, 270, 270, 270, 0, 90, 0, 270, 0, 90, 0, 0, 270, 0, 90, 90, 45, 270, 0, 270, 0, 90, 0, 270, 0, 0, 90, 0, 270, 270, 315, 90, 0, 90, 0, 270, 0, 90, 0, 0, 270, 0, -180, 315, 999, 270, 180, 270, 0, 0, 0, 0, 90, 90, 90, 45, 270, 0, 90, 0, 0, 0, 0, 270, 0, 270, 0, 270, 0, 270, 0, 270, 270, 270, 315, 90, 0, 270, 0, 270, 270, 315, 90, 0, 270, 0, 0, 0, 0, 0, 135, 0, 315, 270, 270, 180, 999, 270, 180, 270, 0, 0, 0, 0, 0, 45, 180, 135, 0, 90, 999, 0, 0, 45, 180, 135, 0, 90, 999, 0, 0, 45, 180, 135, 0, 90, 999, 0, 90, 999, 0, 90, 0, 270, 0, 90, 0, 270, 0, 45, 180, 135, 0, 90, 999, 0, 0, 45, 180, 135, 0, 90, 999, 0, 0, 45, 180, 135, 0, 90, 0, 90, 0, 0, 0, 270, 0, 90, 0, 45, 180, 135, 0, 90, 999, 0, 0, 45, 180, 135, 0, 90, 999, 0, 0, 0, 45, 180, 90, 0, 90, 0, 270, 0, 90, 0, 270, 0, 90, 0, 45, 180, 135, 0, 90, 999, 0, 0, 45, 180, 135, 0, 90, 999, 0, 0, 45, 180, 135, 0, 90, 999, 0, 90, 999, 0, 90, 0, 90, 0, 270, 0, 0, 0, 90, 0, 270, 0, 90, 90, 90, 0, 270, 0, 0, 90, 180, 90, 0, 90, 999, 0, 90, 0, 270, 270, 0, 90, 999, 0, 0, 90, 180, 90, 0, 90, 90, 0, 225, 90, 90, 0, 270, 270, 270, 270, 270, 270, 270, 270, 0, 90, 0, 0, 0, 0, 0, 0, 0, 0, 0, 0, 45, 180, 90, 0, 0, 0, 45, 180, 90, 0, 0, 0, 45, 180, 90, 0, 90, 999, 0, 90, 0, 270, 0, 90, 0, 270, 0, 0, 45, 180, 90, 0, 0, 0, 45, 180, 90, 0, 0, 0, 45, 180, 90, 0, 90, 0, 0, 90, 0, 270, 0, 45, 180, 135, 0, 90, 999, 0, 0, 0, 45, 180, 90, 0, 0, 0, 45, 180, 90, 0, 90, 0, 270, 0, 90, 0, 270, 0, 90, 0, 45, 180, 135, 0, 90, 999, 0, 0, 45, 180, 135, 0, 90, 999, 0, 0, 45, 180, 135, 0, 90, 0, 270, 0, 0, 0, 90, 0, 270, 0, 0, 0, 90, 999, 0, 0, 0, 0, 90, 999, 0, 0, 0, 45, 180, 90, 0, 90, 999, 0, 90, 0, 270, 0, 0, 0, 0, 45, 180, 90, 0, 0, 0, 45, 180, 90, 0, 0, 0, 0, 90, 0, 270, 0, 0, 0, 90, 0, 270, 0, 0, 45, 180, 90, 0, 0, 0, 45, 180, 90, 0, 0, 0, 0, 90, 0, 270, 0, 90, 0, 270, 0, 0, 0, 0, 45, 180, 90, 0, 0, 0, 45, 180, 90, 0, 0, 0, 45, 180, 90, 0, 90, 999, 0, 0, 0, 0, 90],
|
||||
"settings":
|
||||
{
|
||||
"version": 9 ,
|
||||
@@ -21,7 +21,7 @@
|
||||
"difficulty": 1,
|
||||
"songFilename": "shende-cn.wav",
|
||||
"bpm": 135,
|
||||
"volume": 40,
|
||||
"volume": 70,
|
||||
"offset": 458,
|
||||
"pitch": 100,
|
||||
"hitsound": "Kick",
|
||||
@@ -184,180 +184,184 @@
|
||||
{ "floor": 398, "eventType": "Twirl" },
|
||||
{ "floor": 403, "eventType": "Twirl" },
|
||||
{ "floor": 409, "eventType": "Twirl" },
|
||||
{ "floor": 411, "eventType": "Twirl" },
|
||||
{ "floor": 413, "eventType": "Twirl" },
|
||||
{ "floor": 415, "eventType": "Twirl" },
|
||||
{ "floor": 418, "eventType": "Twirl" },
|
||||
{ "floor": 420, "eventType": "Twirl" },
|
||||
{ "floor": 422, "eventType": "Twirl" },
|
||||
{ "floor": 410, "eventType": "Twirl" },
|
||||
{ "floor": 412, "eventType": "Twirl" },
|
||||
{ "floor": 414, "eventType": "Twirl" },
|
||||
{ "floor": 416, "eventType": "Twirl" },
|
||||
{ "floor": 419, "eventType": "Twirl" },
|
||||
{ "floor": 421, "eventType": "Twirl" },
|
||||
{ "floor": 424, "eventType": "Twirl" },
|
||||
{ "floor": 426, "eventType": "Twirl" },
|
||||
{ "floor": 428, "eventType": "Twirl" },
|
||||
{ "floor": 431, "eventType": "Twirl" },
|
||||
{ "floor": 434, "eventType": "Twirl" },
|
||||
{ "floor": 437, "eventType": "Twirl" },
|
||||
{ "floor": 430, "eventType": "Twirl" },
|
||||
{ "floor": 433, "eventType": "Twirl" },
|
||||
{ "floor": 436, "eventType": "Twirl" },
|
||||
{ "floor": 439, "eventType": "Twirl" },
|
||||
{ "floor": 441, "eventType": "Twirl" },
|
||||
{ "floor": 444, "eventType": "Twirl" },
|
||||
{ "floor": 448, "eventType": "Twirl" },
|
||||
{ "floor": 452, "eventType": "Twirl" },
|
||||
{ "floor": 443, "eventType": "Twirl" },
|
||||
{ "floor": 451, "eventType": "Twirl" },
|
||||
{ "floor": 453, "eventType": "Twirl" },
|
||||
{ "floor": 455, "eventType": "Twirl" },
|
||||
{ "floor": 457, "eventType": "Twirl" },
|
||||
{ "floor": 459, "eventType": "Twirl" },
|
||||
{ "floor": 461, "eventType": "Twirl" },
|
||||
{ "floor": 463, "eventType": "Twirl" },
|
||||
{ "floor": 460, "eventType": "Twirl" },
|
||||
{ "floor": 462, "eventType": "Twirl" },
|
||||
{ "floor": 465, "eventType": "Twirl" },
|
||||
{ "floor": 466, "eventType": "Twirl" },
|
||||
{ "floor": 467, "eventType": "Twirl" },
|
||||
{ "floor": 470, "eventType": "Twirl" },
|
||||
{ "floor": 472, "eventType": "Twirl" },
|
||||
{ "floor": 469, "eventType": "Twirl" },
|
||||
{ "floor": 471, "eventType": "Twirl" },
|
||||
{ "floor": 474, "eventType": "Twirl" },
|
||||
{ "floor": 476, "eventType": "Twirl" },
|
||||
{ "floor": 478, "eventType": "Twirl" },
|
||||
{ "floor": 479, "eventType": "Twirl" },
|
||||
{ "floor": 480, "eventType": "Twirl" },
|
||||
{ "floor": 482, "eventType": "Twirl" },
|
||||
{ "floor": 490, "eventType": "Twirl" },
|
||||
{ "floor": 481, "eventType": "Twirl" },
|
||||
{ "floor": 483, "eventType": "Twirl" },
|
||||
{ "floor": 485, "eventType": "Twirl" },
|
||||
{ "floor": 488, "eventType": "Twirl" },
|
||||
{ "floor": 493, "eventType": "Twirl" },
|
||||
{ "floor": 499, "eventType": "Twirl" },
|
||||
{ "floor": 501, "eventType": "Twirl" },
|
||||
{ "floor": 503, "eventType": "Twirl" },
|
||||
{ "floor": 505, "eventType": "Twirl" },
|
||||
{ "floor": 509, "eventType": "Twirl" },
|
||||
{ "floor": 494, "eventType": "Twirl" },
|
||||
{ "floor": 500, "eventType": "Twirl" },
|
||||
{ "floor": 504, "eventType": "Twirl" },
|
||||
{ "floor": 506, "eventType": "Twirl" },
|
||||
{ "floor": 511, "eventType": "Twirl" },
|
||||
{ "floor": 513, "eventType": "Twirl" },
|
||||
{ "floor": 515, "eventType": "Twirl" },
|
||||
{ "floor": 517, "eventType": "Twirl" },
|
||||
{ "floor": 519, "eventType": "Twirl" },
|
||||
{ "floor": 521, "eventType": "Twirl" },
|
||||
{ "floor": 523, "eventType": "Twirl" },
|
||||
{ "floor": 525, "eventType": "Twirl" },
|
||||
{ "floor": 526, "eventType": "Twirl" },
|
||||
{ "floor": 527, "eventType": "Twirl" },
|
||||
{ "floor": 530, "eventType": "Twirl" },
|
||||
{ "floor": 532, "eventType": "Twirl" },
|
||||
{ "floor": 534, "eventType": "Twirl" },
|
||||
{ "floor": 536, "eventType": "Twirl" },
|
||||
{ "floor": 541, "eventType": "Twirl" },
|
||||
{ "floor": 538, "eventType": "Twirl" },
|
||||
{ "floor": 545, "eventType": "Twirl" },
|
||||
{ "floor": 546, "eventType": "Twirl" },
|
||||
{ "floor": 548, "eventType": "Twirl" },
|
||||
{ "floor": 549, "eventType": "Twirl" },
|
||||
{ "floor": 551, "eventType": "Twirl" },
|
||||
{ "floor": 557, "eventType": "Twirl" },
|
||||
{ "floor": 559, "eventType": "Twirl" },
|
||||
{ "floor": 565, "eventType": "Twirl" },
|
||||
{ "floor": 567, "eventType": "Twirl" },
|
||||
{ "floor": 573, "eventType": "Twirl" },
|
||||
{ "floor": 575, "eventType": "Twirl" },
|
||||
{ "floor": 582, "eventType": "Twirl" },
|
||||
{ "floor": 584, "eventType": "Twirl" },
|
||||
{ "floor": 586, "eventType": "Twirl" },
|
||||
{ "floor": 554, "eventType": "Twirl" },
|
||||
{ "floor": 556, "eventType": "Twirl" },
|
||||
{ "floor": 562, "eventType": "Twirl" },
|
||||
{ "floor": 564, "eventType": "Twirl" },
|
||||
{ "floor": 570, "eventType": "Twirl" },
|
||||
{ "floor": 572, "eventType": "Twirl" },
|
||||
{ "floor": 579, "eventType": "Twirl" },
|
||||
{ "floor": 581, "eventType": "Twirl" },
|
||||
{ "floor": 583, "eventType": "Twirl" },
|
||||
{ "floor": 585, "eventType": "Twirl" },
|
||||
{ "floor": 588, "eventType": "Twirl" },
|
||||
{ "floor": 591, "eventType": "Twirl" },
|
||||
{ "floor": 593, "eventType": "Twirl" },
|
||||
{ "floor": 597, "eventType": "Twirl" },
|
||||
{ "floor": 599, "eventType": "Twirl" },
|
||||
{ "floor": 590, "eventType": "Twirl" },
|
||||
{ "floor": 596, "eventType": "Twirl" },
|
||||
{ "floor": 598, "eventType": "Twirl" },
|
||||
{ "floor": 604, "eventType": "Twirl" },
|
||||
{ "floor": 606, "eventType": "Twirl" },
|
||||
{ "floor": 607, "eventType": "Twirl" },
|
||||
{ "floor": 608, "eventType": "Twirl" },
|
||||
{ "floor": 610, "eventType": "Twirl" },
|
||||
{ "floor": 611, "eventType": "Twirl" },
|
||||
{ "floor": 609, "eventType": "Twirl" },
|
||||
{ "floor": 613, "eventType": "Twirl" },
|
||||
{ "floor": 614, "eventType": "Twirl" },
|
||||
{ "floor": 619, "eventType": "Twirl" },
|
||||
{ "floor": 621, "eventType": "Twirl" },
|
||||
{ "floor": 623, "eventType": "Twirl" },
|
||||
{ "floor": 629, "eventType": "Twirl" },
|
||||
{ "floor": 631, "eventType": "Twirl" },
|
||||
{ "floor": 615, "eventType": "Twirl" },
|
||||
{ "floor": 616, "eventType": "Twirl" },
|
||||
{ "floor": 618, "eventType": "Twirl" },
|
||||
{ "floor": 620, "eventType": "Twirl" },
|
||||
{ "floor": 626, "eventType": "Twirl" },
|
||||
{ "floor": 628, "eventType": "Twirl" },
|
||||
{ "floor": 635, "eventType": "Twirl" },
|
||||
{ "floor": 637, "eventType": "Twirl" },
|
||||
{ "floor": 639, "eventType": "Twirl" },
|
||||
{ "floor": 638, "eventType": "Twirl" },
|
||||
{ "floor": 640, "eventType": "Twirl" },
|
||||
{ "floor": 642, "eventType": "Twirl" },
|
||||
{ "floor": 644, "eventType": "Twirl" },
|
||||
{ "floor": 646, "eventType": "Twirl" },
|
||||
{ "floor": 648, "eventType": "Twirl" },
|
||||
{ "floor": 650, "eventType": "Twirl" },
|
||||
{ "floor": 652, "eventType": "Twirl" },
|
||||
{ "floor": 655, "eventType": "Twirl" },
|
||||
{ "floor": 647, "eventType": "Twirl" },
|
||||
{ "floor": 649, "eventType": "Twirl" },
|
||||
{ "floor": 651, "eventType": "Twirl" },
|
||||
{ "floor": 657, "eventType": "Twirl" },
|
||||
{ "floor": 663, "eventType": "Twirl" },
|
||||
{ "floor": 659, "eventType": "Twirl" },
|
||||
{ "floor": 665, "eventType": "Twirl" },
|
||||
{ "floor": 671, "eventType": "Twirl" },
|
||||
{ "floor": 673, "eventType": "Twirl" },
|
||||
{ "floor": 680, "eventType": "Twirl" },
|
||||
{ "floor": 667, "eventType": "Twirl" },
|
||||
{ "floor": 674, "eventType": "Twirl" },
|
||||
{ "floor": 678, "eventType": "Twirl" },
|
||||
{ "floor": 682, "eventType": "Twirl" },
|
||||
{ "floor": 684, "eventType": "Twirl" },
|
||||
{ "floor": 688, "eventType": "Twirl" },
|
||||
{ "floor": 686, "eventType": "Twirl" },
|
||||
{ "floor": 690, "eventType": "Twirl" },
|
||||
{ "floor": 693, "eventType": "Twirl" },
|
||||
{ "floor": 694, "eventType": "Twirl" },
|
||||
{ "floor": 696, "eventType": "Twirl" },
|
||||
{ "floor": 699, "eventType": "Twirl" },
|
||||
{ "floor": 701, "eventType": "Twirl" },
|
||||
{ "floor": 705, "eventType": "Twirl" },
|
||||
{ "floor": 708, "eventType": "Twirl" },
|
||||
{ "floor": 715, "eventType": "Twirl" },
|
||||
{ "floor": 717, "eventType": "Twirl" },
|
||||
{ "floor": 721, "eventType": "Twirl" },
|
||||
{ "floor": 728, "eventType": "Twirl" },
|
||||
{ "floor": 700, "eventType": "Twirl" },
|
||||
{ "floor": 702, "eventType": "Twirl" },
|
||||
{ "floor": 710, "eventType": "Twirl" },
|
||||
{ "floor": 712, "eventType": "Twirl" },
|
||||
{ "floor": 713, "eventType": "Twirl" },
|
||||
{ "floor": 720, "eventType": "Twirl" },
|
||||
{ "floor": 729, "eventType": "Twirl" },
|
||||
{ "floor": 735, "eventType": "Twirl" },
|
||||
{ "floor": 736, "eventType": "Twirl" },
|
||||
{ "floor": 737, "eventType": "Twirl" },
|
||||
{ "floor": 741, "eventType": "Twirl" },
|
||||
{ "floor": 743, "eventType": "Twirl" },
|
||||
{ "floor": 744, "eventType": "Twirl" },
|
||||
{ "floor": 745, "eventType": "Twirl" },
|
||||
{ "floor": 748, "eventType": "Twirl" },
|
||||
{ "floor": 750, "eventType": "Twirl" },
|
||||
{ "floor": 756, "eventType": "Twirl" },
|
||||
{ "floor": 758, "eventType": "Twirl" },
|
||||
{ "floor": 764, "eventType": "Twirl" },
|
||||
{ "floor": 766, "eventType": "Twirl" },
|
||||
{ "floor": 773, "eventType": "Twirl" },
|
||||
{ "floor": 747, "eventType": "Twirl" },
|
||||
{ "floor": 749, "eventType": "Twirl" },
|
||||
{ "floor": 753, "eventType": "Twirl" },
|
||||
{ "floor": 755, "eventType": "Twirl" },
|
||||
{ "floor": 759, "eventType": "Twirl" },
|
||||
{ "floor": 761, "eventType": "Twirl" },
|
||||
{ "floor": 763, "eventType": "Twirl" },
|
||||
{ "floor": 765, "eventType": "Twirl" },
|
||||
{ "floor": 769, "eventType": "Twirl" },
|
||||
{ "floor": 771, "eventType": "Twirl" },
|
||||
{ "floor": 775, "eventType": "Twirl" },
|
||||
{ "floor": 777, "eventType": "Twirl" },
|
||||
{ "floor": 779, "eventType": "Twirl" },
|
||||
{ "floor": 782, "eventType": "Twirl" },
|
||||
{ "floor": 781, "eventType": "Twirl" },
|
||||
{ "floor": 783, "eventType": "Twirl" },
|
||||
{ "floor": 784, "eventType": "Twirl" },
|
||||
{ "floor": 791, "eventType": "Twirl" },
|
||||
{ "floor": 793, "eventType": "Twirl" },
|
||||
{ "floor": 797, "eventType": "Twirl" },
|
||||
{ "floor": 799, "eventType": "Twirl" },
|
||||
{ "floor": 789, "eventType": "Twirl" },
|
||||
{ "floor": 792, "eventType": "Twirl" },
|
||||
{ "floor": 794, "eventType": "Twirl" },
|
||||
{ "floor": 801, "eventType": "Twirl" },
|
||||
{ "floor": 805, "eventType": "Twirl" },
|
||||
{ "floor": 808, "eventType": "Twirl" },
|
||||
{ "floor": 803, "eventType": "Twirl" },
|
||||
{ "floor": 807, "eventType": "Twirl" },
|
||||
{ "floor": 809, "eventType": "Twirl" },
|
||||
{ "floor": 810, "eventType": "Twirl" },
|
||||
{ "floor": 817, "eventType": "Twirl" },
|
||||
{ "floor": 812, "eventType": "Twirl" },
|
||||
{ "floor": 814, "eventType": "Twirl" },
|
||||
{ "floor": 816, "eventType": "Twirl" },
|
||||
{ "floor": 818, "eventType": "Twirl" },
|
||||
{ "floor": 819, "eventType": "Twirl" },
|
||||
{ "floor": 821, "eventType": "Twirl" },
|
||||
{ "floor": 823, "eventType": "Twirl" },
|
||||
{ "floor": 825, "eventType": "Twirl" },
|
||||
{ "floor": 826, "eventType": "Twirl" },
|
||||
{ "floor": 828, "eventType": "Twirl" },
|
||||
{ "floor": 829, "eventType": "Twirl" },
|
||||
{ "floor": 830, "eventType": "Twirl" },
|
||||
{ "floor": 835, "eventType": "Twirl" },
|
||||
{ "floor": 831, "eventType": "Twirl" },
|
||||
{ "floor": 837, "eventType": "Twirl" },
|
||||
{ "floor": 844, "eventType": "Twirl" },
|
||||
{ "floor": 839, "eventType": "Twirl" },
|
||||
{ "floor": 840, "eventType": "Twirl" },
|
||||
{ "floor": 842, "eventType": "Twirl" },
|
||||
{ "floor": 846, "eventType": "Twirl" },
|
||||
{ "floor": 850, "eventType": "Twirl" },
|
||||
{ "floor": 852, "eventType": "Twirl" },
|
||||
{ "floor": 853, "eventType": "Twirl" },
|
||||
{ "floor": 855, "eventType": "Twirl" },
|
||||
{ "floor": 865, "eventType": "Twirl" },
|
||||
{ "floor": 867, "eventType": "Twirl" },
|
||||
{ "floor": 873, "eventType": "Twirl" },
|
||||
{ "floor": 875, "eventType": "Twirl" },
|
||||
{ "floor": 881, "eventType": "Twirl" },
|
||||
{ "floor": 883, "eventType": "Twirl" },
|
||||
{ "floor": 848, "eventType": "Twirl" },
|
||||
{ "floor": 864, "eventType": "Twirl" },
|
||||
{ "floor": 866, "eventType": "Twirl" },
|
||||
{ "floor": 870, "eventType": "Twirl" },
|
||||
{ "floor": 872, "eventType": "Twirl" },
|
||||
{ "floor": 878, "eventType": "Twirl" },
|
||||
{ "floor": 880, "eventType": "Twirl" },
|
||||
{ "floor": 884, "eventType": "Twirl" },
|
||||
{ "floor": 886, "eventType": "Twirl" },
|
||||
{ "floor": 890, "eventType": "Twirl" },
|
||||
{ "floor": 892, "eventType": "Twirl" },
|
||||
{ "floor": 897, "eventType": "Twirl" },
|
||||
{ "floor": 899, "eventType": "Twirl" },
|
||||
{ "floor": 905, "eventType": "Twirl" },
|
||||
{ "floor": 907, "eventType": "Twirl" },
|
||||
{ "floor": 913, "eventType": "Twirl" },
|
||||
{ "floor": 915, "eventType": "Twirl" },
|
||||
{ "floor": 931, "eventType": "Twirl" },
|
||||
{ "floor": 933, "eventType": "Twirl" },
|
||||
{ "floor": 939, "eventType": "Twirl" },
|
||||
{ "floor": 941, "eventType": "Twirl" },
|
||||
{ "floor": 947, "eventType": "Twirl" },
|
||||
{ "floor": 949, "eventType": "Twirl" },
|
||||
{ "floor": 956, "eventType": "Twirl" },
|
||||
{ "floor": 958, "eventType": "Twirl" },
|
||||
{ "floor": 963, "eventType": "Twirl" },
|
||||
{ "floor": 965, "eventType": "Twirl" },
|
||||
{ "floor": 971, "eventType": "Twirl" },
|
||||
{ "floor": 973, "eventType": "Twirl" },
|
||||
{ "floor": 979, "eventType": "Twirl" },
|
||||
{ "floor": 981, "eventType": "Twirl" }
|
||||
{ "floor": 896, "eventType": "Twirl" },
|
||||
{ "floor": 898, "eventType": "Twirl" },
|
||||
{ "floor": 902, "eventType": "Twirl" },
|
||||
{ "floor": 904, "eventType": "Twirl" },
|
||||
{ "floor": 908, "eventType": "Twirl" },
|
||||
{ "floor": 910, "eventType": "Twirl" },
|
||||
{ "floor": 914, "eventType": "Twirl" },
|
||||
{ "floor": 916, "eventType": "Twirl" },
|
||||
{ "floor": 918, "eventType": "Twirl" },
|
||||
{ "floor": 920, "eventType": "Twirl" },
|
||||
{ "floor": 926, "eventType": "Twirl" },
|
||||
{ "floor": 928, "eventType": "Twirl" },
|
||||
{ "floor": 932, "eventType": "Twirl" },
|
||||
{ "floor": 934, "eventType": "Twirl" },
|
||||
{ "floor": 938, "eventType": "Twirl" },
|
||||
{ "floor": 940, "eventType": "Twirl" }
|
||||
]
|
||||
"decorations":
|
||||
[
|
||||
|
||||
Reference in New Issue
Block a user