重构中
This commit is contained in:
365
shende2-cn.adofai
Normal file
365
shende2-cn.adofai
Normal file
@@ -0,0 +1,365 @@
|
||||
{
|
||||
"angleData": [0, 0, 0, 0, 0, 0, 45, 180, 315, 0, 0, 0, 90, 315, 90, 315, 90, 315, 90, 315, 0, 0, 0, 90, 999, 0, 0, 45, 180, 135, 0, 90, 999, 0, 0, 45, 180, 135, 0, 90, 999, 0, 0, 45, 180, 135, 0, 90, 999, 0, 90, 999, 0, 90, 315, 999, 0, 90, 999, 0, 90, 315, 999, 0, 90, 999, 0, 45, 180, 135, 0, 90, 999, 0, 0, 45, 180, 135, 0, 90, 999, 0, 0, 45, 180, 135, 0, 90, 999, 0, 90, 999, 0, 90, 315, 999, 0, 0, 0, 0, 0, 0, 270, 0, 90, 0, 0, 0, 270, 0, 90, 0, 270, 0, 90, -90, 0, 0, 45, 180, 90, 0, 90, 0, 270, 0, 90, 90, 0, 270, 0, 0, 45, 270, 0, 90, 0, 270, 0, 90, 0, 0, 90, 999, 0, 0, 90, 999, 0, 0, 90, 0, 270, 0, 90, 0, 0, 270, 0, 90, 90, 90, 0, 270, 0, 90, 0, 270, 0, -180, 270, 270, 315, 90, 0, 270, 0, 90, 0, 270, 0, 0, 90, 0, 270, 270, 315, 90, 0, 270, 0, 90, 0, 270, 0, 0, 90, 999, 0, 180, 270, 315, 270, 0, 315, 180, 180, 180, 225, 0, 270, 0, 270, 270, 270, 270, 0, 90, 0, 90, 0, 0, 270, 180, 270, 0, 270, 270, 315, 90, 0, 270, 0, 270, 270, 315, 90, 0, 270, 0, 0, 0, -180, 315, 180, 270, 270, 180, 270, 270, 0, 0, 0, 0, 0, 0, 0, 0, 45, 180, 135, 0, 90, 999, 0, 0, 45, 180, 135, 0, 90, 999, 0, 0, 45, 180, 135, 0, 90, 999, 0, 90, 999, 0, 90, 0, 270, 0, 90, 0, 270, 0, 45, 180, 135, 0, 90, 999, 0, 0, 45, 180, 135, 0, 90, 999, 0, 0, 45, 180, 135, 0, 90, 999, 0, 90, 999, 0, 0, 270, 0, 90, 999, 0, 45, 180, 135, 0, 90, 999, 0, 0, 45, 180, 135, 0, 90, 999, 0, 0, 45, 180, 135, 0, 90, 999, 0, 90, 999, 0, 90, 0, 270, 0, 90, 0, 270, 0, 45, 180, 135, 0, 90, 999, 0, 0, 45, 180, 135, 0, 90, 999, 0, 0, 45, 180, 135, 0, 90, 999, 0, 90, 999, 0, 90, 0, 0, 0, 0, 0, 90, 0, 270, 999, 0, 0, 0, 270, 0, 90, 225, 0, 90, 0, 270, 90, 0, 0, 90, 0, 270, 0, 90, 0, 270, 0, 0, 90, 0, 270, 0, 270, 0, 90, 0, 270, 0, 90, 0, 0, 270, 0, 0, 90, 0, 0, 270, 0, 90, 0, 270, 0, 0, 90, 0, 270, 270, 270, 0, 0, 0, 90, 0, 0, 270, 0, 90, 45, 270, 315, 90, 0, 270, 0, 90, 0, 270, 0, 0, 90, 0, 270, 315, 90, 45, 270, 0, 90, 0, 270, 0, 90, 0, 0, 270, 999, 0, 90, 0, 270, 0, 0, 90, 45, 180, 90, 90, 45, 270, 315, 90, 0, 270, 0, 90, 0, 0, 0, 270, 0, 270, 0, 270, 0, 270, 0, 225, 999, 270, 0, 90, 45, 270, 315, 90, 0, 270, 270, 315, 90, 45, 270, 0, 90, 0, 270, 0, 0, 270, 0, 135, 0, 315, 270, 270, 180, 999, 270, 180, 270, 0, 0, 0, 0, 0, 45, 180, 135, 0, 90, 999, 0, 0, 45, 180, 135, 0, 90, 999, 0, 0, 45, 180, 135, 0, 90, 999, 0, 90, 999, 0, 90, 0, 270, 0, 90, 0, 270, 0, 45, 180, 135, 0, 0, 0, 45, 180, 135, 0, 90, 999, 0, 45, 180, 135, 0, 45, 180, 90, 0, 90, 0, 270, 0, 90, 0, 270, 135, 0, 45, 180, 135, 0, 90, 999, 0, 0, 45, 180, 135, 0, 90, 999, 0, 0, 45, 180, 135, 0, 90, 999, 0, 90, 999, 0, 90, 0, 270, 0, 90, 0, 270, 0, 45, 180, 135, 0, 90, 999, 0, 0, 45, 180, 135, 0, 90, 999, 0, 0, 45, 180, 135, 0, 90, 999, 0, 90, 999, 0, 90, 0, 90, 0, 270, 0, 0, 0, 90, 0, 270, 270, 0, 90, 90, 0, 270, 0, 45, 180, 135, 0, 90, 999, 0, 90, 90, 0, 270, 270, 0, 90, 999, 0, 45, 180, 135, 0, 90, 999, 0, 90, 90, 0, 225, 90, 90, 0, 270, 270, 0, 90, 90, 0, 270, 270, 0, 90, 0, 0, 0, 0, 0, 0, 0, 0, 0, 45, 180, 135, 0, 90, 999, 0, 0, 45, 180, 135, 0, 90, 999, 0, 0, 45, 180, 135, 0, 90, 999, 0, 90, 999, 0, 90, 0, 270, 0, 90, 0, 270, 0, 45, 180, 135, 0, 90, 999, 0, 0, 0, 45, 180, 90, 0, 0, 0, 0, 90, 0, 270, 0, 90, 0, 90, 0, 270, 0, 45, 180, 135, 0, 90, 999, 0, 0, 0, 45, 180, 90, 0, 0, 0, 45, 180, 90, 0, 90, 0, 270, 0, 270, 0, 0, 0, 45, 180, 135, 0, 90, 999, 0, 0, 0, 45, 180, 90, 0, 0, 0, 45, 180, 90, 0, 90, 0, 270, 0, 0, 90, 999, 0, 90, 999, 0, 45, 180, 135, 0, 90, 999, 0, 0, 45, 180, 135, 0, 90, 999, 0, 0, 45, 180, 135, 0, 90, 999, 0, 90, 999, 0, 90, 0, 270, 0, 0, 0, 45, 180, 135, 0, 90, 999, 0, 0, 45, 180, 135, 0, 90, 999, 0, 0, 45, 180, 135, 0, 90, 999, 0, 90, 999, 0, 0, 0, 90, 999, 0, 90, 999, 0, 45, 180, 135, 0, 90, 999, 0, 0, 45, 180, 135, 0, 90, 999, 0, 0, 45, 180, 135, 0, 90, 999, 0, 90, 999, 0, 90, 0, 270, 0, 0, 0, 45, 180, 135, 0, 90, 999, 0, 0, 45, 180, 135, 0, 90, 999, 0, 0, 45, 180, 135, 0, 90, 999, 0, 90, 999, 0, 0, 0, 0, 90],
|
||||
"settings":
|
||||
{
|
||||
"version": 9 ,
|
||||
"artist": "yosa",
|
||||
"specialArtistType": "None",
|
||||
"artistPermission": "",
|
||||
"song": "神的随波逐流",
|
||||
"author": "tls",
|
||||
"separateCountdownTime": "Enabled",
|
||||
"previewImage": "hqdefault.jpg",
|
||||
"previewIcon": "",
|
||||
"previewIconColor": "003f52",
|
||||
"previewSongStart": 0,
|
||||
"previewSongDuration": 10,
|
||||
"seizureWarning": "Disabled",
|
||||
"levelDesc": "说说看你的关卡是什么样的吧!",
|
||||
"levelTags": "",
|
||||
"artistLinks": "",
|
||||
"difficulty": 1,
|
||||
"songFilename": "shende-cn.wav",
|
||||
"bpm": 135,
|
||||
"volume": 40,
|
||||
"offset": 458,
|
||||
"pitch": 100,
|
||||
"hitsound": "Kick",
|
||||
"hitsoundVolume": 100,
|
||||
"countdownTicks": 4,
|
||||
"trackColorType": "Single",
|
||||
"trackColor": "debb7b",
|
||||
"secondaryTrackColor": "ffffff",
|
||||
"trackColorAnimDuration": 2,
|
||||
"trackColorPulse": "None",
|
||||
"trackPulseLength": 10,
|
||||
"trackStyle": "Standard",
|
||||
"trackAnimation": "None",
|
||||
"beatsAhead": 3,
|
||||
"trackDisappearAnimation": "None",
|
||||
"beatsBehind": 4,
|
||||
"backgroundColor": "000000",
|
||||
"showDefaultBGIfNoImage": "Enabled",
|
||||
"bgImage": "",
|
||||
"bgImageColor": "ffffff",
|
||||
"parallax": [100, 100],
|
||||
"bgDisplayMode": "FitToScreen",
|
||||
"lockRot": "Disabled",
|
||||
"loopBG": "Disabled",
|
||||
"unscaledSize": 100,
|
||||
"relativeTo": "Player",
|
||||
"position": [0, 0],
|
||||
"rotation": 0,
|
||||
"zoom": 100,
|
||||
"bgVideo": "",
|
||||
"loopVideo": "Disabled",
|
||||
"vidOffset": 0,
|
||||
"floorIconOutlines": "Disabled",
|
||||
"stickToFloors": "Disabled",
|
||||
"planetEase": "Linear",
|
||||
"planetEaseParts": 1,
|
||||
"customClass": "",
|
||||
"legacyFlash": false ,
|
||||
"legacySpriteTiles": false
|
||||
},
|
||||
"actions":
|
||||
[
|
||||
{ "floor": 13, "eventType": "Twirl" },
|
||||
{ "floor": 14, "eventType": "Twirl" },
|
||||
{ "floor": 15, "eventType": "Twirl" },
|
||||
{ "floor": 16, "eventType": "Twirl" },
|
||||
{ "floor": 17, "eventType": "Twirl" },
|
||||
{ "floor": 18, "eventType": "Twirl" },
|
||||
{ "floor": 19, "eventType": "Twirl" },
|
||||
{ "floor": 20, "eventType": "Twirl" },
|
||||
{ "floor": 29, "eventType": "Twirl" },
|
||||
{ "floor": 31, "eventType": "Twirl" },
|
||||
{ "floor": 37, "eventType": "Twirl" },
|
||||
{ "floor": 39, "eventType": "Twirl" },
|
||||
{ "floor": 45, "eventType": "Twirl" },
|
||||
{ "floor": 47, "eventType": "Twirl" },
|
||||
{ "floor": 54, "eventType": "Twirl" },
|
||||
{ "floor": 57, "eventType": "Twirl" },
|
||||
{ "floor": 61, "eventType": "Twirl" },
|
||||
{ "floor": 64, "eventType": "Twirl" },
|
||||
{ "floor": 69, "eventType": "Twirl" },
|
||||
{ "floor": 71, "eventType": "Twirl" },
|
||||
{ "floor": 77, "eventType": "Twirl" },
|
||||
{ "floor": 79, "eventType": "Twirl" },
|
||||
{ "floor": 85, "eventType": "Twirl" },
|
||||
{ "floor": 87, "eventType": "Twirl" },
|
||||
{ "floor": 94, "eventType": "Twirl" },
|
||||
{ "floor": 103, "eventType": "Twirl" },
|
||||
{ "floor": 105, "eventType": "Twirl" },
|
||||
{ "floor": 109, "eventType": "Twirl" },
|
||||
{ "floor": 111, "eventType": "Twirl" },
|
||||
{ "floor": 113, "eventType": "Twirl" },
|
||||
{ "floor": 120, "eventType": "Twirl" },
|
||||
{ "floor": 122, "eventType": "Twirl" },
|
||||
{ "floor": 123, "eventType": "Twirl" },
|
||||
{ "floor": 125, "eventType": "Twirl" },
|
||||
{ "floor": 127, "eventType": "Twirl" },
|
||||
{ "floor": 130, "eventType": "Twirl" },
|
||||
{ "floor": 133, "eventType": "Twirl" },
|
||||
{ "floor": 134, "eventType": "Twirl" },
|
||||
{ "floor": 136, "eventType": "Twirl" },
|
||||
{ "floor": 138, "eventType": "Twirl" },
|
||||
{ "floor": 140, "eventType": "Twirl" },
|
||||
{ "floor": 141, "eventType": "Twirl" },
|
||||
{ "floor": 151, "eventType": "Twirl" },
|
||||
{ "floor": 153, "eventType": "Twirl" },
|
||||
{ "floor": 155, "eventType": "Twirl" },
|
||||
{ "floor": 158, "eventType": "Twirl" },
|
||||
{ "floor": 160, "eventType": "Twirl" },
|
||||
{ "floor": 164, "eventType": "Twirl" },
|
||||
{ "floor": 166, "eventType": "Twirl" },
|
||||
{ "floor": 168, "eventType": "Twirl" },
|
||||
{ "floor": 174, "eventType": "Twirl" },
|
||||
{ "floor": 176, "eventType": "Twirl" },
|
||||
{ "floor": 178, "eventType": "Twirl" },
|
||||
{ "floor": 180, "eventType": "Twirl" },
|
||||
{ "floor": 183, "eventType": "Twirl" },
|
||||
{ "floor": 185, "eventType": "Twirl" },
|
||||
{ "floor": 188, "eventType": "Twirl" },
|
||||
{ "floor": 190, "eventType": "Twirl" },
|
||||
{ "floor": 192, "eventType": "Twirl" },
|
||||
{ "floor": 194, "eventType": "Twirl" },
|
||||
{ "floor": 202, "eventType": "Twirl" },
|
||||
{ "floor": 203, "eventType": "Twirl" },
|
||||
{ "floor": 204, "eventType": "SetSpeed", "speedType": "Multiplier", "beatsPerMinute": 100, "bpmMultiplier": 0.5 },
|
||||
{ "floor": 205, "eventType": "Twirl" },
|
||||
{ "floor": 206, "eventType": "SetSpeed", "speedType": "Multiplier", "beatsPerMinute": 100, "bpmMultiplier": 2 },
|
||||
{ "floor": 207, "eventType": "Twirl" },
|
||||
{ "floor": 210, "eventType": "Twirl" },
|
||||
{ "floor": 211, "eventType": "Twirl" },
|
||||
{ "floor": 212, "eventType": "Twirl" },
|
||||
{ "floor": 215, "eventType": "Twirl" },
|
||||
{ "floor": 218, "eventType": "SetSpeed", "speedType": "Multiplier", "beatsPerMinute": 100, "bpmMultiplier": 0.5 },
|
||||
{ "floor": 219, "eventType": "SetSpeed", "speedType": "Multiplier", "beatsPerMinute": 100, "bpmMultiplier": 2 },
|
||||
{ "floor": 220, "eventType": "Twirl" },
|
||||
{ "floor": 223, "eventType": "Twirl" },
|
||||
{ "floor": 226, "eventType": "Twirl" },
|
||||
{ "floor": 227, "eventType": "Twirl" },
|
||||
{ "floor": 230, "eventType": "Twirl" },
|
||||
{ "floor": 232, "eventType": "Twirl" },
|
||||
{ "floor": 233, "eventType": "Twirl" },
|
||||
{ "floor": 235, "eventType": "Twirl" },
|
||||
{ "floor": 237, "eventType": "Twirl" },
|
||||
{ "floor": 239, "eventType": "Twirl" },
|
||||
{ "floor": 244, "eventType": "Twirl" },
|
||||
{ "floor": 245, "eventType": "Twirl" },
|
||||
{ "floor": 260, "eventType": "Twirl" },
|
||||
{ "floor": 262, "eventType": "Twirl" },
|
||||
{ "floor": 268, "eventType": "Twirl" },
|
||||
{ "floor": 270, "eventType": "Twirl" },
|
||||
{ "floor": 276, "eventType": "Twirl" },
|
||||
{ "floor": 278, "eventType": "Twirl" },
|
||||
{ "floor": 285, "eventType": "Twirl" },
|
||||
{ "floor": 287, "eventType": "Twirl" },
|
||||
{ "floor": 289, "eventType": "Twirl" },
|
||||
{ "floor": 291, "eventType": "Twirl" },
|
||||
{ "floor": 294, "eventType": "Twirl" },
|
||||
{ "floor": 296, "eventType": "Twirl" },
|
||||
{ "floor": 302, "eventType": "Twirl" },
|
||||
{ "floor": 304, "eventType": "Twirl" },
|
||||
{ "floor": 310, "eventType": "Twirl" },
|
||||
{ "floor": 312, "eventType": "Twirl" },
|
||||
{ "floor": 326, "eventType": "Twirl" },
|
||||
{ "floor": 328, "eventType": "Twirl" },
|
||||
{ "floor": 334, "eventType": "Twirl" },
|
||||
{ "floor": 336, "eventType": "Twirl" },
|
||||
{ "floor": 342, "eventType": "Twirl" },
|
||||
{ "floor": 344, "eventType": "Twirl" },
|
||||
{ "floor": 351, "eventType": "Twirl" },
|
||||
{ "floor": 353, "eventType": "Twirl" },
|
||||
{ "floor": 355, "eventType": "Twirl" },
|
||||
{ "floor": 357, "eventType": "Twirl" },
|
||||
{ "floor": 360, "eventType": "Twirl" },
|
||||
{ "floor": 362, "eventType": "Twirl" },
|
||||
{ "floor": 368, "eventType": "Twirl" },
|
||||
{ "floor": 370, "eventType": "Twirl" },
|
||||
{ "floor": 376, "eventType": "Twirl" },
|
||||
{ "floor": 378, "eventType": "Twirl" },
|
||||
{ "floor": 385, "eventType": "Twirl" },
|
||||
{ "floor": 398, "eventType": "Twirl" },
|
||||
{ "floor": 403, "eventType": "Twirl" },
|
||||
{ "floor": 409, "eventType": "Twirl" },
|
||||
{ "floor": 411, "eventType": "Twirl" },
|
||||
{ "floor": 413, "eventType": "Twirl" },
|
||||
{ "floor": 415, "eventType": "Twirl" },
|
||||
{ "floor": 418, "eventType": "Twirl" },
|
||||
{ "floor": 420, "eventType": "Twirl" },
|
||||
{ "floor": 422, "eventType": "Twirl" },
|
||||
{ "floor": 424, "eventType": "Twirl" },
|
||||
{ "floor": 426, "eventType": "Twirl" },
|
||||
{ "floor": 428, "eventType": "Twirl" },
|
||||
{ "floor": 431, "eventType": "Twirl" },
|
||||
{ "floor": 434, "eventType": "Twirl" },
|
||||
{ "floor": 437, "eventType": "Twirl" },
|
||||
{ "floor": 439, "eventType": "Twirl" },
|
||||
{ "floor": 441, "eventType": "Twirl" },
|
||||
{ "floor": 444, "eventType": "Twirl" },
|
||||
{ "floor": 448, "eventType": "Twirl" },
|
||||
{ "floor": 452, "eventType": "Twirl" },
|
||||
{ "floor": 455, "eventType": "Twirl" },
|
||||
{ "floor": 457, "eventType": "Twirl" },
|
||||
{ "floor": 459, "eventType": "Twirl" },
|
||||
{ "floor": 461, "eventType": "Twirl" },
|
||||
{ "floor": 463, "eventType": "Twirl" },
|
||||
{ "floor": 465, "eventType": "Twirl" },
|
||||
{ "floor": 467, "eventType": "Twirl" },
|
||||
{ "floor": 470, "eventType": "Twirl" },
|
||||
{ "floor": 472, "eventType": "Twirl" },
|
||||
{ "floor": 474, "eventType": "Twirl" },
|
||||
{ "floor": 476, "eventType": "Twirl" },
|
||||
{ "floor": 478, "eventType": "Twirl" },
|
||||
{ "floor": 480, "eventType": "Twirl" },
|
||||
{ "floor": 482, "eventType": "Twirl" },
|
||||
{ "floor": 490, "eventType": "Twirl" },
|
||||
{ "floor": 493, "eventType": "Twirl" },
|
||||
{ "floor": 499, "eventType": "Twirl" },
|
||||
{ "floor": 501, "eventType": "Twirl" },
|
||||
{ "floor": 503, "eventType": "Twirl" },
|
||||
{ "floor": 505, "eventType": "Twirl" },
|
||||
{ "floor": 509, "eventType": "Twirl" },
|
||||
{ "floor": 511, "eventType": "Twirl" },
|
||||
{ "floor": 513, "eventType": "Twirl" },
|
||||
{ "floor": 515, "eventType": "Twirl" },
|
||||
{ "floor": 519, "eventType": "Twirl" },
|
||||
{ "floor": 521, "eventType": "Twirl" },
|
||||
{ "floor": 523, "eventType": "Twirl" },
|
||||
{ "floor": 525, "eventType": "Twirl" },
|
||||
{ "floor": 527, "eventType": "Twirl" },
|
||||
{ "floor": 530, "eventType": "Twirl" },
|
||||
{ "floor": 532, "eventType": "Twirl" },
|
||||
{ "floor": 534, "eventType": "Twirl" },
|
||||
{ "floor": 536, "eventType": "Twirl" },
|
||||
{ "floor": 541, "eventType": "Twirl" },
|
||||
{ "floor": 548, "eventType": "Twirl" },
|
||||
{ "floor": 549, "eventType": "Twirl" },
|
||||
{ "floor": 551, "eventType": "Twirl" },
|
||||
{ "floor": 557, "eventType": "Twirl" },
|
||||
{ "floor": 559, "eventType": "Twirl" },
|
||||
{ "floor": 565, "eventType": "Twirl" },
|
||||
{ "floor": 567, "eventType": "Twirl" },
|
||||
{ "floor": 573, "eventType": "Twirl" },
|
||||
{ "floor": 575, "eventType": "Twirl" },
|
||||
{ "floor": 582, "eventType": "Twirl" },
|
||||
{ "floor": 584, "eventType": "Twirl" },
|
||||
{ "floor": 586, "eventType": "Twirl" },
|
||||
{ "floor": 588, "eventType": "Twirl" },
|
||||
{ "floor": 591, "eventType": "Twirl" },
|
||||
{ "floor": 593, "eventType": "Twirl" },
|
||||
{ "floor": 597, "eventType": "Twirl" },
|
||||
{ "floor": 599, "eventType": "Twirl" },
|
||||
{ "floor": 604, "eventType": "Twirl" },
|
||||
{ "floor": 606, "eventType": "Twirl" },
|
||||
{ "floor": 608, "eventType": "Twirl" },
|
||||
{ "floor": 610, "eventType": "Twirl" },
|
||||
{ "floor": 611, "eventType": "Twirl" },
|
||||
{ "floor": 613, "eventType": "Twirl" },
|
||||
{ "floor": 614, "eventType": "Twirl" },
|
||||
{ "floor": 619, "eventType": "Twirl" },
|
||||
{ "floor": 621, "eventType": "Twirl" },
|
||||
{ "floor": 623, "eventType": "Twirl" },
|
||||
{ "floor": 629, "eventType": "Twirl" },
|
||||
{ "floor": 631, "eventType": "Twirl" },
|
||||
{ "floor": 637, "eventType": "Twirl" },
|
||||
{ "floor": 639, "eventType": "Twirl" },
|
||||
{ "floor": 646, "eventType": "Twirl" },
|
||||
{ "floor": 648, "eventType": "Twirl" },
|
||||
{ "floor": 650, "eventType": "Twirl" },
|
||||
{ "floor": 652, "eventType": "Twirl" },
|
||||
{ "floor": 655, "eventType": "Twirl" },
|
||||
{ "floor": 657, "eventType": "Twirl" },
|
||||
{ "floor": 663, "eventType": "Twirl" },
|
||||
{ "floor": 665, "eventType": "Twirl" },
|
||||
{ "floor": 671, "eventType": "Twirl" },
|
||||
{ "floor": 673, "eventType": "Twirl" },
|
||||
{ "floor": 680, "eventType": "Twirl" },
|
||||
{ "floor": 684, "eventType": "Twirl" },
|
||||
{ "floor": 688, "eventType": "Twirl" },
|
||||
{ "floor": 690, "eventType": "Twirl" },
|
||||
{ "floor": 693, "eventType": "Twirl" },
|
||||
{ "floor": 696, "eventType": "Twirl" },
|
||||
{ "floor": 699, "eventType": "Twirl" },
|
||||
{ "floor": 701, "eventType": "Twirl" },
|
||||
{ "floor": 705, "eventType": "Twirl" },
|
||||
{ "floor": 708, "eventType": "Twirl" },
|
||||
{ "floor": 715, "eventType": "Twirl" },
|
||||
{ "floor": 717, "eventType": "Twirl" },
|
||||
{ "floor": 721, "eventType": "Twirl" },
|
||||
{ "floor": 728, "eventType": "Twirl" },
|
||||
{ "floor": 737, "eventType": "Twirl" },
|
||||
{ "floor": 743, "eventType": "Twirl" },
|
||||
{ "floor": 744, "eventType": "Twirl" },
|
||||
{ "floor": 745, "eventType": "Twirl" },
|
||||
{ "floor": 748, "eventType": "Twirl" },
|
||||
{ "floor": 750, "eventType": "Twirl" },
|
||||
{ "floor": 756, "eventType": "Twirl" },
|
||||
{ "floor": 758, "eventType": "Twirl" },
|
||||
{ "floor": 764, "eventType": "Twirl" },
|
||||
{ "floor": 766, "eventType": "Twirl" },
|
||||
{ "floor": 773, "eventType": "Twirl" },
|
||||
{ "floor": 775, "eventType": "Twirl" },
|
||||
{ "floor": 777, "eventType": "Twirl" },
|
||||
{ "floor": 779, "eventType": "Twirl" },
|
||||
{ "floor": 782, "eventType": "Twirl" },
|
||||
{ "floor": 784, "eventType": "Twirl" },
|
||||
{ "floor": 791, "eventType": "Twirl" },
|
||||
{ "floor": 793, "eventType": "Twirl" },
|
||||
{ "floor": 797, "eventType": "Twirl" },
|
||||
{ "floor": 799, "eventType": "Twirl" },
|
||||
{ "floor": 801, "eventType": "Twirl" },
|
||||
{ "floor": 805, "eventType": "Twirl" },
|
||||
{ "floor": 808, "eventType": "Twirl" },
|
||||
{ "floor": 810, "eventType": "Twirl" },
|
||||
{ "floor": 817, "eventType": "Twirl" },
|
||||
{ "floor": 819, "eventType": "Twirl" },
|
||||
{ "floor": 823, "eventType": "Twirl" },
|
||||
{ "floor": 825, "eventType": "Twirl" },
|
||||
{ "floor": 826, "eventType": "Twirl" },
|
||||
{ "floor": 828, "eventType": "Twirl" },
|
||||
{ "floor": 829, "eventType": "Twirl" },
|
||||
{ "floor": 830, "eventType": "Twirl" },
|
||||
{ "floor": 835, "eventType": "Twirl" },
|
||||
{ "floor": 837, "eventType": "Twirl" },
|
||||
{ "floor": 844, "eventType": "Twirl" },
|
||||
{ "floor": 846, "eventType": "Twirl" },
|
||||
{ "floor": 850, "eventType": "Twirl" },
|
||||
{ "floor": 852, "eventType": "Twirl" },
|
||||
{ "floor": 853, "eventType": "Twirl" },
|
||||
{ "floor": 855, "eventType": "Twirl" },
|
||||
{ "floor": 865, "eventType": "Twirl" },
|
||||
{ "floor": 867, "eventType": "Twirl" },
|
||||
{ "floor": 873, "eventType": "Twirl" },
|
||||
{ "floor": 875, "eventType": "Twirl" },
|
||||
{ "floor": 881, "eventType": "Twirl" },
|
||||
{ "floor": 883, "eventType": "Twirl" },
|
||||
{ "floor": 890, "eventType": "Twirl" },
|
||||
{ "floor": 892, "eventType": "Twirl" },
|
||||
{ "floor": 897, "eventType": "Twirl" },
|
||||
{ "floor": 899, "eventType": "Twirl" },
|
||||
{ "floor": 905, "eventType": "Twirl" },
|
||||
{ "floor": 907, "eventType": "Twirl" },
|
||||
{ "floor": 913, "eventType": "Twirl" },
|
||||
{ "floor": 915, "eventType": "Twirl" },
|
||||
{ "floor": 931, "eventType": "Twirl" },
|
||||
{ "floor": 933, "eventType": "Twirl" },
|
||||
{ "floor": 939, "eventType": "Twirl" },
|
||||
{ "floor": 941, "eventType": "Twirl" },
|
||||
{ "floor": 947, "eventType": "Twirl" },
|
||||
{ "floor": 949, "eventType": "Twirl" },
|
||||
{ "floor": 956, "eventType": "Twirl" },
|
||||
{ "floor": 958, "eventType": "Twirl" },
|
||||
{ "floor": 963, "eventType": "Twirl" },
|
||||
{ "floor": 965, "eventType": "Twirl" },
|
||||
{ "floor": 971, "eventType": "Twirl" },
|
||||
{ "floor": 973, "eventType": "Twirl" },
|
||||
{ "floor": 979, "eventType": "Twirl" },
|
||||
{ "floor": 981, "eventType": "Twirl" }
|
||||
]
|
||||
"decorations":
|
||||
[
|
||||
]
|
||||
}
|
||||
Reference in New Issue
Block a user