adofai-new-world-1/new.adofai

90 lines
7.3 KiB
Plaintext

{
"angleData": [0, 90, 999, 0, 90, 90, 225, 999, 180, 999, 90, 0, 0, 90, 999, 0, 90, 0, 90, 999, 0, 0, 90, 999, 0, 90, 999, 0, 90, 90, 999, 45, 999, 0, 0, 90, 999, 0, 90, 90, 225, 999, 180, 999, 90, 0, 0, 90, 999, 0, 90, 0, 0, 0, 0, 120, 999, 60, 999, 0, 90, 999, 0, 90, 999, 0, 0, 90, 999, 0, 90, 90, 225, 999, 180, 999, 90, 0, 0, 90, 999, 0, 90, 0, 90, 999, 0, 0, 90, 999, 0, 90, 999, 0, 90, 90, 999, 45, 999, 0, 0, 90, 999, 0, 90, 90, 225, 999, 180, 999, 90, 0, 0, 90, 999, 0, 90, 0, 0, 0, 0, 90, 999, 0, 90, 90, 999, 45, 999, 0, 0, 0, 0, 0, 90, 180, 999, 90, 180, 999, 90, 0, 0, 90, 180, 999, 90, 90, 180, 999, 90, 90, 180, 999, 90, 180, 180, 0, 0, 0, 90, 180, 999, 90, 180, 999, 90, 0, 0, 90, 180, 999, 90, 90, 180, 999, 90, 90, 180, 999, 90, 0, 0, 0, 0, 0, 90, 180, 999, 90, 180, 999, 90, 0, 0, 90, 180, 999, 90, 90, 180, 999, 90, 90, 180, 999, 90, 180, 180, 0, 0, 0, 90, 180, 999, 90, 180, 999, 90, 0, 0, 90, 180, 999, 90, 90, 180, 999, 90, 180, 180, 270, 0, 999, 300, 999, 240, 999, 180, 999, 120, 999, 60, 999, 0],
"settings":
{
"version": 9 ,
"artist": "扒谱",
"specialArtistType": "None",
"artistPermission": "",
"song": "new world",
"author": "tls",
"separateCountdownTime": "Enabled",
"previewImage": "ab67.jpeg",
"previewIcon": "",
"previewIconColor": "003f52",
"previewSongStart": 0,
"previewSongDuration": 10,
"seizureWarning": "Disabled",
"levelDesc": "说说看你的关卡是什么样的吧!",
"levelTags": "",
"artistLinks": "",
"difficulty": 1,
"songFilename": "new-world.wav",
"bpm": 160,
"volume": 80,
"offset": 20,
"pitch": 100,
"hitsound": "Kick",
"hitsoundVolume": 100,
"countdownTicks": 4,
"trackColorType": "Single",
"trackColor": "debb7b",
"secondaryTrackColor": "ffffff",
"trackColorAnimDuration": 2,
"trackColorPulse": "None",
"trackPulseLength": 10,
"trackStyle": "Standard",
"trackAnimation": "None",
"beatsAhead": 3,
"trackDisappearAnimation": "None",
"beatsBehind": 4,
"backgroundColor": "000000",
"showDefaultBGIfNoImage": "Enabled",
"bgImage": "",
"bgImageColor": "ffffff",
"parallax": [100, 100],
"bgDisplayMode": "FitToScreen",
"lockRot": "Disabled",
"loopBG": "Disabled",
"unscaledSize": 100,
"relativeTo": "Player",
"position": [0, 0],
"rotation": 0,
"zoom": 100,
"bgVideo": "",
"loopVideo": "Disabled",
"vidOffset": 0,
"floorIconOutlines": "Disabled",
"stickToFloors": "Disabled",
"planetEase": "Linear",
"planetEaseParts": 1,
"customClass": "",
"legacyFlash": false ,
"legacySpriteTiles": false
},
"actions":
[
{ "floor": 1, "eventType": "MoveCamera", "duration": 1, "relativeTo": "Player", "position": [0, 0], "zoom": 200, "angleOffset": 0, "ease": "Linear", "dontDisable": "Disabled", "minVfxOnly": "Disabled", "eventTag": "", },
{ "floor": 17, "eventType": "ColorTrack", "trackColorType": "Single", "trackColor": "7ee97bff", "secondaryTrackColor": "ffffff", "trackColorAnimDuration": 2, "trackColorPulse": "None", "trackPulseLength": 10, "trackStyle": "Standard", "trackTexture": "", "trackTextureScale": 1 },
{ "floor": 35, "eventType": "ColorTrack", "trackColorType": "Single", "trackColor": "debb7b", "secondaryTrackColor": "ffffff", "trackColorAnimDuration": 2, "trackColorPulse": "None", "trackPulseLength": 10, "trackStyle": "Standard", "trackTexture": "", "trackTextureScale": 1 },
{ "floor": 51, "eventType": "ColorTrack", "trackColorType": "Single", "trackColor": "7fba9eff", "secondaryTrackColor": "ffffff", "trackColorAnimDuration": 2, "trackColorPulse": "None", "trackPulseLength": 10, "trackStyle": "Standard", "trackTexture": "", "trackTextureScale": 1 },
{ "floor": 67, "eventType": "ColorTrack", "trackColorType": "Single", "trackColor": "debb7b", "secondaryTrackColor": "ffffff", "trackColorAnimDuration": 2, "trackColorPulse": "None", "trackPulseLength": 10, "trackStyle": "Standard", "trackTexture": "", "trackTextureScale": 1 },
{ "floor": 83, "eventType": "ColorTrack", "trackColorType": "Single", "trackColor": "7ee97bff", "secondaryTrackColor": "ffffff", "trackColorAnimDuration": 2, "trackColorPulse": "None", "trackPulseLength": 10, "trackStyle": "Standard", "trackTexture": "", "trackTextureScale": 1 },
{ "floor": 101, "eventType": "ColorTrack", "trackColorType": "Single", "trackColor": "debb7b", "secondaryTrackColor": "ffffff", "trackColorAnimDuration": 2, "trackColorPulse": "None", "trackPulseLength": 10, "trackStyle": "Standard", "trackTexture": "", "trackTextureScale": 1 },
{ "floor": 117, "eventType": "ColorTrack", "trackColorType": "Single", "trackColor": "7c8fc2ff", "secondaryTrackColor": "ffffff", "trackColorAnimDuration": 2, "trackColorPulse": "None", "trackPulseLength": 10, "trackStyle": "Standard", "trackTexture": "", "trackTextureScale": 1 },
{ "floor": 131, "eventType": "ColorTrack", "trackColorType": "Single", "trackColor": "ff8686ff", "secondaryTrackColor": "ffffff", "trackColorAnimDuration": 2, "trackColorPulse": "None", "trackPulseLength": 10, "trackStyle": "Standard", "trackTexture": "", "trackTextureScale": 1 },
{ "floor": 131, "eventType": "MoveCamera", "duration": 0, "relativeTo": "Player", "position": [0, 0], "angleOffset": 0, "ease": "Linear", "dontDisable": "Disabled", "minVfxOnly": "Disabled", "eventTag": "", },
{ "floor": 143, "eventType": "ColorTrack", "trackColorType": "Single", "trackColor": "f65dffff", "secondaryTrackColor": "ffffff", "trackColorAnimDuration": 2, "trackColorPulse": "None", "trackPulseLength": 10, "trackStyle": "Standard", "trackTexture": "", "trackTextureScale": 1 },
{ "floor": 157, "eventType": "ColorTrack", "trackColorType": "Single", "trackColor": "ff8686ff", "secondaryTrackColor": "ffffff", "trackColorAnimDuration": 2, "trackColorPulse": "None", "trackPulseLength": 10, "trackStyle": "Standard", "trackTexture": "", "trackTextureScale": 1 },
{ "floor": 169, "eventType": "ColorTrack", "trackColorType": "Single", "trackColor": "e4e462ff", "secondaryTrackColor": "ffffff", "trackColorAnimDuration": 2, "trackColorPulse": "None", "trackPulseLength": 10, "trackStyle": "Standard", "trackTexture": "", "trackTextureScale": 1 },
{ "floor": 183, "eventType": "ColorTrack", "trackColorType": "Single", "trackColor": "ff8686ff", "secondaryTrackColor": "ffffff", "trackColorAnimDuration": 2, "trackColorPulse": "None", "trackPulseLength": 10, "trackStyle": "Standard", "trackTexture": "", "trackTextureScale": 1 },
{ "floor": 195, "eventType": "ColorTrack", "trackColorType": "Single", "trackColor": "f65dffff", "secondaryTrackColor": "ffffff", "trackColorAnimDuration": 2, "trackColorPulse": "None", "trackPulseLength": 10, "trackStyle": "Standard", "trackTexture": "", "trackTextureScale": 1 },
{ "floor": 209, "eventType": "ColorTrack", "trackColorType": "Single", "trackColor": "ff8686ff", "secondaryTrackColor": "ffffff", "trackColorAnimDuration": 2, "trackColorPulse": "None", "trackPulseLength": 10, "trackStyle": "Standard", "trackTexture": "", "trackTextureScale": 1 },
{ "floor": 221, "eventType": "ColorTrack", "trackColorType": "Single", "trackColor": "e4e462ff", "secondaryTrackColor": "ffffff", "trackColorAnimDuration": 2, "trackColorPulse": "None", "trackPulseLength": 10, "trackStyle": "Standard", "trackTexture": "", "trackTextureScale": 1 },
{ "floor": 225, "eventType": "AnimateTrack", "trackAnimation": "Assemble", "beatsAhead": 2, "trackDisappearAnimation": "Retract", "beatsBehind": 0 }
]
"decorations":
[
]
}