Files
adofai-new-world-1/level.adofai
2022-07-28 14:38:52 +08:00

230 lines
12 KiB
Plaintext

{
"angleData": [0, 90, 0, 270, 270, 0, 90, 0, 0, 90, 0, 270, 0, 90, 0, 0, 270, 0, 90, 0, 90, 90, 0, 270, 0, 90, 0, 270, 0, 90, 0, 270, 0, 90, 0, 270, 0, 90, 0, 270, 0, 60, 120, 180, 120, 60, 0, 240, 120, 0, 270, 0, 90, 0, 0, 90, 0, 270, 270, 0, 90, 0, 0, 90, 0, 270, 0, 90, 0, 0, 270, 0, 90, 0, 270, 270, 0, 0, 90, 0, 270, 270, 0, 90, 0, 0, 90, 0, 270, 0, 0, -180, 90, 0, 90, 90, 180, 180, 180, 180, 90, 180, 90, 180, 270, 180, 90, 180, 90, 90, 180, 270, 270, 180, 90, 180, 180, 180, 180, 180, 90, 180, 90, 180, 270, 180, 90, 180, 90, 90, 180, 270, 270, 180, 90, 180, 180, 180, 180, 180, 90, 180, 90, 180, 270, 180, 90, 180, 90, 90, 180, 270, 270, 180, 90, 180, 180, 180, 180, 180, 90, 180, 90, 180, 270, 180, 90, 180, 90, 90, 180, 270, 180, 180, 90, 180, 300, 60, 180, 60, 300, 180, 180, 90, 180, 270, 180, 90, 180, 90, 180, 0, 0, 90, 180, 90, 180, 90, 180, 90, 180, 0, 0, 90, 180, 90, 180, 90, 180, 90, 180, 180, 270, 180, 90, 180, 270, 270, 180, 90, 180, 180, 90, 180, 270, 180, 180, 180, 180, 180, 60, 300, 180, 90, 180, 270, 180, 180, 90, 180, 270, 180, 90, 180, 270, 180, 180, 180, 90, 180, 270, 180, 180, 270, 0, 0, 270, 0, 90, 0, 270, 0, -180, 270, 0, 270, 180, 270, 0, 270, 180, 180, 180, 90, 0, 270, 180, 180, 180, 180, 90, 180, 270, 180, 90, 180, 180, 180, 180, 180, 180, 180, 180, 90, 0, 270, 180, 180, 180, 180, 180, 180, 180, 180, 180, 90, 0, 270, 180, 270, 0, 90, 180, 180, 180, 90, 180, 270, 180, 90, 180, 270, 180, 90, 180, 270, 180, 270, 180, 270, 270, 0, 0, 90, 0, 270, 270, 0, 90, 0, 0, 90, 0, 270, 0, 90, 0, 0, 270, 0, 90, 0, 270, 270, 0, 0, 90, 0, 270, 270, 0, 90, 0, 0, 270, 0, 90, 0, 0, -180, 270, 0, 270, 270, 180, 180, 180, 180, 270, 180, 90, 180, 270, 180, 90, 180, 270, 270, 180, 90, 90, 180, 270, 180, 90, 180, 180, 180, 180, 180, 270, 180, 90, 180, 270, 180, 180, 270, 180, 90, 180, 270, 180, 90, 180, 270, 180, 270, 180, 180, 180, 180, 180, 180, 180, 180, 270, 0, 90, 180, 180, 180, 180, 180, 180, 180, 270, 0, 90, 180, 180, 180, 180, 180, 180, 180, 270, 180, 90, 180, 270, 180, 90, 180, 180, 180, 180, 180, 180, 180, 180, 180, 180, 180, 180, 180, 180, 180, 180, 180, 180, 180, 180, 180, 180, 180, 270, 180, 90, 90, 180, 270, 180, 180, 270, 0, 90, 180, 180, 180, 180, 180],
"settings":
{
"version": 9 ,
"artist": "kizuna ai",
"specialArtistType": "None",
"artistPermission": "",
"song": "new world",
"author": "tls",
"separateCountdownTime": "Enabled",
"previewImage": "ab67.jpeg",
"previewIcon": "",
"previewIconColor": "003f52",
"previewSongStart": 0,
"previewSongDuration": 10,
"seizureWarning": "Disabled",
"levelDesc": "说说看你的关卡是什么样的吧!",
"levelTags": "",
"artistLinks": "",
"difficulty": 1,
"songFilename": "new-world.wav",
"bpm": 160,
"volume": 80,
"offset": 20,
"pitch": 100,
"hitsound": "Kick",
"hitsoundVolume": 100,
"countdownTicks": 4,
"trackColorType": "Single",
"trackColor": "debb7b",
"secondaryTrackColor": "ffffff",
"trackColorAnimDuration": 2,
"trackColorPulse": "None",
"trackPulseLength": 10,
"trackStyle": "Standard",
"trackAnimation": "None",
"beatsAhead": 3,
"trackDisappearAnimation": "None",
"beatsBehind": 4,
"backgroundColor": "000000",
"showDefaultBGIfNoImage": "Disabled",
"bgImage": "",
"bgImageColor": "ffffff",
"parallax": [100, 100],
"bgDisplayMode": "FitToScreen",
"lockRot": "Disabled",
"loopBG": "Disabled",
"unscaledSize": 100,
"relativeTo": "Player",
"position": [0, 0],
"rotation": 0,
"zoom": 100,
"bgVideo": "",
"loopVideo": "Disabled",
"vidOffset": 0,
"floorIconOutlines": "Disabled",
"stickToFloors": "Disabled",
"planetEase": "Linear",
"planetEaseParts": 1,
"customClass": "",
"legacyFlash": false ,
"legacySpriteTiles": false
},
"actions":
[
{ "floor": 2, "eventType": "Twirl" },
{ "floor": 4, "eventType": "Twirl" },
{ "floor": 10, "eventType": "Twirl" },
{ "floor": 13, "eventType": "Twirl" },
{ "floor": 14, "eventType": "Twirl" },
{ "floor": 17, "eventType": "Twirl" },
{ "floor": 19, "eventType": "Twirl" },
{ "floor": 20, "eventType": "Twirl" },
{ "floor": 22, "eventType": "Twirl" },
{ "floor": 24, "eventType": "Twirl" },
{ "floor": 26, "eventType": "Twirl" },
{ "floor": 28, "eventType": "Twirl" },
{ "floor": 30, "eventType": "Twirl" },
{ "floor": 32, "eventType": "Twirl" },
{ "floor": 34, "eventType": "Twirl" },
{ "floor": 36, "eventType": "Twirl" },
{ "floor": 38, "eventType": "Twirl" },
{ "floor": 40, "eventType": "Twirl" },
{ "floor": 41, "eventType": "AnimateTrack", "trackAnimation": "None", "beatsAhead": 3, "trackDisappearAnimation": "Retract", "beatsBehind": 0 },
{ "floor": 44, "eventType": "Twirl" },
{ "floor": 51, "eventType": "Twirl" },
{ "floor": 53, "eventType": "Twirl" },
{ "floor": 54, "eventType": "AnimateTrack", "trackAnimation": "None", "beatsAhead": 3, "trackDisappearAnimation": "None", "beatsBehind": 4 },
{ "floor": 54, "eventType": "Twirl" },
{ "floor": 56, "eventType": "Twirl" },
{ "floor": 58, "eventType": "Twirl" },
{ "floor": 64, "eventType": "Twirl" },
{ "floor": 67, "eventType": "Twirl" },
{ "floor": 68, "eventType": "Twirl" },
{ "floor": 71, "eventType": "Twirl" },
{ "floor": 73, "eventType": "Twirl" },
{ "floor": 75, "eventType": "Twirl" },
{ "floor": 79, "eventType": "Twirl" },
{ "floor": 81, "eventType": "Twirl" },
{ "floor": 87, "eventType": "Twirl" },
{ "floor": 94, "eventType": "Twirl" },
{ "floor": 98, "eventType": "Checkpoint", "tileOffset": 0 },
{ "floor": 102, "eventType": "Twirl" },
{ "floor": 103, "eventType": "Twirl" },
{ "floor": 108, "eventType": "Twirl" },
{ "floor": 110, "eventType": "Twirl" },
{ "floor": 113, "eventType": "Twirl" },
{ "floor": 115, "eventType": "Twirl" },
{ "floor": 122, "eventType": "Twirl" },
{ "floor": 123, "eventType": "Twirl" },
{ "floor": 128, "eventType": "Twirl" },
{ "floor": 130, "eventType": "Twirl" },
{ "floor": 133, "eventType": "Twirl" },
{ "floor": 135, "eventType": "Twirl" },
{ "floor": 142, "eventType": "Twirl" },
{ "floor": 143, "eventType": "Twirl" },
{ "floor": 148, "eventType": "Twirl" },
{ "floor": 150, "eventType": "Twirl" },
{ "floor": 153, "eventType": "Twirl" },
{ "floor": 155, "eventType": "Twirl" },
{ "floor": 158, "eventType": "Checkpoint", "tileOffset": 0 },
{ "floor": 162, "eventType": "Twirl" },
{ "floor": 163, "eventType": "Twirl" },
{ "floor": 168, "eventType": "Twirl" },
{ "floor": 170, "eventType": "Twirl" },
{ "floor": 172, "eventType": "Twirl" },
{ "floor": 175, "eventType": "Twirl" },
{ "floor": 175, "eventType": "AnimateTrack", "trackAnimation": "Assemble", "beatsAhead": 3, "trackDisappearAnimation": "Retract", "beatsBehind": 0 },
{ "floor": 179, "eventType": "Twirl" },
{ "floor": 182, "eventType": "SetSpeed", "speedType": "Multiplier", "beatsPerMinute": 100, "bpmMultiplier": 0.5 },
{ "floor": 183, "eventType": "AnimateTrack", "trackAnimation": "None", "beatsAhead": 3, "trackDisappearAnimation": "None", "beatsBehind": 4 },
{ "floor": 184, "eventType": "Twirl" },
{ "floor": 185, "eventType": "Twirl" },
{ "floor": 188, "eventType": "Twirl" },
{ "floor": 189, "eventType": "Twirl" },
{ "floor": 190, "eventType": "Twirl" },
{ "floor": 197, "eventType": "Twirl" },
{ "floor": 198, "eventType": "Twirl" },
{ "floor": 199, "eventType": "Twirl" },
{ "floor": 200, "eventType": "Twirl" },
{ "floor": 202, "eventType": "Bloom", "enabled": "Enabled", "threshold": 50, "intensity": 50, "color": "ffffff", "duration": 3, "ease": "Linear", "angleOffset": 0, "eventTag": "" },
{ "floor": 207, "eventType": "Twirl" },
{ "floor": 208, "eventType": "Twirl" },
{ "floor": 209, "eventType": "Twirl" },
{ "floor": 210, "eventType": "Twirl" },
{ "floor": 213, "eventType": "Twirl" },
{ "floor": 214, "eventType": "SetSpeed", "speedType": "Multiplier", "beatsPerMinute": 100, "bpmMultiplier": 2 },
{ "floor": 215, "eventType": "Twirl" },
{ "floor": 217, "eventType": "Twirl" },
{ "floor": 223, "eventType": "Twirl" },
{ "floor": 225, "eventType": "Twirl" },
{ "floor": 226, "eventType": "Bloom", "enabled": "Disabled", "threshold": 50, "intensity": 100, "color": "ffffff", "duration": 0, "ease": "Linear", "angleOffset": 0, "eventTag": "" },
{ "floor": 228, "eventType": "AnimateTrack", "trackAnimation": "Assemble", "beatsAhead": 3, "trackDisappearAnimation": "Retract", "beatsBehind": 0 },
{ "floor": 234, "eventType": "Twirl" },
{ "floor": 234, "eventType": "AnimateTrack", "trackAnimation": "None", "beatsAhead": 3, "trackDisappearAnimation": "None", "beatsBehind": 4 },
{ "floor": 236, "eventType": "Twirl" },
{ "floor": 239, "eventType": "Twirl" },
{ "floor": 241, "eventType": "Twirl" },
{ "floor": 243, "eventType": "Twirl" },
{ "floor": 245, "eventType": "Twirl" },
{ "floor": 249, "eventType": "Twirl" },
{ "floor": 251, "eventType": "Twirl" },
{ "floor": 253, "eventType": "Twirl" },
{ "floor": 256, "eventType": "Twirl" },
{ "floor": 257, "eventType": "Twirl" },
{ "floor": 259, "eventType": "Twirl" },
{ "floor": 261, "eventType": "Twirl" },
{ "floor": 265, "eventType": "Twirl" },
{ "floor": 267, "eventType": "Twirl" },
{ "floor": 269, "eventType": "Twirl" },
{ "floor": 281, "eventType": "Twirl" },
{ "floor": 283, "eventType": "Twirl" },
{ "floor": 287, "eventType": "Bloom", "enabled": "Enabled", "threshold": 50, "intensity": 50, "color": "ffffff", "duration": 0, "ease": "Linear", "angleOffset": 0, "eventTag": "" },
{ "floor": 305, "eventType": "Bloom", "enabled": "Disabled", "threshold": 50, "intensity": 100, "color": "ffffff", "duration": 0, "ease": "Linear", "angleOffset": 0, "eventTag": "" },
{ "floor": 309, "eventType": "Twirl" },
{ "floor": 315, "eventType": "Twirl" },
{ "floor": 316, "eventType": "Twirl" },
{ "floor": 318, "eventType": "Twirl" },
{ "floor": 320, "eventType": "Twirl" },
{ "floor": 322, "eventType": "Twirl" },
{ "floor": 324, "eventType": "Twirl" },
{ "floor": 326, "eventType": "Twirl" },
{ "floor": 327, "eventType": "Twirl" },
{ "floor": 328, "eventType": "Twirl" },
{ "floor": 329, "eventType": "Twirl" },
{ "floor": 333, "eventType": "SetFilter", "filter": "Glitch", "enabled": "Enabled", "intensity": 100, "duration": 0, "ease": "Linear", "disableOthers": "Disabled", "angleOffset": 0, "eventTag": "" },
{ "floor": 334, "eventType": "Twirl" },
{ "floor": 337, "eventType": "Twirl" },
{ "floor": 342, "eventType": "Twirl" },
{ "floor": 345, "eventType": "Twirl" },
{ "floor": 346, "eventType": "Twirl" },
{ "floor": 349, "eventType": "Twirl" },
{ "floor": 351, "eventType": "Twirl" },
{ "floor": 353, "eventType": "Twirl" },
{ "floor": 356, "eventType": "HallOfMirrors", "enabled": "Enabled", "angleOffset": 0, "eventTag": "" },
{ "floor": 357, "eventType": "Twirl" },
{ "floor": 359, "eventType": "Twirl" },
{ "floor": 359, "eventType": "HallOfMirrors", "enabled": "Disabled", "angleOffset": 0, "eventTag": "" },
{ "floor": 364, "eventType": "Twirl" },
{ "floor": 365, "eventType": "Twirl" },
{ "floor": 372, "eventType": "Twirl" },
{ "floor": 375, "eventType": "SetFilter", "filter": "Glitch", "enabled": "Disabled", "intensity": 100, "duration": 0, "ease": "Linear", "disableOthers": "Disabled", "angleOffset": 0, "eventTag": "" },
{ "floor": 381, "eventType": "Twirl" },
{ "floor": 388, "eventType": "Twirl" },
{ "floor": 391, "eventType": "Twirl" },
{ "floor": 393, "eventType": "Twirl" },
{ "floor": 395, "eventType": "Twirl" },
{ "floor": 401, "eventType": "Twirl" },
{ "floor": 403, "eventType": "Twirl" },
{ "floor": 408, "eventType": "Twirl" },
{ "floor": 410, "eventType": "Twirl" },
{ "floor": 412, "eventType": "Twirl" },
{ "floor": 414, "eventType": "Twirl" },
{ "floor": 416, "eventType": "Twirl" },
{ "floor": 417, "eventType": "Twirl" },
{ "floor": 420, "eventType": "Bloom", "enabled": "Enabled", "threshold": 50, "intensity": 50, "color": "ffffff", "duration": 2, "ease": "Linear", "angleOffset": 0, "eventTag": "" },
{ "floor": 447, "eventType": "Twirl" },
{ "floor": 449, "eventType": "Twirl" },
{ "floor": 451, "eventType": "Twirl" },
{ "floor": 453, "eventType": "Twirl" },
{ "floor": 460, "eventType": "Bloom", "enabled": "Enabled", "threshold": 50, "intensity": 50, "color": "ffffff", "duration": 2, "ease": "Linear", "angleOffset": 0, "eventTag": "" },
{ "floor": 477, "eventType": "Twirl" },
{ "floor": 479, "eventType": "Twirl" }
]
"decorations":
[
]
}