adofai-new-world-1/new.adofai

118 lines
14 KiB
Plaintext

{
"angleData": [0, 90, 999, 0, 90, 90, 225, 999, 180, 999, 90, 0, 0, 90, 999, 0, 90, 0, 90, 999, 0, 0, 90, 999, 0, 90, 999, 0, 90, 90, 999, 45, 999, 0, 0, 90, 999, 0, 90, 90, 225, 999, 180, 999, 90, 0, 0, 90, 999, 0, 90, 0, 0, 0, 0, 120, 999, 60, 999, 0, 90, 999, 0, 90, 999, 0, 0, 90, 999, 0, 90, 90, 225, 999, 180, 999, 90, 0, 0, 90, 999, 0, 90, 0, 90, 999, 0, 0, 90, 999, 0, 90, 999, 0, 90, 90, 999, 45, 999, 0, 0, 90, 999, 0, 90, 90, 225, 999, 180, 999, 90, 0, 0, 90, 999, 0, 90, 0, 0, 0, 0, 90, 999, 0, 90, 90, 999, 45, 999, 0, 0, 0, 0, 0, 90, 180, 999, 90, 180, 999, 90, 0, 0, 90, 180, 999, 90, 90, 180, 999, 90, 90, 180, 999, 90, 180, 180, 0, 0, 0, 90, 180, 999, 90, 180, 999, 90, 0, 0, 90, 180, 999, 90, 90, 180, 999, 90, 90, 180, 999, 90, 0, 0, 0, 0, 0, 90, 180, 999, 90, 180, 999, 90, 0, 0, 90, 180, 999, 90, 90, 180, 999, 90, 90, 180, 999, 90, 180, 180, 0, 0, 0, 90, 180, 999, 90, 180, 999, 90, 0, 0, 90, 180, 999, 90, 90, 180, 999, 90, 0, 0, 270, 999, 0, 120, 999, 60, 999, 0, 240, 999, 300, 999, 0, 0, 270, 999, 0, 90, 0, 270, 999, 0, 270, 999, 0, 0, 0, 270, 999, 0, 90, 0, 270, 999, 0, 270, 999, 0, 0, 0, 270, 999, 0, 90, 0, 270, 999, 0, 270, 999, 0, 0, 0, 0, 90, 999, 0, 90, 90, 180, 999, 90, 0, 0, 90, 999, 0, 90, 999, 0, 0, 0, 0, 0, 120, 999, 60, 999, 0, 90, 999, 0, 90, 999, 0, 0, 90, 999, 0, 90, 90, 180, 999, 90, 0, 0, 90, 999, 0, 90, 0, 90, 999, 0, 0, 90, 999, 0, 90, 999, 0, 90, 0, 0, 90, 999, 0, 90, 90, 180, 999, 90, 0, 0, 90, 999, 0, 90, 0, 0, 0, 90, 999, 0, 90, 999, 0, 90, 0, 0, 0, 0, 0, 0, 0, 0, 45, 999, 0, 0, 0, 0, 0, 0, 0, 0, 45, 999, 0, 0, 90, 999, 0, 90, 90, 180, 999, 90, 0, 0, 90, 999, 0, 90, 999, 0, 0, 0, 0, 0, 90, 999, 0, 90, 90, 180, 999, 0, 90, 999, 0, 90, 90, 180, 999, 90, 0, 0, 90, 999, 0, 90, 0, 90, 999, 0, 0, 90, 999, 0, 90, 999, 0, 90, 90, 999, 0, 0, 90, 999, 0, 90, 90, 180, 999, 90, 0, 0, 90, 999, 0, 90, 0, 0, 0, 0, 90, 999, 0, 90, 90, 999, 0, 0, 0, 0, 0, 0, 0, 0, 0],
"settings":
{
"version": 9 ,
"artist": "扒谱",
"specialArtistType": "None",
"artistPermission": "",
"song": "new world",
"author": "tls",
"separateCountdownTime": "Enabled",
"previewImage": "ab67.jpeg",
"previewIcon": "",
"previewIconColor": "003f52",
"previewSongStart": 0,
"previewSongDuration": 10,
"seizureWarning": "Disabled",
"levelDesc": "说说看你的关卡是什么样的吧!",
"levelTags": "",
"artistLinks": "",
"difficulty": 1,
"songFilename": "new-world.wav",
"bpm": 160,
"volume": 80,
"offset": 25,
"pitch": 100,
"hitsound": "Kick",
"hitsoundVolume": 100,
"countdownTicks": 4,
"trackColorType": "Single",
"trackColor": "debb7b",
"secondaryTrackColor": "ffffff",
"trackColorAnimDuration": 2,
"trackColorPulse": "None",
"trackPulseLength": 10,
"trackStyle": "Standard",
"trackAnimation": "None",
"beatsAhead": 3,
"trackDisappearAnimation": "None",
"beatsBehind": 4,
"backgroundColor": "000000",
"showDefaultBGIfNoImage": "Disabled",
"bgImage": "",
"bgImageColor": "ffffff",
"parallax": [100, 100],
"bgDisplayMode": "FitToScreen",
"lockRot": "Disabled",
"loopBG": "Disabled",
"unscaledSize": 100,
"relativeTo": "Player",
"position": [0, 0],
"rotation": 0,
"zoom": 100,
"bgVideo": "",
"loopVideo": "Disabled",
"vidOffset": 0,
"floorIconOutlines": "Disabled",
"stickToFloors": "Disabled",
"planetEase": "Linear",
"planetEaseParts": 1,
"customClass": "",
"legacyFlash": false ,
"legacySpriteTiles": false
},
"actions":
[
{ "floor": 1, "eventType": "MoveCamera", "duration": 1, "relativeTo": "Player", "position": [0, 0], "zoom": 200, "angleOffset": 0, "ease": "Linear", "dontDisable": "Disabled", "minVfxOnly": "Disabled", "eventTag": "", },
{ "floor": 17, "eventType": "ColorTrack", "trackColorType": "Single", "trackColor": "7ee97bff", "secondaryTrackColor": "ffffff", "trackColorAnimDuration": 2, "trackColorPulse": "None", "trackPulseLength": 10, "trackStyle": "Standard", "trackTexture": "", "trackTextureScale": 1 },
{ "floor": 35, "eventType": "ColorTrack", "trackColorType": "Single", "trackColor": "debb7b", "secondaryTrackColor": "ffffff", "trackColorAnimDuration": 2, "trackColorPulse": "None", "trackPulseLength": 10, "trackStyle": "Standard", "trackTexture": "", "trackTextureScale": 1 },
{ "floor": 51, "eventType": "ColorTrack", "trackColorType": "Single", "trackColor": "7fba9eff", "secondaryTrackColor": "ffffff", "trackColorAnimDuration": 2, "trackColorPulse": "None", "trackPulseLength": 10, "trackStyle": "Standard", "trackTexture": "", "trackTextureScale": 1 },
{ "floor": 67, "eventType": "ColorTrack", "trackColorType": "Single", "trackColor": "debb7b", "secondaryTrackColor": "ffffff", "trackColorAnimDuration": 2, "trackColorPulse": "None", "trackPulseLength": 10, "trackStyle": "Standard", "trackTexture": "", "trackTextureScale": 1 },
{ "floor": 83, "eventType": "ColorTrack", "trackColorType": "Single", "trackColor": "7ee97bff", "secondaryTrackColor": "ffffff", "trackColorAnimDuration": 2, "trackColorPulse": "None", "trackPulseLength": 10, "trackStyle": "Standard", "trackTexture": "", "trackTextureScale": 1 },
{ "floor": 101, "eventType": "ColorTrack", "trackColorType": "Single", "trackColor": "debb7b", "secondaryTrackColor": "ffffff", "trackColorAnimDuration": 2, "trackColorPulse": "None", "trackPulseLength": 10, "trackStyle": "Standard", "trackTexture": "", "trackTextureScale": 1 },
{ "floor": 117, "eventType": "ColorTrack", "trackColorType": "Single", "trackColor": "7c8fc2ff", "secondaryTrackColor": "ffffff", "trackColorAnimDuration": 2, "trackColorPulse": "None", "trackPulseLength": 10, "trackStyle": "Standard", "trackTexture": "", "trackTextureScale": 1 },
{ "floor": 131, "eventType": "ColorTrack", "trackColorType": "Single", "trackColor": "ff8686ff", "secondaryTrackColor": "ffffff", "trackColorAnimDuration": 2, "trackColorPulse": "None", "trackPulseLength": 10, "trackStyle": "Standard", "trackTexture": "", "trackTextureScale": 1 },
{ "floor": 131, "eventType": "MoveCamera", "duration": 0, "relativeTo": "Player", "position": [0, 0], "angleOffset": 0, "ease": "Linear", "dontDisable": "Disabled", "minVfxOnly": "Disabled", "eventTag": "", },
{ "floor": 143, "eventType": "ColorTrack", "trackColorType": "Single", "trackColor": "f65dffff", "secondaryTrackColor": "ffffff", "trackColorAnimDuration": 2, "trackColorPulse": "None", "trackPulseLength": 10, "trackStyle": "Standard", "trackTexture": "", "trackTextureScale": 1 },
{ "floor": 157, "eventType": "ColorTrack", "trackColorType": "Single", "trackColor": "ff8686ff", "secondaryTrackColor": "ffffff", "trackColorAnimDuration": 2, "trackColorPulse": "None", "trackPulseLength": 10, "trackStyle": "Standard", "trackTexture": "", "trackTextureScale": 1 },
{ "floor": 169, "eventType": "ColorTrack", "trackColorType": "Single", "trackColor": "e4e462ff", "secondaryTrackColor": "ffffff", "trackColorAnimDuration": 2, "trackColorPulse": "None", "trackPulseLength": 10, "trackStyle": "Standard", "trackTexture": "", "trackTextureScale": 1 },
{ "floor": 183, "eventType": "ColorTrack", "trackColorType": "Single", "trackColor": "ff8686ff", "secondaryTrackColor": "ffffff", "trackColorAnimDuration": 2, "trackColorPulse": "None", "trackPulseLength": 10, "trackStyle": "Standard", "trackTexture": "", "trackTextureScale": 1 },
{ "floor": 195, "eventType": "ColorTrack", "trackColorType": "Single", "trackColor": "f65dffff", "secondaryTrackColor": "ffffff", "trackColorAnimDuration": 2, "trackColorPulse": "None", "trackPulseLength": 10, "trackStyle": "Standard", "trackTexture": "", "trackTextureScale": 1 },
{ "floor": 209, "eventType": "ColorTrack", "trackColorType": "Single", "trackColor": "ff8686ff", "secondaryTrackColor": "ffffff", "trackColorAnimDuration": 2, "trackColorPulse": "None", "trackPulseLength": 10, "trackStyle": "Standard", "trackTexture": "", "trackTextureScale": 1 },
{ "floor": 221, "eventType": "ColorTrack", "trackColorType": "Single", "trackColor": "e4e462ff", "secondaryTrackColor": "ffffff", "trackColorAnimDuration": 2, "trackColorPulse": "None", "trackPulseLength": 10, "trackStyle": "Standard", "trackTexture": "", "trackTextureScale": 1 },
{ "floor": 229, "eventType": "Twirl" },
{ "floor": 234, "eventType": "Twirl" },
{ "floor": 239, "eventType": "Twirl" },
{ "floor": 244, "eventType": "SetSpeed", "speedType": "Multiplier", "beatsPerMinute": 100, "bpmMultiplier": 0.5 },
{ "floor": 244, "eventType": "ColorTrack", "trackColorType": "Single", "trackColor": "debb7b", "secondaryTrackColor": "ffffff", "trackColorAnimDuration": 2, "trackColorPulse": "None", "trackPulseLength": 10, "trackStyle": "Standard", "trackTexture": "", "trackTextureScale": 1 },
{ "floor": 256, "eventType": "SetSpeed", "speedType": "Multiplier", "beatsPerMinute": 100, "bpmMultiplier": 0.5 },
{ "floor": 257, "eventType": "SetSpeed", "speedType": "Multiplier", "beatsPerMinute": 100, "bpmMultiplier": 2 },
{ "floor": 269, "eventType": "SetSpeed", "speedType": "Multiplier", "beatsPerMinute": 100, "bpmMultiplier": 0.5 },
{ "floor": 270, "eventType": "SetSpeed", "speedType": "Multiplier", "beatsPerMinute": 100, "bpmMultiplier": 2 },
{ "floor": 283, "eventType": "SetSpeed", "speedType": "Multiplier", "beatsPerMinute": 100, "bpmMultiplier": 2 },
{ "floor": 284, "eventType": "Twirl" },
{ "floor": 301, "eventType": "ColorTrack", "trackColorType": "Single", "trackColor": "83be50ff", "secondaryTrackColor": "ffffff", "trackColorAnimDuration": 2, "trackColorPulse": "None", "trackPulseLength": 10, "trackStyle": "Standard", "trackTexture": "", "trackTextureScale": 1 },
{ "floor": 317, "eventType": "ColorTrack", "trackColorType": "Single", "trackColor": "debb7b", "secondaryTrackColor": "ffffff", "trackColorAnimDuration": 2, "trackColorPulse": "None", "trackPulseLength": 10, "trackStyle": "Standard", "trackTexture": "", "trackTextureScale": 1 },
{ "floor": 331, "eventType": "ColorTrack", "trackColorType": "Single", "trackColor": "5fc0c3ff", "secondaryTrackColor": "ffffff", "trackColorAnimDuration": 2, "trackColorPulse": "None", "trackPulseLength": 10, "trackStyle": "Standard", "trackTexture": "", "trackTextureScale": 1 },
{ "floor": 345, "eventType": "ColorTrack", "trackColorType": "Single", "trackColor": "debb7b", "secondaryTrackColor": "ffffff", "trackColorAnimDuration": 2, "trackColorPulse": "None", "trackPulseLength": 10, "trackStyle": "Standard", "trackTexture": "", "trackTextureScale": 1 },
{ "floor": 359, "eventType": "ColorTrack", "trackColorType": "Single", "trackColor": "ea6161ff", "secondaryTrackColor": "ffffff", "trackColorAnimDuration": 2, "trackColorPulse": "None", "trackPulseLength": 10, "trackStyle": "Standard", "trackTexture": "", "trackTextureScale": 1 },
{ "floor": 371, "eventType": "ColorTrack", "trackColorType": "Single", "trackColor": "debb7b", "secondaryTrackColor": "ffffff", "trackColorAnimDuration": 2, "trackColorPulse": "None", "trackPulseLength": 10, "trackStyle": "Standard", "trackTexture": "", "trackTextureScale": 1 },
{ "floor": 380, "eventType": "ColorTrack", "trackColorType": "Single", "trackColor": "edcc91ff", "secondaryTrackColor": "ffffff", "trackColorAnimDuration": 2, "trackColorPulse": "None", "trackPulseLength": 10, "trackStyle": "Standard", "trackTexture": "", "trackTextureScale": 1 },
{ "floor": 391, "eventType": "ColorTrack", "trackColorType": "Single", "trackColor": "debb7b", "secondaryTrackColor": "ffffff", "trackColorAnimDuration": 2, "trackColorPulse": "None", "trackPulseLength": 10, "trackStyle": "Standard", "trackTexture": "", "trackTextureScale": 1 },
{ "floor": 407, "eventType": "ColorTrack", "trackColorType": "Single", "trackColor": "a1cc27ff", "secondaryTrackColor": "ffffff", "trackColorAnimDuration": 2, "trackColorPulse": "None", "trackPulseLength": 10, "trackStyle": "Standard", "trackTexture": "", "trackTextureScale": 1 },
{ "floor": 419, "eventType": "ColorTrack", "trackColorType": "Single", "trackColor": "debb7b", "secondaryTrackColor": "ffffff", "trackColorAnimDuration": 2, "trackColorPulse": "None", "trackPulseLength": 10, "trackStyle": "Standard", "trackTexture": "", "trackTextureScale": 1 },
{ "floor": 419, "eventType": "SetFilter", "filter": "Glitch", "enabled": "Enabled", "intensity": 100, "duration": 0, "ease": "Linear", "disableOthers": "Disabled", "angleOffset": 0, "eventTag": "" },
{ "floor": 433, "eventType": "ColorTrack", "trackColorType": "Single", "trackColor": "639ce6ff", "secondaryTrackColor": "ffffff", "trackColorAnimDuration": 2, "trackColorPulse": "None", "trackPulseLength": 10, "trackStyle": "Standard", "trackTexture": "", "trackTextureScale": 1 },
{ "floor": 449, "eventType": "ColorTrack", "trackColorType": "Single", "trackColor": "debb7b", "secondaryTrackColor": "ffffff", "trackColorAnimDuration": 2, "trackColorPulse": "None", "trackPulseLength": 10, "trackStyle": "Standard", "trackTexture": "", "trackTextureScale": 1 },
{ "floor": 449, "eventType": "HallOfMirrors", "enabled": "Enabled", "angleOffset": 0, "eventTag": "" },
{ "floor": 452, "eventType": "HallOfMirrors", "enabled": "Disabled", "angleOffset": 0, "eventTag": "" },
{ "floor": 463, "eventType": "ColorTrack", "trackColorType": "Single", "trackColor": "eea5a5ff", "secondaryTrackColor": "ffffff", "trackColorAnimDuration": 2, "trackColorPulse": "None", "trackPulseLength": 10, "trackStyle": "Standard", "trackTexture": "", "trackTextureScale": 1 },
{ "floor": 474, "eventType": "SetFilter", "filter": "Glitch", "enabled": "Disabled", "intensity": 100, "duration": 0, "ease": "Linear", "disableOthers": "Disabled", "angleOffset": 0, "eventTag": "" },
{ "floor": 475, "eventType": "ColorTrack", "trackColorType": "Single", "trackColor": "debb7b", "secondaryTrackColor": "ffffff", "trackColorAnimDuration": 2, "trackColorPulse": "None", "trackPulseLength": 10, "trackStyle": "Standard", "trackTexture": "", "trackTextureScale": 1 }
]
"decorations":
[
]
}