adofai-hand-in-hand/handinhand.adofai
2023-01-07 12:06:38 +08:00

289 lines
15 KiB
Plaintext

{
"angleData": [0, 0, 90, 180, 270, 0, 90, 180, 180, 90, 0, 270, 180, 90, 0, 0, 90, 180, 270, 0, 90, 180, 180, 90, 0, 270, 180, 90, 0, 0, 90, 180, 270, 0, 90, 180, 180, 90, 0, 270, 180, 90, 0, 0, 90, 180, 270, 0, 90, 180, 180, 180, 180, 180, 180, 180, 135, 90, 0, 270, 180, 90, 0, 0, 0, 0, 0, 45, 90, 180, 180, 270, 0, 0, 0, 0, 0, 45, 90, 180, 270, 0, 90, 180, 180, 180, 180, 180, 180, 180, 180, 90, 0, 0, 90, 180, 180, 180, 135, 90, 0, 90, 180, 45, 180, 45, 180, 90, 180, 180, 180, 180, 135, 90, 0, 90, 180, 45, 180, 45, 180, 90, 180, 180, 180, 180, 135, 90, 0, 90, 180, 45, 180, 45, 180, 90, 180, 180, 180, 180, 135, 90, 0, 0, 0, 0, 0, 0, 90, 180, 135, 90, 0, 0, 0, 270, 180, 90, 0, 0, 90, 180, 135, 90, 0, 0, 0, 0, 0, 0, 270, 180, 225, 270, 0, 0, 0, 90, 180, 270, 0, 0, 90, 0, 0, 270, 0, 0, 0, 0, 0, 0, 90, 180, 270, 0, 90, 180, 180, 90, 0, 270, 180, 90, 0, 0, 90, 180, 270, 0, 90, 180, 180, 90, 0, 270, 180, 90, 0, 0, 90, 180, 270, 0, 90, 180, 180, 90, 0, 270, 180, 90, 0, 0, 90, 180, 270, 0, 90, 180, 180, 180, 180, 180, 180, 180, 135, 90, 0, 270, 180, 180, 180, 180, 180, 180, 135, 90, 0, 0, 270, 180, 180, 180, 180, 180, 135, 90, 0, 270, 180, 90, 0, 0, 0, 0, 0, 0, 90, 180, 180, 180, 90, 0, 270, 180, 180, 180, 135, 90, 0, 270, 180, 90, 0, 0, 0, 0, 0, 45, 90, 180, 180, 270, 0, 0, 0, 0, 0, 45, 90, 180, 270, 0, 90, 180, 180, 180, 180, 180, 180, 180, 180, 90, 180, 180, 270, 180, 180, 180, 135, 90, 0, 90, 180, 45, 180, 45, 180, 90, 180, 180, 180, 180, 135, 90, 0, 90, 180, 45, 180, 45, 180, 90, 180, 180, 180, 180, 135, 90, 0, 90, 180, 45, 180, 45, 180, 90, 180, 180, 180, 180, 135, 90, 0, 0, 0, 0, 0, 0, 90, 180, 135, 90, 0, 0, 0, 270, 180, 90, 0, 0, 90, 180, 135, 90, 0, 0, 0, 0, 0, 0, 270, 180, 225, 270, 0, 0, 0, 90, 180, 270, 0, 0, 90, 0, 0, 270, 0, 0, 0, 0, 0, 0, 90, 180, 270, 0, 90, 180, 180, 90, 0, 270, 180, 90, 0, 0, 90, 180, 270, 0, 90, 180, 180, 90, 0, 270, 180, 90, 0, 0, 90, 180, 270, 0, 90, 180, 180, 90, 0, 270, 180, 90, 0, 0, 90, 180, 270, 0, 90, 180, 180, 180, 180, 180, 180, 180, 135, 90, 0, 270, 180, 180, 180, 180, 180, 180, 135, 90, 0, 0, 270, 180, 180, 180, 180, 180, 135, 90, 0, 270, 180, 90, 0, 0, 0, 0, 0, 0, 90, 180, 180, 180, 90, 0, 270, 180, 180, 180, 135, 90, 0, 270, 180, 90, 0, 0, 0, 0, 0, 45, 90, 180, 180, 270, 0, 0, 0, 0, 0, 45, 90, 180, 270, 0, 90, 180, 180, 180, 180, 180, 180, 180, 180, 270, 180, 180, 90, 180, 45, 999, 90, 999, 180, 90, 999, 180, 90, 999, 180, 45, 999, 90, 999, 180, 315, 999, 270, 999, 180, 270, 999, 180, 270, 999, 180, 315, 999, 270, 999, 180, 45, 999, 90, 999, 180, 90, 999, 180, 90, 999, 180, 45, 999, 90, 999, 180, 315, 999, 270, 999, 180, 270, 999, 180, 270, 999, 180, 315, 999, 270, 999, 180, 45, 999, 90, 999, 180, 90, 999, 180, 90, 999, 180, 45, 999, 90, 999, 180, 315, 999, 270, 999, 180, 270, 999, 180, 270, 999, 180, 315, 999, 270, 999, 180, 45, 999, 90, 999, 180, 90, 999, 180, 90, 999, 180, 45, 999, 90, 999, 180, 315, 999, 270, 999, 180, 270, 999, 180, 270, 999, 180, 315, 999, 270, 999, 180, 180, 90, 90, 0, 90, 180, 90, 0, 90, 180, 90, 0, 90, 180, 90, 0, 90, 180, 90, 0, 90, 180, 90, 0, 90, 180, 90, 0, 90, 180, 90, 0, 90, 180, 90, 0, 90, 0, 270, 270, 0, 0, 0, 0, 0, 0, 0, 45, 90, 180, 270, 0, 0, 0, 0, 0, 0, 45, 90, 180, 180, 270, 0, 0, 0, 0, 0, 45, 90, 180, 270, 0, 90, 180, 180, 180, 180, 180, 90, 180, 0, 90, 180, 90, 0, 0, 0, 45, 90, 180, 270, 0, 0, 0, 0, 0, 0, 45, 90, 180, 180, 270, 0, 0, 0, 0, 0, 45, 90, 180, 270, 0, 90, 180, 180, 180, 180, 180, 90, 180, 0, 90, 180, 90, 0, 0, 0, 45, 90, 180, 270, 0, 90, 180, 180, 180, 180, 180, 135, 90, 0, 0, 270, 180, 180, 180, 180, 180, 135, 90, 0, 270, 180, 90, 0, 0, 0, 0, 0, 90, 0, 0, 270, 0, 0, 0, 45, 90, 180, 90, 0, 135, 0, 135, 0, 90, 0, 0, 0, 0, 45, 90, 180, 90, 0, 135, 0, 135, 0, 90, 0, 0, 0, 0, 45, 90, 180, 90, 0, 135, 0, 135, 0, 90, 0, 0, 0, 0, 45, 90, 180, 180, 180, 270, 180, 90, 180, 180, 180, 135, 90, 0, 90, 180, 45, 180, 45, 180, 90, 180, 180, 180, 180, 135, 90, 0, 90, 180, 45, 180, 45, 180, 90, 180, 180, 180, 180, 135, 90, 0, 90, 180, 45, 180, 45, 180, 90, 180, 180, 180, 180, 135, 90, 0, 0, 0, 270, 0, 90, 0, 0, 0, 45, 90, 180, 90, 0, 135, 0, 135, 0, 90, 0, 0, 0, 0, 45, 90, 180, 90, 0, 135, 0, 135, 0, 90, 0, 0, 0, 0, 45, 90, 180, 90, 0, 135, 0, 135, 0, 90, 0, 0, 0, 0, 45, 90, 180, 180, 180, 180, 180],
"settings":
{
"version": 11 ,
"artist": "",
"specialArtistType": "None",
"artistPermission": "",
"song": "",
"author": "",
"separateCountdownTime": "Enabled",
"previewImage": "",
"previewIcon": "",
"previewIconColor": "003f52",
"previewSongStart": 0,
"previewSongDuration": 10,
"seizureWarning": "Disabled",
"levelDesc": "",
"levelTags": "",
"artistLinks": "",
"difficulty": 1,
"requiredMods": [],
"songFilename": "bgm_1.wav",
"bpm": 128,
"volume": 60,
"offset": 12,
"pitch": 100,
"hitsound": "Kick",
"hitsoundVolume": 100,
"countdownTicks": 4,
"trackColorType": "Single",
"trackColor": "debb7b",
"secondaryTrackColor": "ffffff",
"trackColorAnimDuration": 2,
"trackColorPulse": "None",
"trackPulseLength": 10,
"trackStyle": "Standard",
"trackGlowIntensity": 100,
"trackAnimation": "None",
"beatsAhead": 3,
"trackDisappearAnimation": "None",
"beatsBehind": 4,
"backgroundColor": "000000",
"showDefaultBGIfNoImage": "Enabled",
"bgImage": "",
"bgImageColor": "ffffff",
"parallax": [100, 100],
"bgDisplayMode": "FitToScreen",
"lockRot": "Disabled",
"loopBG": "Disabled",
"unscaledSize": 100,
"relativeTo": "Player",
"position": [0, 0],
"rotation": 0,
"zoom": 100,
"pulseOnFloor": "Enabled",
"startCamLowVFX": "Disabled",
"bgVideo": "",
"loopVideo": "Disabled",
"vidOffset": 1980,
"floorIconOutlines": "Disabled",
"stickToFloors": "Enabled",
"planetEase": "Linear",
"planetEaseParts": 1,
"planetEasePartBehavior": "Mirror",
"customClass": "",
"legacyFlash": false ,
"legacyCamRelativeTo": false ,
"legacySpriteTiles": false
},
"actions":
[
{ "floor": 9, "eventType": "Twirl" },
{ "floor": 16, "eventType": "Twirl" },
{ "floor": 23, "eventType": "Twirl" },
{ "floor": 30, "eventType": "Twirl" },
{ "floor": 37, "eventType": "Twirl" },
{ "floor": 44, "eventType": "Twirl" },
{ "floor": 53, "eventType": "Twirl" },
{ "floor": 65, "eventType": "Twirl" },
{ "floor": 91, "eventType": "Twirl" },
{ "floor": 93, "eventType": "Twirl" },
{ "floor": 96, "eventType": "Twirl" },
{ "floor": 101, "eventType": "Twirl" },
{ "floor": 103, "eventType": "Twirl" },
{ "floor": 104, "eventType": "Twirl" },
{ "floor": 105, "eventType": "Twirl" },
{ "floor": 106, "eventType": "Twirl" },
{ "floor": 107, "eventType": "Twirl" },
{ "floor": 108, "eventType": "Twirl" },
{ "floor": 110, "eventType": "Twirl" },
{ "floor": 115, "eventType": "Twirl" },
{ "floor": 117, "eventType": "Twirl" },
{ "floor": 118, "eventType": "Twirl" },
{ "floor": 119, "eventType": "Twirl" },
{ "floor": 120, "eventType": "Twirl" },
{ "floor": 121, "eventType": "Twirl" },
{ "floor": 122, "eventType": "Twirl" },
{ "floor": 124, "eventType": "Twirl" },
{ "floor": 129, "eventType": "Twirl" },
{ "floor": 131, "eventType": "Twirl" },
{ "floor": 132, "eventType": "Twirl" },
{ "floor": 133, "eventType": "Twirl" },
{ "floor": 134, "eventType": "Twirl" },
{ "floor": 135, "eventType": "Twirl" },
{ "floor": 136, "eventType": "Twirl" },
{ "floor": 138, "eventType": "Twirl" },
{ "floor": 146, "eventType": "Twirl" },
{ "floor": 150, "eventType": "Twirl" },
{ "floor": 160, "eventType": "Twirl" },
{ "floor": 162, "eventType": "Twirl" },
{ "floor": 172, "eventType": "Twirl" },
{ "floor": 183, "eventType": "Twirl" },
{ "floor": 186, "eventType": "Twirl" },
{ "floor": 199, "eventType": "Twirl" },
{ "floor": 206, "eventType": "Twirl" },
{ "floor": 213, "eventType": "Twirl" },
{ "floor": 220, "eventType": "Twirl" },
{ "floor": 227, "eventType": "Twirl" },
{ "floor": 234, "eventType": "Twirl" },
{ "floor": 243, "eventType": "Twirl" },
{ "floor": 278, "eventType": "Twirl" },
{ "floor": 280, "eventType": "Twirl" },
{ "floor": 297, "eventType": "Twirl" },
{ "floor": 323, "eventType": "Twirl" },
{ "floor": 324, "eventType": "Twirl" },
{ "floor": 327, "eventType": "Twirl" },
{ "floor": 333, "eventType": "Twirl" },
{ "floor": 335, "eventType": "Twirl" },
{ "floor": 336, "eventType": "Twirl" },
{ "floor": 337, "eventType": "Twirl" },
{ "floor": 338, "eventType": "Twirl" },
{ "floor": 339, "eventType": "Twirl" },
{ "floor": 340, "eventType": "Twirl" },
{ "floor": 342, "eventType": "Twirl" },
{ "floor": 347, "eventType": "Twirl" },
{ "floor": 349, "eventType": "Twirl" },
{ "floor": 350, "eventType": "Twirl" },
{ "floor": 351, "eventType": "Twirl" },
{ "floor": 352, "eventType": "Twirl" },
{ "floor": 353, "eventType": "Twirl" },
{ "floor": 354, "eventType": "Twirl" },
{ "floor": 356, "eventType": "Twirl" },
{ "floor": 361, "eventType": "Twirl" },
{ "floor": 363, "eventType": "Twirl" },
{ "floor": 364, "eventType": "Twirl" },
{ "floor": 365, "eventType": "Twirl" },
{ "floor": 366, "eventType": "Twirl" },
{ "floor": 367, "eventType": "Twirl" },
{ "floor": 368, "eventType": "Twirl" },
{ "floor": 370, "eventType": "Twirl" },
{ "floor": 379, "eventType": "Twirl" },
{ "floor": 382, "eventType": "Twirl" },
{ "floor": 391, "eventType": "Twirl" },
{ "floor": 394, "eventType": "Twirl" },
{ "floor": 404, "eventType": "Twirl" },
{ "floor": 415, "eventType": "Twirl" },
{ "floor": 418, "eventType": "Twirl" },
{ "floor": 431, "eventType": "Twirl" },
{ "floor": 438, "eventType": "Twirl" },
{ "floor": 445, "eventType": "Twirl" },
{ "floor": 452, "eventType": "Twirl" },
{ "floor": 459, "eventType": "Twirl" },
{ "floor": 466, "eventType": "Twirl" },
{ "floor": 475, "eventType": "Twirl" },
{ "floor": 510, "eventType": "Twirl" },
{ "floor": 513, "eventType": "Twirl" },
{ "floor": 529, "eventType": "Twirl" },
{ "floor": 556, "eventType": "Twirl" },
{ "floor": 559, "eventType": "Twirl" },
{ "floor": 560, "eventType": "Twirl" },
{ "floor": 576, "eventType": "Twirl" },
{ "floor": 592, "eventType": "Twirl" },
{ "floor": 608, "eventType": "Twirl" },
{ "floor": 624, "eventType": "Twirl" },
{ "floor": 640, "eventType": "Twirl" },
{ "floor": 656, "eventType": "Twirl" },
{ "floor": 672, "eventType": "Twirl" },
{ "floor": 688, "eventType": "Twirl" },
{ "floor": 692, "eventType": "Twirl" },
{ "floor": 695, "eventType": "Twirl" },
{ "floor": 696, "eventType": "Twirl" },
{ "floor": 698, "eventType": "Twirl" },
{ "floor": 701, "eventType": "Twirl" },
{ "floor": 702, "eventType": "Twirl" },
{ "floor": 704, "eventType": "Twirl" },
{ "floor": 707, "eventType": "Twirl" },
{ "floor": 708, "eventType": "Twirl" },
{ "floor": 710, "eventType": "Twirl" },
{ "floor": 713, "eventType": "Twirl" },
{ "floor": 714, "eventType": "Twirl" },
{ "floor": 716, "eventType": "Twirl" },
{ "floor": 719, "eventType": "Twirl" },
{ "floor": 720, "eventType": "Twirl" },
{ "floor": 722, "eventType": "Twirl" },
{ "floor": 728, "eventType": "Twirl" },
{ "floor": 771, "eventType": "Twirl" },
{ "floor": 773, "eventType": "Twirl" },
{ "floor": 811, "eventType": "Twirl" },
{ "floor": 813, "eventType": "Twirl" },
{ "floor": 824, "eventType": "Twirl" },
{ "floor": 845, "eventType": "MoveTrack", "startTile": [0, "ThisTile"], "endTile": [0, "ThisTile"], "gapLength": 0, "duration": 2, "positionOffset": [0, 1], "angleOffset": 0, "ease": "Linear", "maxVfxOnly": "Disabled", "eventTag": "", },
{ "floor": 845, "eventType": "Pause", "duration": 2, "countdownTicks": 0, "angleCorrectionDir": -1 },
{ "floor": 846, "eventType": "PositionTrack", "positionOffset": [0, 1], "relativeTo": [0, "ThisTile"], "rotation": 0, "scale": 100, "opacity": 100, "justThisTile": "Disabled", "editorOnly": "Disabled" },
{ "floor": 851, "eventType": "Twirl" },
{ "floor": 857, "eventType": "Twirl" },
{ "floor": 859, "eventType": "Twirl" },
{ "floor": 860, "eventType": "Twirl" },
{ "floor": 861, "eventType": "Twirl" },
{ "floor": 862, "eventType": "Twirl" },
{ "floor": 863, "eventType": "Twirl" },
{ "floor": 864, "eventType": "Twirl" },
{ "floor": 866, "eventType": "Twirl" },
{ "floor": 871, "eventType": "Twirl" },
{ "floor": 873, "eventType": "Twirl" },
{ "floor": 874, "eventType": "Twirl" },
{ "floor": 875, "eventType": "Twirl" },
{ "floor": 876, "eventType": "Twirl" },
{ "floor": 877, "eventType": "Twirl" },
{ "floor": 878, "eventType": "Twirl" },
{ "floor": 880, "eventType": "Twirl" },
{ "floor": 885, "eventType": "Twirl" },
{ "floor": 887, "eventType": "Twirl" },
{ "floor": 888, "eventType": "Twirl" },
{ "floor": 889, "eventType": "Twirl" },
{ "floor": 890, "eventType": "Twirl" },
{ "floor": 891, "eventType": "Twirl" },
{ "floor": 892, "eventType": "Twirl" },
{ "floor": 894, "eventType": "Twirl" },
{ "floor": 902, "eventType": "Twirl" },
{ "floor": 904, "eventType": "Twirl" },
{ "floor": 905, "eventType": "Twirl" },
{ "floor": 910, "eventType": "Twirl" },
{ "floor": 912, "eventType": "Twirl" },
{ "floor": 913, "eventType": "Twirl" },
{ "floor": 914, "eventType": "Twirl" },
{ "floor": 915, "eventType": "Twirl" },
{ "floor": 916, "eventType": "Twirl" },
{ "floor": 917, "eventType": "Twirl" },
{ "floor": 919, "eventType": "Twirl" },
{ "floor": 924, "eventType": "Twirl" },
{ "floor": 926, "eventType": "Twirl" },
{ "floor": 927, "eventType": "Twirl" },
{ "floor": 928, "eventType": "Twirl" },
{ "floor": 929, "eventType": "Twirl" },
{ "floor": 930, "eventType": "Twirl" },
{ "floor": 931, "eventType": "Twirl" },
{ "floor": 933, "eventType": "Twirl" },
{ "floor": 938, "eventType": "Twirl" },
{ "floor": 940, "eventType": "Twirl" },
{ "floor": 941, "eventType": "Twirl" },
{ "floor": 942, "eventType": "Twirl" },
{ "floor": 943, "eventType": "Twirl" },
{ "floor": 944, "eventType": "Twirl" },
{ "floor": 945, "eventType": "Twirl" },
{ "floor": 947, "eventType": "Twirl" },
{ "floor": 955, "eventType": "Twirl" },
{ "floor": 957, "eventType": "Twirl" },
{ "floor": 958, "eventType": "Twirl" },
{ "floor": 963, "eventType": "Twirl" },
{ "floor": 965, "eventType": "Twirl" },
{ "floor": 966, "eventType": "Twirl" },
{ "floor": 967, "eventType": "Twirl" },
{ "floor": 968, "eventType": "Twirl" },
{ "floor": 969, "eventType": "Twirl" },
{ "floor": 970, "eventType": "Twirl" },
{ "floor": 972, "eventType": "Twirl" },
{ "floor": 977, "eventType": "Twirl" },
{ "floor": 979, "eventType": "Twirl" },
{ "floor": 980, "eventType": "Twirl" },
{ "floor": 981, "eventType": "Twirl" },
{ "floor": 982, "eventType": "Twirl" },
{ "floor": 983, "eventType": "Twirl" },
{ "floor": 984, "eventType": "Twirl" },
{ "floor": 986, "eventType": "Twirl" },
{ "floor": 991, "eventType": "Twirl" },
{ "floor": 993, "eventType": "Twirl" },
{ "floor": 994, "eventType": "Twirl" },
{ "floor": 995, "eventType": "Twirl" },
{ "floor": 996, "eventType": "Twirl" },
{ "floor": 997, "eventType": "Twirl" },
{ "floor": 998, "eventType": "Twirl" },
{ "floor": 1000, "eventType": "Twirl" }
],
"decorations":
[
]
}