adofai-dokidokiforever-8bit/DDFOREVER8BIT.adofai

201 lines
24 KiB
Plaintext
Raw Permalink Normal View History

2022-11-16 10:28:44 +00:00
{
2022-11-16 14:32:39 +00:00
"angleData": [0, 0, 0, 0, 0, 0, 0, 0, 0, 0, 0, 0, 0, 0, 0, 0, 0, 0, 0, 0, 90, 999, 0, 90, 999, 0, 0, 0, 270, 0, 0, 90, 999, 0, 90, 999, 0, 90, 999, 0, 90, 999, 0, 0, 0, 270, 0, 0, 90, 999, 0, 90, 0, 0, 0, 90, 999, 0, 90, 999, 0, 90, 999, 0, 90, 999, 0, 90, 999, 0, 0, 0, 0, 0, 0, 0, 90, 999, 0, 90, 999, 0, 0, 0, 270, 0, 0, 90, 999, 0, 90, 999, 0, 90, 999, 0, 90, 999, 0, 0, 0, 270, 0, 0, 90, 999, 0, 90, 999, 0, 0, 0, 270, 0, 90, 999, 0, 90, 999, 0, 90, 999, 0, 90, 999, 0, 0, 0, 0, 0, 0, 0, 0, 90, 999, 0, 0, 0, 0, 0, 0, 0, 0, 0, 0, 0, 0, 0, 0, 0, 0, 0, 0, 0, 0, 0, 270, 0, 0, 0, 0, 90, 90, 90, 999, 0, 0, 90, 999, 0, 90, 999, 0, 0, 90, 999, 0, 90, 90, 90, 999, 0, 90, 999, 0, 90, 999, 0, 90, 999, 0, 0, 0, 90, 90, 90, 999, 0, 90, 999, 0, 90, 999, 0, 90, 90, 180, 999, 90, 90, 180, 999, 90, 90, 180, 999, 90, 180, 999, 90, 999, 0, 0, 0, 0, 90, 90, 90, 999, 0, 90, 999, 0, 90, 999, 0, 90, 999, 0, 0, 90, 999, 0, 90, 90, 90, 999, 0, 90, 999, 0, 90, 999, 0, 90, 999, 0, 0, 0, 90, 90, 90, 999, 0, 90, 999, 0, 90, 999, 0, 90, 90, 180, 999, 90, 90, 180, 999, 90, 90, 999, 0, 90, 999, 0, 90, 999, 0, 90, 999, 0, 0, 0, 0, 0, 0, 0, 0, 0, 0, 0, 0, 90, 90, 180, 999, 90, 999, 0, 90, 999, 0, 0, 0, 0, 0, 0, 0, 0, 0, 0, 0, 0, 0, 0, 0, 0, 0, 90, 0, 0, 270, 0, 0, 90, 999, 0, 90, 999, 0, 90, 999, 0, 90, 999, 0, 0, 0, 270, 0, 0, 90, 999, 0, 90, 999, 0, 0, 0, 0, 90, 999, 0, 0, 0, 90, 999, 0, 90, 999, 0, 0, 0, 270, 0, 0, 90, 999, 0, 90, 0, 0, 270, 0, 0, 90, 999, 0, 0, 90, 999, 0, 90, 999, 0, 0, 0, 90, 999, 0, 90, 999, 45, 999, 0, 90, 999, 0, 90, 999, 0, 90, 0, 0, 270, 0, 90, 999, 0, 90, 999, 0, 90, 999, 0, 90, 90, 0, 0, 0, 240, 999, 300, 999, 0, 120, 999, 60, 999, 0, 240, 999, 300, 999, 0, 120, 999, 60, 999, 0, 0, 0, 0, 0, 0, 0, 0, 0, 0, 0, 0, 0, 0, 0, 0, 0, 0, 0, 0, 0, 270, 0, 0, 0, 0, 90, 90, 90, 999, 0, 0, 90, 999, 0, 90, 999, 0, 0, 90, 999, 0, 90, 90, 90, 999, 0, 90, 999, 0, 90, 999, 0, 90, 999, 0, 0, 0, 90, 90, 90, 999, 0, 90, 999, 0, 90, 999, 0, 90, 90, 180, 999, 90, 90, 180, 999, 90, 90, 999, 0, 90, 999, 0, 90, 999, 0, 0, 0, 0, 90, 90, 90, 999, 0, 90, 999, 0, 90, 999, 0, 90, 999, 0, 0, 90, 999, 0, 90, 90, 90, 999, 0, 90, 999, 0, 90, 999, 0, 90, 999, 0, 0, 0, 90, 90, 90, 999, 0, 90, 999, 0, 90, 999, 0, 90, 90, 180, 999, 90, 90, 180, 999, 90, 90, 999, 0, 90, 999, 0, 90, 999, 0, 0, 0, 0, 90, 999, 0, 90, 999, 0, 0, 0, 0, 90, 999, 0, 0, 0, 0, 90, 999, 0, 90, 999, 0, 90, 999, 0, 270, 0, 0, 0, 90, 999, 0, 90, 999, 0, 90, 999, 0, 90, 999, 0, 90, 999, 0, 90, 999, 0, 90, 999, 0, 0, 90, 180, 270, 0, 90, 180, 270, 0, 90, 180, 270, 0, 999, 270, 0, 0, 90, 999, 0, 90, 999, 0, 90, 999, 0, 90, 999, 0, 90, 999, 0, 90, 999, 0, 90, 90, 999, 0, 90, 90, 999, 0, 90, 90, 999, 0, 90, 999, 0, 90, 999, 0, 0, 90, 999, 0, 90, 999, 0, 90, 999, 0, 90, 999, 0, 90, 999, 0, 90, 999, 0, 90, 999, 0, 90, 999, 0, 90, 999, 0, 90, 999, 0, 90, 999, 0, 90, 999, 0, 90, 999, 0, 90, 999, 0, 90, 999, 0, 90, 90, 0, 0, 270, 0, 0, 90, 999, 0, 90, 90, 90, 999, 0, 90, 90, 999, 0, 90, 999, 0, 90, 999, 0, 90, 999, 0, 90],
2022-11-16 10:28:44 +00:00
"settings":
{
"version": 11 ,
"artist": "",
"specialArtistType": "None",
"artistPermission": "",
"song": "",
"author": "",
"separateCountdownTime": "Enabled",
"previewImage": "",
"previewIcon": "",
"previewIconColor": "003f52",
"previewSongStart": 0,
"previewSongDuration": 10,
"seizureWarning": "Disabled",
"levelDesc": "",
"levelTags": "",
"artistLinks": "",
"difficulty": 1,
"songFilename": "bgm8.wav",
"bpm": 169,
"volume": 100,
"offset": 5,
"pitch": 100,
"hitsound": "Kick",
"hitsoundVolume": 80,
"countdownTicks": 4,
"trackColorType": "Single",
"trackColor": "debb7b",
"secondaryTrackColor": "ffffff",
"trackColorAnimDuration": 2,
"trackColorPulse": "None",
"trackPulseLength": 10,
"trackStyle": "Standard",
"trackAnimation": "None",
"beatsAhead": 3,
"trackDisappearAnimation": "None",
"beatsBehind": 4,
"backgroundColor": "000000",
"showDefaultBGIfNoImage": "Enabled",
"bgImage": "",
"bgImageColor": "ffffff",
"parallax": [100, 100],
"bgDisplayMode": "FitToScreen",
"lockRot": "Disabled",
"loopBG": "Disabled",
"unscaledSize": 100,
"relativeTo": "Player",
"position": [0, 0],
"rotation": 0,
"zoom": 100,
"bgVideo": "BGA8.mp4",
"loopVideo": "Disabled",
"vidOffset": 300,
"floorIconOutlines": "Disabled",
"stickToFloors": "Enabled",
"planetEase": "Linear",
"planetEaseParts": 1,
"planetEasePartBehavior": "Mirror",
"customClass": "",
"legacyFlash": false ,
"legacyCamRelativeTo": false ,
"legacySpriteTiles": false
},
"actions":
[
{ "floor": 1, "eventType": "SetSpeed", "speedType": "Multiplier", "beatsPerMinute": 100, "bpmMultiplier": 0.5 },
{ "floor": 4, "eventType": "SetSpeed", "speedType": "Multiplier", "beatsPerMinute": 100, "bpmMultiplier": 2 },
{ "floor": 6, "eventType": "SetSpeed", "speedType": "Multiplier", "beatsPerMinute": 100, "bpmMultiplier": 0.5 },
{ "floor": 9, "eventType": "SetSpeed", "speedType": "Multiplier", "beatsPerMinute": 100, "bpmMultiplier": 2 },
{ "floor": 11, "eventType": "SetSpeed", "speedType": "Multiplier", "beatsPerMinute": 100, "bpmMultiplier": 0.5 },
{ "floor": 14, "eventType": "SetSpeed", "speedType": "Multiplier", "beatsPerMinute": 100, "bpmMultiplier": 2 },
{ "floor": 16, "eventType": "SetSpeed", "speedType": "Multiplier", "beatsPerMinute": 100, "bpmMultiplier": 0.5 },
{ "floor": 17, "eventType": "SetSpeed", "speedType": "Multiplier", "beatsPerMinute": 100, "bpmMultiplier": 2 },
{ "floor": 19, "eventType": "SetSpeed", "speedType": "Multiplier", "beatsPerMinute": 100, "bpmMultiplier": 0.5 },
{ "floor": 20, "eventType": "SetSpeed", "speedType": "Multiplier", "beatsPerMinute": 100, "bpmMultiplier": 2 },
{ "floor": 136, "eventType": "SetSpeed", "speedType": "Multiplier", "beatsPerMinute": 100, "bpmMultiplier": 0.5 },
{ "floor": 138, "eventType": "SetSpeed", "speedType": "Multiplier", "beatsPerMinute": 100, "bpmMultiplier": 2 },
{ "floor": 142, "eventType": "SetSpeed", "speedType": "Multiplier", "beatsPerMinute": 100, "bpmMultiplier": 0.5 },
{ "floor": 145, "eventType": "SetSpeed", "speedType": "Multiplier", "beatsPerMinute": 100, "bpmMultiplier": 2 },
{ "floor": 147, "eventType": "SetSpeed", "speedType": "Multiplier", "beatsPerMinute": 100, "bpmMultiplier": 0.5 },
{ "floor": 150, "eventType": "SetSpeed", "speedType": "Multiplier", "beatsPerMinute": 100, "bpmMultiplier": 2 },
{ "floor": 158, "eventType": "SetSpeed", "speedType": "Multiplier", "beatsPerMinute": 100, "bpmMultiplier": 0.5 },
{ "floor": 159, "eventType": "SetSpeed", "speedType": "Multiplier", "beatsPerMinute": 100, "bpmMultiplier": 2 },
2022-11-16 14:32:39 +00:00
{ "floor": 298, "eventType": "Checkpoint", "tileOffset": 0 },
2022-11-16 10:28:44 +00:00
{ "floor": 371, "eventType": "SetSpeed", "speedType": "Multiplier", "beatsPerMinute": 100, "bpmMultiplier": 0.5 },
{ "floor": 372, "eventType": "SetSpeed", "speedType": "Multiplier", "beatsPerMinute": 100, "bpmMultiplier": 2 },
{ "floor": 380, "eventType": "SetFilter", "filter": "Static", "enabled": "Enabled", "intensity": 100, "duration": 0, "ease": "Linear", "disableOthers": "Disabled", "angleOffset": 0, "eventTag": "" },
{ "floor": 380, "eventType": "SetFilter", "filter": "Static", "enabled": "Disabled", "intensity": 100, "duration": 0, "ease": "Linear", "disableOthers": "Disabled", "angleOffset": 45, "eventTag": "" },
{ "floor": 380, "eventType": "MoveCamera", "duration": 0, "relativeTo": "Tile", "position": [0, 0], "rotation": 30, "angleOffset": 0, "ease": "Linear", "dontDisable": "Disabled", "minVfxOnly": "Disabled", "eventTag": "", },
{ "floor": 380, "eventType": "SetFilter", "active": false, "filter": "EightiesTV", "enabled": "Enabled", "intensity": 100, "duration": 0, "ease": "Linear", "disableOthers": "Disabled", "angleOffset": 0, "eventTag": "" },
{ "floor": 380, "eventType": "HallOfMirrors", "enabled": "Enabled", "angleOffset": 60, "eventTag": "" },
{ "floor": 380, "eventType": "MoveDecorations", "duration": 1.5, "tag": "fuckmonika", "positionOffset": [-2, 0], "angleOffset": 0, "ease": "Linear", "eventTag": "", },
{ "floor": 380, "eventType": "MoveDecorations", "duration": 0, "tag": "fuckmonika", "opacity": 100, "angleOffset": 0, "ease": "Linear", "eventTag": "", },
2022-11-16 14:32:39 +00:00
{ "floor": 380, "eventType": "SetFilter", "filter": "LED", "enabled": "Enabled", "intensity": 100, "duration": 0, "ease": "Linear", "disableOthers": "Disabled", "angleOffset": 0, "eventTag": "" },
2022-11-16 10:28:44 +00:00
{ "floor": 381, "eventType": "HallOfMirrors", "enabled": "Disabled", "angleOffset": 0, "eventTag": "" },
{ "floor": 381, "eventType": "MoveDecorations", "duration": 0, "tag": "fuckmonika", "positionOffset": [0, 0], "opacity": 1, "angleOffset": 0, "ease": "Linear", "eventTag": "", },
{ "floor": 381, "eventType": "MoveCamera", "duration": 0, "relativeTo": "Player", "position": [0, 0], "angleOffset": 0, "ease": "Linear", "dontDisable": "Disabled", "minVfxOnly": "Disabled", "eventTag": "", },
2022-11-16 14:32:39 +00:00
{ "floor": 381, "eventType": "SetFilter", "filter": "LED", "enabled": "Disabled", "intensity": 100, "duration": 0, "ease": "Linear", "disableOthers": "Disabled", "angleOffset": 0, "eventTag": "" },
2022-11-16 10:28:44 +00:00
{ "floor": 430, "eventType": "Twirl" },
{ "floor": 435, "eventType": "Twirl" },
{ "floor": 440, "eventType": "Twirl" },
{ "floor": 445, "eventType": "Twirl" },
{ "floor": 450, "eventType": "SetSpeed", "speedType": "Multiplier", "beatsPerMinute": 100, "bpmMultiplier": 0.5 },
{ "floor": 452, "eventType": "SetSpeed", "speedType": "Multiplier", "beatsPerMinute": 100, "bpmMultiplier": 2 },
{ "floor": 456, "eventType": "SetSpeed", "speedType": "Multiplier", "beatsPerMinute": 100, "bpmMultiplier": 0.5 },
{ "floor": 459, "eventType": "SetSpeed", "speedType": "Multiplier", "beatsPerMinute": 100, "bpmMultiplier": 2 },
{ "floor": 461, "eventType": "SetSpeed", "speedType": "Multiplier", "beatsPerMinute": 100, "bpmMultiplier": 0.5 },
{ "floor": 464, "eventType": "SetSpeed", "speedType": "Multiplier", "beatsPerMinute": 100, "bpmMultiplier": 2 },
{ "floor": 472, "eventType": "SetSpeed", "speedType": "Multiplier", "beatsPerMinute": 100, "bpmMultiplier": 0.5 },
{ "floor": 473, "eventType": "SetSpeed", "speedType": "Multiplier", "beatsPerMinute": 100, "bpmMultiplier": 2 },
{ "floor": 603, "eventType": "SetSpeed", "speedType": "Multiplier", "beatsPerMinute": 100, "bpmMultiplier": 0.5 },
2022-11-16 14:32:39 +00:00
{ "floor": 618, "eventType": "Checkpoint", "tileOffset": 0 },
2022-11-16 10:28:44 +00:00
{ "floor": 629, "eventType": "SetSpeed", "speedType": "Multiplier", "beatsPerMinute": 100, "bpmMultiplier": 2 },
{ "floor": 631, "eventType": "SetSpeed", "speedType": "Multiplier", "beatsPerMinute": 100, "bpmMultiplier": 0.5 },
{ "floor": 632, "eventType": "SetSpeed", "speedType": "Multiplier", "beatsPerMinute": 100, "bpmMultiplier": 2 },
{ "floor": 632, "eventType": "Flash", "duration": 1, "plane": "Foreground", "startColor": "000000ff", "startOpacity": 100, "endColor": "000000ff", "endOpacity": 100, "angleOffset": 0, "ease": "Linear", "eventTag": "" },
{ "floor": 632, "eventType": "Flash", "duration": 0, "plane": "Foreground", "startColor": "ffffff", "startOpacity": 0, "endColor": "ffffff", "endOpacity": 0, "angleOffset": 180, "ease": "Linear", "eventTag": "" },
{ "floor": 633, "eventType": "SetFilter", "filter": "EightiesTV", "enabled": "Enabled", "intensity": 100, "duration": 0, "ease": "Linear", "disableOthers": "Disabled", "angleOffset": 0, "eventTag": "" },
{ "floor": 633, "eventType": "ScreenTile", "tile": [1, 2], "angleOffset": 0, "eventTag": "" },
{ "floor": 636, "eventType": "ScreenTile", "tile": [2, 2], "angleOffset": 0, "eventTag": "" },
{ "floor": 639, "eventType": "ScreenTile", "tile": [3, 3], "angleOffset": 0, "eventTag": "" },
{ "floor": 648, "eventType": "ScreenTile", "tile": [2, 2], "angleOffset": 0, "eventTag": "" },
{ "floor": 651, "eventType": "ScreenTile", "tile": [1, 2], "angleOffset": 0, "eventTag": "" },
{ "floor": 654, "eventType": "Flash", "duration": 1, "plane": "Foreground", "startColor": "000000ff", "startOpacity": 100, "endColor": "000000ff", "endOpacity": 100, "angleOffset": 0, "ease": "Linear", "eventTag": "" },
{ "floor": 654, "eventType": "Flash", "duration": 0, "plane": "Foreground", "startColor": "ffffff", "startOpacity": 0, "endColor": "ffffff", "endOpacity": 0, "angleOffset": 180, "ease": "Linear", "eventTag": "" },
{ "floor": 654, "eventType": "ScreenTile", "tile": [1, 1], "angleOffset": 0, "eventTag": "" },
2022-11-16 14:32:39 +00:00
{ "floor": 654, "eventType": "ScreenScroll", "scroll": [10, 0], "angleOffset": 0, "eventTag": "" },
2022-11-16 10:28:44 +00:00
{ "floor": 655, "eventType": "MoveCamera", "duration": 0, "relativeTo": "Tile", "position": [1, 0], "angleOffset": 0, "ease": "Linear", "dontDisable": "Disabled", "minVfxOnly": "Disabled", "eventTag": "", },
2022-11-16 14:32:39 +00:00
{ "floor": 655, "eventType": "PositionTrack", "positionOffset": [0, 0], "relativeTo": [0, "ThisTile"], "rotation": -90, "scale": 100, "opacity": 100, "justThisTile": "Disabled", "editorOnly": "Disabled" },
{ "floor": 656, "eventType": "PositionTrack", "positionOffset": [1, -1], "relativeTo": [0, "ThisTile"], "rotation": 180, "scale": 100, "opacity": 100, "justThisTile": "Disabled", "editorOnly": "Disabled" },
2022-11-16 10:28:44 +00:00
{ "floor": 656, "eventType": "MoveCamera", "duration": 0, "relativeTo": "Tile", "position": [1, 0], "angleOffset": 0, "ease": "Linear", "dontDisable": "Disabled", "minVfxOnly": "Disabled", "eventTag": "", },
2022-11-16 14:32:39 +00:00
{ "floor": 657, "eventType": "PositionTrack", "positionOffset": [2, 0], "relativeTo": [0, "ThisTile"], "rotation": 90, "scale": 100, "opacity": 100, "justThisTile": "Disabled", "editorOnly": "Disabled" },
2022-11-16 10:28:44 +00:00
{ "floor": 657, "eventType": "MoveCamera", "duration": 0, "relativeTo": "Tile", "position": [1, 0], "angleOffset": 0, "ease": "Linear", "dontDisable": "Disabled", "minVfxOnly": "Disabled", "eventTag": "", },
2022-11-16 14:32:39 +00:00
{ "floor": 658, "eventType": "PositionTrack", "positionOffset": [1, 1], "relativeTo": [0, "ThisTile"], "rotation": 0, "scale": 100, "opacity": 100, "justThisTile": "Disabled", "editorOnly": "Disabled" },
2022-11-16 10:28:44 +00:00
{ "floor": 658, "eventType": "MoveCamera", "duration": 0, "relativeTo": "Tile", "position": [1, 0], "angleOffset": 0, "ease": "Linear", "dontDisable": "Disabled", "minVfxOnly": "Disabled", "eventTag": "", },
2022-11-16 14:32:39 +00:00
{ "floor": 659, "eventType": "PositionTrack", "positionOffset": [0, 0], "relativeTo": [0, "ThisTile"], "rotation": -90, "scale": 100, "opacity": 100, "justThisTile": "Disabled", "editorOnly": "Disabled" },
2022-11-16 10:28:44 +00:00
{ "floor": 659, "eventType": "MoveCamera", "duration": 0, "relativeTo": "Tile", "position": [1, 0], "angleOffset": 0, "ease": "Linear", "dontDisable": "Disabled", "minVfxOnly": "Disabled", "eventTag": "", },
2022-11-16 14:32:39 +00:00
{ "floor": 660, "eventType": "PositionTrack", "positionOffset": [1, -1], "relativeTo": [0, "ThisTile"], "rotation": 180, "scale": 100, "opacity": 100, "justThisTile": "Disabled", "editorOnly": "Disabled" },
2022-11-16 10:28:44 +00:00
{ "floor": 660, "eventType": "MoveCamera", "duration": 0, "relativeTo": "Tile", "position": [1, 0], "angleOffset": 0, "ease": "Linear", "dontDisable": "Disabled", "minVfxOnly": "Disabled", "eventTag": "", },
2022-11-16 14:32:39 +00:00
{ "floor": 661, "eventType": "PositionTrack", "positionOffset": [2, 0], "relativeTo": [0, "ThisTile"], "rotation": 90, "scale": 100, "opacity": 100, "justThisTile": "Disabled", "editorOnly": "Disabled" },
2022-11-16 10:28:44 +00:00
{ "floor": 661, "eventType": "MoveCamera", "duration": 0, "relativeTo": "Tile", "position": [1, 0], "angleOffset": 0, "ease": "Linear", "dontDisable": "Disabled", "minVfxOnly": "Disabled", "eventTag": "", },
2022-11-16 14:32:39 +00:00
{ "floor": 662, "eventType": "PositionTrack", "positionOffset": [1, 1], "relativeTo": [0, "ThisTile"], "rotation": 0, "scale": 100, "opacity": 100, "justThisTile": "Disabled", "editorOnly": "Disabled" },
2022-11-16 10:28:44 +00:00
{ "floor": 662, "eventType": "MoveCamera", "duration": 0, "relativeTo": "Tile", "position": [1, 0], "angleOffset": 0, "ease": "Linear", "dontDisable": "Disabled", "minVfxOnly": "Disabled", "eventTag": "", },
2022-11-16 14:32:39 +00:00
{ "floor": 663, "eventType": "PositionTrack", "positionOffset": [0, 0], "relativeTo": [0, "ThisTile"], "rotation": -90, "scale": 100, "opacity": 100, "justThisTile": "Disabled", "editorOnly": "Disabled" },
2022-11-16 10:28:44 +00:00
{ "floor": 663, "eventType": "MoveCamera", "duration": 0, "relativeTo": "Tile", "position": [1, 0], "angleOffset": 0, "ease": "Linear", "dontDisable": "Disabled", "minVfxOnly": "Disabled", "eventTag": "", },
2022-11-16 14:32:39 +00:00
{ "floor": 664, "eventType": "PositionTrack", "positionOffset": [1, -1], "relativeTo": [0, "ThisTile"], "rotation": 180, "scale": 100, "opacity": 100, "justThisTile": "Disabled", "editorOnly": "Disabled" },
2022-11-16 10:28:44 +00:00
{ "floor": 664, "eventType": "MoveCamera", "duration": 0, "relativeTo": "Tile", "position": [1, 0], "angleOffset": 0, "ease": "Linear", "dontDisable": "Disabled", "minVfxOnly": "Disabled", "eventTag": "", },
2022-11-16 14:32:39 +00:00
{ "floor": 665, "eventType": "PositionTrack", "positionOffset": [2, 0], "relativeTo": [0, "ThisTile"], "rotation": 90, "scale": 100, "opacity": 100, "justThisTile": "Disabled", "editorOnly": "Disabled" },
{ "floor": 665, "eventType": "SetFilter", "filter": "Invert", "enabled": "Enabled", "intensity": 100, "duration": 0, "ease": "Linear", "disableOthers": "Disabled", "angleOffset": 0, "eventTag": "" },
{ "floor": 665, "eventType": "MoveCamera", "duration": 0, "relativeTo": "Tile", "position": [1, 0], "angleOffset": 0, "ease": "Linear", "dontDisable": "Disabled", "minVfxOnly": "Disabled", "eventTag": "", },
{ "floor": 666, "eventType": "PositionTrack", "positionOffset": [1, 1], "relativeTo": [0, "ThisTile"], "rotation": 0, "scale": 100, "opacity": 100, "justThisTile": "Disabled", "editorOnly": "Disabled" },
{ "floor": 667, "eventType": "SetFilter", "filter": "Invert", "enabled": "Disabled", "intensity": 100, "duration": 0, "ease": "Linear", "disableOthers": "Disabled", "angleOffset": 0, "eventTag": "" },
{ "floor": 670, "eventType": "Flash", "duration": 1, "plane": "Foreground", "startColor": "000000ff", "startOpacity": 100, "endColor": "000000ff", "endOpacity": 100, "angleOffset": 0, "ease": "Linear", "eventTag": "" },
{ "floor": 670, "eventType": "Flash", "duration": 0, "plane": "Foreground", "startColor": "ffffff", "startOpacity": 0, "endColor": "ffffff", "endOpacity": 0, "angleOffset": 180, "ease": "Linear", "eventTag": "" },
{ "floor": 670, "eventType": "SetFilter", "filter": "Invert", "enabled": "Disabled", "intensity": 100, "duration": 0, "ease": "Linear", "disableOthers": "Disabled", "angleOffset": 0, "eventTag": "" },
{ "floor": 670, "eventType": "ScreenScroll", "scroll": [0, 0], "angleOffset": 0, "eventTag": "" },
{ "floor": 671, "eventType": "MoveCamera", "duration": 0, "relativeTo": "Player", "position": [0, 0], "angleOffset": 0, "ease": "Linear", "dontDisable": "Disabled", "minVfxOnly": "Disabled", "eventTag": "", },
{ "floor": 671, "eventType": "SetFilter", "filter": "EightiesTV", "enabled": "Disabled", "intensity": 100, "duration": 0, "ease": "Linear", "disableOthers": "Disabled", "angleOffset": 0, "eventTag": "" },
{ "floor": 683, "eventType": "ScreenScroll", "scroll": [0, 1000], "angleOffset": 0, "eventTag": "" },
{ "floor": 683, "eventType": "SetFilter", "filter": "EightiesTV", "enabled": "Enabled", "intensity": 100, "duration": 0, "ease": "Linear", "disableOthers": "Disabled", "angleOffset": 0, "eventTag": "" },
{ "floor": 686, "eventType": "ScreenScroll", "scroll": [0, 0], "angleOffset": 0, "eventTag": "" },
{ "floor": 686, "eventType": "MoveCamera", "duration": 0, "relativeTo": "Player", "position": [0, 0], "rotation": 45, "angleOffset": 0, "ease": "Linear", "dontDisable": "Disabled", "minVfxOnly": "Disabled", "eventTag": "", },
{ "floor": 708, "eventType": "ScreenTile", "tile": [1, 2], "angleOffset": 0, "eventTag": "" },
{ "floor": 708, "eventType": "MoveCamera", "duration": 0, "relativeTo": "Player", "position": [0, 0], "angleOffset": 0, "ease": "Linear", "dontDisable": "Disabled", "minVfxOnly": "Disabled", "eventTag": "", },
{ "floor": 711, "eventType": "ScreenTile", "tile": [2, 2], "angleOffset": 0, "eventTag": "" },
{ "floor": 714, "eventType": "ScreenTile", "tile": [3, 3], "angleOffset": 0, "eventTag": "" },
{ "floor": 717, "eventType": "ScreenTile", "tile": [12, 12], "angleOffset": 0, "eventTag": "" },
{ "floor": 720, "eventType": "ScreenTile", "tile": [1, 1], "angleOffset": 0, "eventTag": "" },
{ "floor": 723, "eventType": "ScreenScroll", "scroll": [0, 1000], "angleOffset": 0, "eventTag": "" },
{ "floor": 726, "eventType": "ScreenScroll", "scroll": [0, 0], "angleOffset": 0, "eventTag": "" },
{ "floor": 729, "eventType": "SetFilter", "filter": "Invert", "enabled": "Enabled", "intensity": 100, "duration": 0, "ease": "Linear", "disableOthers": "Disabled", "angleOffset": 0, "eventTag": "" },
{ "floor": 732, "eventType": "SetFilter", "filter": "Invert", "enabled": "Disabled", "intensity": 100, "duration": 0, "ease": "Linear", "disableOthers": "Disabled", "angleOffset": 0, "eventTag": "" },
{ "floor": 735, "eventType": "ShakeScreen", "duration": 1, "strength": 100, "intensity": 100, "fadeOut": "Enabled", "angleOffset": 0, "eventTag": "" },
{ "floor": 735, "eventType": "MoveCamera", "duration": 0, "relativeTo": "Player", "position": [0, 0], "zoom": 50, "angleOffset": 0, "ease": "Linear", "dontDisable": "Disabled", "minVfxOnly": "Disabled", "eventTag": "", },
{ "floor": 738, "eventType": "MoveCamera", "duration": 0, "relativeTo": "Player", "position": [0, 0], "zoom": 100, "angleOffset": 0, "ease": "Linear", "dontDisable": "Disabled", "minVfxOnly": "Disabled", "eventTag": "", },
{ "floor": 741, "eventType": "ScreenScroll", "scroll": [500, 0], "angleOffset": 0, "eventTag": "" },
{ "floor": 741, "eventType": "MoveCamera", "duration": 1, "position": [-2, 0], "angleOffset": 0, "ease": "Linear", "dontDisable": "Disabled", "minVfxOnly": "Disabled", "eventTag": "", },
{ "floor": 741, "eventType": "ScreenScroll", "scroll": [0, 0], "angleOffset": 15, "eventTag": "" },
{ "floor": 741, "eventType": "ScreenScroll", "scroll": [500, 0], "angleOffset": 30, "eventTag": "" },
{ "floor": 741, "eventType": "ScreenScroll", "scroll": [0, 0], "angleOffset": 45, "eventTag": "" },
{ "floor": 741, "eventType": "ScreenScroll", "scroll": [500, 0], "angleOffset": 60, "eventTag": "" },
{ "floor": 741, "eventType": "ScreenScroll", "scroll": [0, 0], "angleOffset": 75, "eventTag": "" },
{ "floor": 744, "eventType": "ScreenScroll", "scroll": [500, 0], "angleOffset": 0, "eventTag": "" },
{ "floor": 745, "eventType": "ScreenScroll", "scroll": [0, 0], "angleOffset": 0, "eventTag": "" },
{ "floor": 747, "eventType": "MoveCamera", "duration": 0, "relativeTo": "Tile", "position": [0, 0], "rotation": 30, "angleOffset": 0, "ease": "Linear", "dontDisable": "Disabled", "minVfxOnly": "Disabled", "eventTag": "", },
{ "floor": 753, "eventType": "MoveCamera", "duration": 0, "relativeTo": "Player", "position": [0, 0], "angleOffset": 0, "ease": "Linear", "dontDisable": "Disabled", "minVfxOnly": "Disabled", "eventTag": "", },
{ "floor": 756, "eventType": "ScreenScroll", "scroll": [0, -300], "angleOffset": 0, "eventTag": "" },
{ "floor": 757, "eventType": "ScreenScroll", "scroll": [0, 0], "angleOffset": 0, "eventTag": "" }
2022-11-16 10:28:44 +00:00
]
"decorations":
[
2022-11-16 14:32:39 +00:00
{ "floor": 380, "eventType": "AddText", "decText": "FuckMonikaaaaaaaaaa", "font": "Default", "position": [2, 1], "relativeTo": "Tile", "pivotOffset": [0, 0], "rotation": 0, "scale": [150, 150], "color": "ffffff", "opacity": 1, "depth": -1, "parallax": [-1, -1], "tag": "fuckmonika" },
2022-11-16 10:28:44 +00:00
{ "floor": 380, "eventType": "AddText", "decText": "mmmmmmmmmmmmm", "font": "Default", "position": [2, 0], "relativeTo": "Tile", "pivotOffset": [0, 0], "rotation": 0, "scale": [100, 100], "color": "ffffff", "opacity": 1, "depth": -1, "parallax": [-1, -1], "tag": "fuckmonika" },
{ "floor": 380, "eventType": "AddText", "decText": "mmmmmmmmmmmm", "font": "Default", "position": [2, -1], "relativeTo": "Tile", "pivotOffset": [0, 0], "rotation": 0, "scale": [100, 100], "color": "ffffff", "opacity": 1, "depth": -1, "parallax": [-1, -1], "tag": "fuckmonika" },
{ "floor": 380, "eventType": "AddText", "decText": "mmmmmmmmmmmmm", "font": "Default", "position": [2, -2], "relativeTo": "Tile", "pivotOffset": [0, 0], "rotation": 0, "scale": [100, 100], "color": "ffffff", "opacity": 1, "depth": -1, "parallax": [-1, -1], "tag": "fuckmonika" }
]
}