adofai-Gone-Angels/gone.adofai

83 lines
3.9 KiB
Plaintext

{
"angleData": [0, 0, 0, 0, 0, 0, 0, 0, 0, 120, 999, 60, 999, 0, 0, 90, 999, 0, 60, 999, 0, 0, 60, 999, 0, 60, 999, 0, 60, 999, 0, 90, 999, 0, 120, 999, 60, 999, 0, 90, 999, 0, 60, 999, 0, 0, 60, 999, 0, 90, 999, 0, 90, 999, 0, 90, 999, 0, 120, 999, 60, 999, 0, 0, 120, 999, 60, 999, 0, 0, 120, 999, 60, 999, 0, 0, 60, 999, 0, 90, 999, 0, 120, 999, 60, 999, 0, 90, 999, 0, 60, 999, 0, 0, 60, 999, 0, 90, 999, 0, 90, 999, 0, 0, 120, 999, 60, 999, 0, 90, 999, 0, 120, 999, 60, 999, 0, 0, 0, 60, 999, 0, 0, 60, 999, 0, 0, 60, 999, 0, 120, 999, 60, 999, 0, 0, 60, 999, 0, 90, 999, 0, 0, 90, 999, 0, 0, 90, 999, 0, 90, 999, 0, 0, 0, 0, 120, 999, 60, 999, 0, 0, 0, 0, 120, 999, 60, 999, 0, 0, 0, 0, 120, 999, 60, 999, 0, 240, 999, 300, 999, 0, 0, 60, 999, 0, 0, 0, 0, 0, 120, 999, 60, 999, 0, 240, 999, 300, 999, 0, 0, 0, 120, 999, 60, 999, 0, 240, 999, 300, 999, 0, 0, 0, 120, 999, 60, 999, 0, 0, 0, 0, 0, 120, 999, 60, 999, 0, 90, 999, 0, 0, 0, 120, 999, 60, 999, 0, 90, 999, 0, 0, 0, 120, 999, 60, 999, 0, 90, 999, 0, 0, 0, 120, 999, 60, 999, 0, 90, 999, 0, 0, 0, 0, 0, 90, 999, 0, 120, 999, 60, 999, 0, 0, 120, 999, 60, 999, 0, 0, 0, 0, 90, 999, 0, 90, 999, 0, 90, 999, 0, 90, 999, 0, 0, 0, 90, 999, 0, 60, 999, 0, 60, 999, 0, 90, 999, 0, 120, 999, 60, 999, 0, 90, 999, 0, 60, 999, 0, 0, 60, 999, 0, 90, 999, 0, 90, 999, 0, 90, 999, 0, 120, 999, 60, 999, 0, 0, 120, 999, 60, 999, 0, 0, 120, 999, 60, 999, 0, 0, 60, 999, 0, 90, 999, 0, 120, 999, 60, 999, 0, 90, 999, 0, 60, 999, 0, 0, 60, 999, 0, 90, 999, 0, 90, 999, 0, 90, 999, 0, 120, 999, 60, 999, 0, 90, 999, 0, 120, 999, 60, 999, 0, 0, 60, 999, 0, 90, 999, 0, 90, 999, 0, 0, 120, 999, 60, 999, 0, 90, 999, 0, 120, 999, 60, 999, 0, 0],
"settings":
{
"version": 10 ,
"artist": "",
"specialArtistType": "None",
"artistPermission": "",
"song": "",
"author": "",
"separateCountdownTime": "Enabled",
"previewImage": "",
"previewIcon": "",
"previewIconColor": "003f52",
"previewSongStart": 0,
"previewSongDuration": 10,
"seizureWarning": "Disabled",
"levelDesc": "",
"levelTags": "",
"artistLinks": "",
"difficulty": 1,
"songFilename": "g.ogg",
"bpm": 64.67,
"volume": 100,
"offset": 50,
"pitch": 100,
"hitsound": "Kick",
"hitsoundVolume": 100,
"countdownTicks": 4,
"trackColorType": "Single",
"trackColor": "debb7b",
"secondaryTrackColor": "ffffff",
"trackColorAnimDuration": 2,
"trackColorPulse": "None",
"trackPulseLength": 10,
"trackStyle": "Standard",
"trackAnimation": "None",
"beatsAhead": 3,
"trackDisappearAnimation": "None",
"beatsBehind": 4,
"backgroundColor": "000000",
"showDefaultBGIfNoImage": "Enabled",
"bgImage": "",
"bgImageColor": "ffffff",
"parallax": [100, 100],
"bgDisplayMode": "FitToScreen",
"lockRot": "Disabled",
"loopBG": "Disabled",
"unscaledSize": 100,
"relativeTo": "Player",
"position": [0, 0],
"rotation": 0,
"zoom": 100,
"bgVideo": "",
"loopVideo": "Disabled",
"vidOffset": 0,
"floorIconOutlines": "Disabled",
"stickToFloors": "Enabled",
"planetEase": "Linear",
"planetEaseParts": 1,
"planetEasePartBehavior": "Mirror",
"customClass": "",
"legacyFlash": false ,
"legacySpriteTiles": false
},
"actions":
[
{ "floor": 155, "eventType": "SetSpeed", "speedType": "Multiplier", "beatsPerMinute": 100, "bpmMultiplier": 2 },
{ "floor": 177, "eventType": "Twirl" },
{ "floor": 182, "eventType": "Twirl" },
{ "floor": 195, "eventType": "Twirl" },
{ "floor": 200, "eventType": "Twirl" },
{ "floor": 207, "eventType": "Twirl" },
{ "floor": 212, "eventType": "Twirl" },
{ "floor": 221, "eventType": "SetSpeed", "speedType": "Multiplier", "beatsPerMinute": 100, "bpmMultiplier": 0.5 },
{ "floor": 273, "eventType": "SetSpeed", "speedType": "Multiplier", "beatsPerMinute": 100, "bpmMultiplier": 2 },
{ "floor": 281, "eventType": "SetSpeed", "speedType": "Multiplier", "beatsPerMinute": 100, "bpmMultiplier": 0.5 }
]
"decorations":
[
]
}