226 lines
11 KiB
Plaintext
226 lines
11 KiB
Plaintext
{
|
|
"angleData": [0, 90, 999, 0, 45, 90, 180, 999, 90, 180, 999, 90, 180, 999, 90, 225, 135, 90, 90, 0, 999, 90, 45, 0, 270, 999, 0, 270, 999, 0, 270, 315, 0, 90, 999, 0, 90, 999, 0, 90, 999, 315, 0, 90, 999, 0, 90, 999, 0, 90, 999, 0, 90, 999, 0, 0, 90, 999, 0, 90, 45, 0, 270, 999, 0, 270, 999, 0, 0, 270, 270, 270, 45, 270, 45, 270, 45, 315, 270, 0, 999, 270, 0, 225, 0, 225, 0, 225, 315, 0, 90, 999, 0, 90, 999, 0, 90, 315, 45, 90, 180, 999, 90, 180, 999, 90, 180, 999, 90, 225, 180, 90, 0, 999, 90, 225, 90, 225, 90, 225, 135, 90, 0, 999, 90, 0, 135, 0, 135, 0, 135, 45, 0, 270, 999, 0, 270, 45, 270, 45, 270, 45, 315, 270, 180, 999, 270, 180, 999, 270, 270, 45, 270, 45, 270, 45, 270, 45, 270, 45, 270, 270, 0, 90, 999, 0, 0, 90, 999, 0, 0, 0, 90, 999, 0, 90, 999, 0, 90, 999, 0, 90, 999, 0, 90, 999, 0, 90, 999, 0, 0, 0, 90, 999, 0, 90, 999, 0, 90, 999, 0, 90, 999, 0, 90, 45, 0, 270, 180, 315, 45, 90, 90, 180, 999, 90, 180, 999, 90, 180, 999, 0, 90, 999, 0, 0, 90, 45, 135, 999, 45, 135, 999, 45, 45, 135, 999, 45, 45, 45, 135, 999, 45, 135, 999, 45, 135, 999, 45, 135, 999, 45, 135, 999, 45, 135, 999, 45, 45, 45, 135, 999, 45, 135, 999, 45, 135, 999, 45, 135, 999, 45, 135, 180, 225, 135, 45, 180, 270, 225, 225, 135, 999, 225, 135, 999, 225, 135, 135, 45, 999, 135, 135, 135, 0, 225, 135, 45, 135, 0, 90, 315, 0, 135, 0, 135, 0, 135, 45, 135, 0, 90, 315, 0, 135, 0, 135, 0, 135, 0, 90, 315, 90, 315, 90, 315, 90, 45, 270, 45, 270, 45, 270, 315, 315, 45, 135, 0, 270, 45, 45, 135, 999, 45, 135, 999, 45, 135, 999, 45, 135, 999, 45, 135, 999, 45, 45, 135, 999, 45, 135, 999, 45, 135, 999, 45, 45, 135, 999, 45, 135, 90, 180, 270, 999, 180, 135, 90, 0, 999, 90, 0, 999, 90, 0, 999, 90, 225, 135, 270, 180, 180, 90, 999, 180, 90, 999, 180, 90, 999, 180, 90, 999, 180, 90, 999, 180, 90, 225, 135, 90, 90, 0, 999, 90, 90, 0, 999, 90, 0, 999, 90, 0, 999, 90, 0, 135, 225, 180, 180, 90, 999, 180, 90, 999, 180, 90, 999, 180, 90, 999, 180, 90, 999, 180, 270, 180, 90, 999, 180, 90, 999, 180, 135, 45, 999, 180, 90, 999, 180, 90, 999, 180, 90, 999, 135, 45, 90, 90, 180, 999, 90, 180, 999, 90, 180, 999, 90, 180, 999, 90, 180, 999, 90, 180, 45, 135, 90, 90, 0, 999, 90, 45, 0, 270, 999, 0, 270, 999, 0, 270, 999, 0, 270, 999, 0, 0, 270, 999, 0, 0, 270, 0, 225, 270, 0, 999, 270, 0, 225, 315, 0, 90, 999, 0, 90, 315, 90, 315, 90, 315, 45, 90, 180, 999, 90, 180, 999, 90, 180, 45, 135, 90, 0, 999, 90, 0, 999, 90, 0, 999, 90, 225, 180, 90, 999, 180, 90, 225, 90, 225, 90, 225, 135, 90, 0, 999, 90, 0, 135, 0, 135, 0, 135, 45, 90, 180, 999, 90, 180, 45, 180, 45, 180, 45, 135, 90, 0, 999, 90, 0, 999, 90, 90, 315, 90, 315, 90, 315, 90, 315, 90, 315, 90],
|
|
"settings":
|
|
{
|
|
"version": 11 ,
|
|
"artist": "",
|
|
"specialArtistType": "None",
|
|
"artistPermission": "",
|
|
"song": "",
|
|
"author": "",
|
|
"separateCountdownTime": "Enabled",
|
|
"previewImage": "",
|
|
"previewIcon": "",
|
|
"previewIconColor": "003f52",
|
|
"previewSongStart": 0,
|
|
"previewSongDuration": 10,
|
|
"seizureWarning": "Disabled",
|
|
"levelDesc": "",
|
|
"levelTags": "",
|
|
"artistLinks": "",
|
|
"difficulty": 1,
|
|
"songFilename": "jkl.wav",
|
|
"bpm": 130,
|
|
"volume": 80,
|
|
"offset": 26,
|
|
"pitch": 100,
|
|
"hitsound": "Kick",
|
|
"hitsoundVolume": 100,
|
|
"countdownTicks": 4,
|
|
"trackColorType": "Single",
|
|
"trackColor": "debb7b",
|
|
"secondaryTrackColor": "ffffff",
|
|
"trackColorAnimDuration": 2,
|
|
"trackColorPulse": "None",
|
|
"trackPulseLength": 10,
|
|
"trackStyle": "Standard",
|
|
"trackAnimation": "None",
|
|
"beatsAhead": 3,
|
|
"trackDisappearAnimation": "None",
|
|
"beatsBehind": 4,
|
|
"backgroundColor": "000000",
|
|
"showDefaultBGIfNoImage": "Enabled",
|
|
"bgImage": "",
|
|
"bgImageColor": "ffffff",
|
|
"parallax": [100, 100],
|
|
"bgDisplayMode": "FitToScreen",
|
|
"lockRot": "Disabled",
|
|
"loopBG": "Disabled",
|
|
"unscaledSize": 100,
|
|
"relativeTo": "Player",
|
|
"position": [0, 0],
|
|
"rotation": 0,
|
|
"zoom": 100,
|
|
"bgVideo": "jkl.mp4",
|
|
"loopVideo": "Disabled",
|
|
"vidOffset": 1908,
|
|
"floorIconOutlines": "Disabled",
|
|
"stickToFloors": "Enabled",
|
|
"planetEase": "Linear",
|
|
"planetEaseParts": 1,
|
|
"planetEasePartBehavior": "Mirror",
|
|
"customClass": "",
|
|
"legacyFlash": false ,
|
|
"legacyCamRelativeTo": false ,
|
|
"legacySpriteTiles": false
|
|
},
|
|
"actions":
|
|
[
|
|
{ "floor": 16, "eventType": "Twirl" },
|
|
{ "floor": 31, "eventType": "Twirl" },
|
|
{ "floor": 60, "eventType": "Twirl" },
|
|
{ "floor": 71, "eventType": "Twirl" },
|
|
{ "floor": 73, "eventType": "Twirl" },
|
|
{ "floor": 74, "eventType": "Twirl" },
|
|
{ "floor": 75, "eventType": "Twirl" },
|
|
{ "floor": 76, "eventType": "Twirl" },
|
|
{ "floor": 77, "eventType": "Twirl" },
|
|
{ "floor": 79, "eventType": "Twirl" },
|
|
{ "floor": 83, "eventType": "Twirl" },
|
|
{ "floor": 84, "eventType": "Twirl" },
|
|
{ "floor": 85, "eventType": "Twirl" },
|
|
{ "floor": 86, "eventType": "Twirl" },
|
|
{ "floor": 87, "eventType": "Twirl" },
|
|
{ "floor": 88, "eventType": "Twirl" },
|
|
{ "floor": 97, "eventType": "Twirl" },
|
|
{ "floor": 98, "eventType": "Twirl" },
|
|
{ "floor": 110, "eventType": "Twirl" },
|
|
{ "floor": 115, "eventType": "Twirl" },
|
|
{ "floor": 116, "eventType": "Twirl" },
|
|
{ "floor": 117, "eventType": "Twirl" },
|
|
{ "floor": 118, "eventType": "Twirl" },
|
|
{ "floor": 119, "eventType": "Twirl" },
|
|
{ "floor": 120, "eventType": "Twirl" },
|
|
{ "floor": 126, "eventType": "Twirl" },
|
|
{ "floor": 127, "eventType": "Twirl" },
|
|
{ "floor": 128, "eventType": "Twirl" },
|
|
{ "floor": 129, "eventType": "Twirl" },
|
|
{ "floor": 130, "eventType": "Twirl" },
|
|
{ "floor": 131, "eventType": "Twirl" },
|
|
{ "floor": 137, "eventType": "Twirl" },
|
|
{ "floor": 138, "eventType": "Twirl" },
|
|
{ "floor": 139, "eventType": "Twirl" },
|
|
{ "floor": 140, "eventType": "Twirl" },
|
|
{ "floor": 141, "eventType": "Twirl" },
|
|
{ "floor": 142, "eventType": "Twirl" },
|
|
{ "floor": 151, "eventType": "Twirl" },
|
|
{ "floor": 152, "eventType": "Twirl" },
|
|
{ "floor": 153, "eventType": "Twirl" },
|
|
{ "floor": 154, "eventType": "Twirl" },
|
|
{ "floor": 155, "eventType": "Twirl" },
|
|
{ "floor": 156, "eventType": "Twirl" },
|
|
{ "floor": 157, "eventType": "Twirl" },
|
|
{ "floor": 158, "eventType": "Twirl" },
|
|
{ "floor": 159, "eventType": "Twirl" },
|
|
{ "floor": 160, "eventType": "Twirl" },
|
|
{ "floor": 161, "eventType": "Twirl" },
|
|
{ "floor": 205, "eventType": "Twirl" },
|
|
{ "floor": 209, "eventType": "Twirl" },
|
|
{ "floor": 227, "eventType": "SetSpeed", "speedType": "Multiplier", "beatsPerMinute": 100, "bpmMultiplier": 0.5 },
|
|
{ "floor": 228, "eventType": "SetSpeed", "speedType": "Multiplier", "beatsPerMinute": 100, "bpmMultiplier": 2 },
|
|
{ "floor": 275, "eventType": "Twirl" },
|
|
{ "floor": 277, "eventType": "Twirl" },
|
|
{ "floor": 279, "eventType": "Twirl" },
|
|
{ "floor": 293, "eventType": "SetSpeed", "speedType": "Multiplier", "beatsPerMinute": 100, "bpmMultiplier": 0.5 },
|
|
{ "floor": 294, "eventType": "SetSpeed", "speedType": "Multiplier", "beatsPerMinute": 100, "bpmMultiplier": 2 },
|
|
{ "floor": 298, "eventType": "Twirl" },
|
|
{ "floor": 299, "eventType": "Twirl" },
|
|
{ "floor": 300, "eventType": "Twirl" },
|
|
{ "floor": 301, "eventType": "Twirl" },
|
|
{ "floor": 302, "eventType": "Twirl" },
|
|
{ "floor": 304, "eventType": "Twirl" },
|
|
{ "floor": 305, "eventType": "Twirl" },
|
|
{ "floor": 306, "eventType": "Twirl" },
|
|
{ "floor": 307, "eventType": "Twirl" },
|
|
{ "floor": 308, "eventType": "Twirl" },
|
|
{ "floor": 309, "eventType": "Twirl" },
|
|
{ "floor": 310, "eventType": "Twirl" },
|
|
{ "floor": 311, "eventType": "Twirl" },
|
|
{ "floor": 312, "eventType": "Twirl" },
|
|
{ "floor": 313, "eventType": "Twirl" },
|
|
{ "floor": 315, "eventType": "Twirl" },
|
|
{ "floor": 316, "eventType": "Twirl" },
|
|
{ "floor": 317, "eventType": "Twirl" },
|
|
{ "floor": 318, "eventType": "Twirl" },
|
|
{ "floor": 319, "eventType": "Twirl" },
|
|
{ "floor": 320, "eventType": "Twirl" },
|
|
{ "floor": 321, "eventType": "Twirl" },
|
|
{ "floor": 322, "eventType": "Twirl" },
|
|
{ "floor": 323, "eventType": "Twirl" },
|
|
{ "floor": 324, "eventType": "Twirl" },
|
|
{ "floor": 325, "eventType": "Twirl" },
|
|
{ "floor": 326, "eventType": "Twirl" },
|
|
{ "floor": 327, "eventType": "Twirl" },
|
|
{ "floor": 329, "eventType": "Twirl" },
|
|
{ "floor": 330, "eventType": "Twirl" },
|
|
{ "floor": 331, "eventType": "Twirl" },
|
|
{ "floor": 332, "eventType": "Twirl" },
|
|
{ "floor": 333, "eventType": "Twirl" },
|
|
{ "floor": 337, "eventType": "Twirl" },
|
|
{ "floor": 339, "eventType": "Twirl" },
|
|
{ "floor": 371, "eventType": "SetSpeed", "speedType": "Multiplier", "beatsPerMinute": 100, "bpmMultiplier": 0.5 },
|
|
{ "floor": 372, "eventType": "SetSpeed", "speedType": "Multiplier", "beatsPerMinute": 100, "bpmMultiplier": 2 },
|
|
{ "floor": 376, "eventType": "Twirl" },
|
|
{ "floor": 387, "eventType": "Twirl" },
|
|
{ "floor": 388, "eventType": "Twirl" },
|
|
{ "floor": 389, "eventType": "Twirl" },
|
|
{ "floor": 390, "eventType": "Twirl" },
|
|
{ "floor": 408, "eventType": "Twirl" },
|
|
{ "floor": 409, "eventType": "Twirl" },
|
|
{ "floor": 426, "eventType": "Twirl" },
|
|
{ "floor": 428, "eventType": "Twirl" },
|
|
{ "floor": 467, "eventType": "Twirl" },
|
|
{ "floor": 485, "eventType": "Twirl" },
|
|
{ "floor": 486, "eventType": "Twirl" },
|
|
{ "floor": 487, "eventType": "Twirl" },
|
|
{ "floor": 512, "eventType": "Twirl" },
|
|
{ "floor": 513, "eventType": "Twirl" },
|
|
{ "floor": 514, "eventType": "Twirl" },
|
|
{ "floor": 519, "eventType": "Twirl" },
|
|
{ "floor": 520, "eventType": "Twirl" },
|
|
{ "floor": 526, "eventType": "Twirl" },
|
|
{ "floor": 527, "eventType": "Twirl" },
|
|
{ "floor": 528, "eventType": "Twirl" },
|
|
{ "floor": 529, "eventType": "Twirl" },
|
|
{ "floor": 530, "eventType": "Twirl" },
|
|
{ "floor": 531, "eventType": "Twirl" },
|
|
{ "floor": 540, "eventType": "Twirl" },
|
|
{ "floor": 541, "eventType": "Twirl" },
|
|
{ "floor": 542, "eventType": "Twirl" },
|
|
{ "floor": 552, "eventType": "Twirl" },
|
|
{ "floor": 553, "eventType": "Twirl" },
|
|
{ "floor": 558, "eventType": "Twirl" },
|
|
{ "floor": 559, "eventType": "Twirl" },
|
|
{ "floor": 560, "eventType": "Twirl" },
|
|
{ "floor": 561, "eventType": "Twirl" },
|
|
{ "floor": 562, "eventType": "Twirl" },
|
|
{ "floor": 563, "eventType": "Twirl" },
|
|
{ "floor": 569, "eventType": "Twirl" },
|
|
{ "floor": 570, "eventType": "Twirl" },
|
|
{ "floor": 571, "eventType": "Twirl" },
|
|
{ "floor": 572, "eventType": "Twirl" },
|
|
{ "floor": 573, "eventType": "Twirl" },
|
|
{ "floor": 574, "eventType": "Twirl" },
|
|
{ "floor": 575, "eventType": "Twirl" },
|
|
{ "floor": 580, "eventType": "Twirl" },
|
|
{ "floor": 581, "eventType": "Twirl" },
|
|
{ "floor": 582, "eventType": "Twirl" },
|
|
{ "floor": 583, "eventType": "Twirl" },
|
|
{ "floor": 584, "eventType": "Twirl" },
|
|
{ "floor": 585, "eventType": "Twirl" },
|
|
{ "floor": 586, "eventType": "Twirl" },
|
|
{ "floor": 595, "eventType": "Twirl" },
|
|
{ "floor": 596, "eventType": "Twirl" },
|
|
{ "floor": 597, "eventType": "Twirl" },
|
|
{ "floor": 598, "eventType": "Twirl" },
|
|
{ "floor": 599, "eventType": "Twirl" },
|
|
{ "floor": 600, "eventType": "Twirl" },
|
|
{ "floor": 601, "eventType": "Twirl" },
|
|
{ "floor": 602, "eventType": "Twirl" },
|
|
{ "floor": 603, "eventType": "Twirl" }
|
|
]
|
|
"decorations":
|
|
[
|
|
]
|
|
}
|