adofa-suishenzhice-2/shende2.adofai

370 lines
18 KiB
Plaintext

{
"angleData": [0, 0, 0, 0, 0, 0, 45, 180, 315, 0, 0, 0, 90, 315, 90, 315, 90, 315, 90, 315, 0, 0, 0, 90, 999, 0, 0, 45, 180, 135, 0, 90, 999, 0, 0, 45, 180, 135, 0, 90, 999, 0, 0, 45, 180, 135, 0, 90, 999, 0, 90, 999, 0, 90, 315, 999, 0, 90, 999, 0, 90, 315, 999, 0, 90, 999, 0, 45, 180, 135, 0, 90, 999, 0, 0, 45, 180, 135, 0, 90, 999, 0, 0, 45, 180, 135, 0, 90, 999, 0, 90, 999, 0, 90, 315, 999, 0, 0, 0, 0, 0, 0, 270, 0, 90, 0, 0, 315, 180, 270, 0, 270, 135, 270, 0, 270, 0, 270, 0, 90, 45, 270, 315, 90, 0, 270, 0, 90, 0, 270, 0, 0, 90, 0, 270, 315, 90, 45, 270, 0, 90, 0, 135, 999, 90, 0, 270, 0, 0, 90, 999, 0, 0, 90, 999, 0, 0, 90, 0, 270, 0, 90, 0, 0, 270, 0, 90, 45, 270, 315, 90, 0, 270, 0, 135, 270, 0, 90, 0, 0, 270, 0, 90, 45, 270, 315, 90, 0, 270, 0, 90, 0, 270, 0, 0, 90, 0, 270, 270, 315, 90, 0, 270, 0, 90, 0, 270, 0, 0, 90, 999, 0, 180, 270, 315, 270, 0, 90, 0, 0, 0, 45, 180, 270, 0, 999, 270, 270, 270, 270, 0, 999, 270, 180, 270, 180, 999, 270, 0, 270, 0, 90, 999, 0, 45, 180, 135, 0, 90, 999, 0, 90, 999, 0, 45, 180, 135, 0, 90, 999, 0, 90, 90, -90, 45, 270, 315, 270, 270, 0, 90, 0, 270, 0, 0, 0, 0, 0, 45, 180, 135, 0, 90, 999, 0, 0, 45, 180, 135, 0, 90, 999, 0, 0, 45, 180, 135, 0, 90, 999, 0, 90, 999, 0, 90, 0, 270, 0, 90, 0, 270, 0, 45, 180, 135, 0, 90, 999, 0, 0, 0, 0, 90, 999, 0, 0, 45, 180, 135, 0, 90, 999, 0, 90, 999, 0, 0, 270, 0, 90, 999, 0, 45, 180, 135, 0, 90, 999, 0, 0, 45, 180, 135, 0, 90, 999, 0, 0, 45, 180, 135, 0, 90, 999, 0, 90, 999, 0, 90, 0, 270, 0, 90, 0, 270, 0, 45, 180, 135, 0, 90, 999, 0, 0, 45, 180, 135, 0, 90, 999, 0, 0, 45, 180, 135, 0, 90, 999, 0, 90, 999, 0, 90, 0, 0, 0, 0, 0, 90, 0, 270, 999, 0, 0, 0, 270, 0, 90, 0, 270, 0, 90, 90, 0, 270, 0, 45, 270, 0, 90, 0, 270, 0, 90, 0, 270, 0, 0, 90, 0, 270, 315, 90, 45, 270, 0, 90, 0, 270, 0, 90, 0, 0, 270, 0, 0, 90, 0, 0, 270, 0, 90, 0, 270, 0, 0, 90, 0, 270, 270, 270, 0, 0, 0, 90, 0, 0, 270, 0, 90, 45, 270, 315, 90, 0, 270, 0, 90, 0, 270, 0, 0, 90, 0, 270, 315, 90, 45, 270, 0, 90, 0, 270, 0, 90, 0, 0, 270, 999, 0, 90, 0, 270, 0, 0, 90, 45, 180, 90, 90, 45, 270, 315, 90, 0, 270, 0, 90, 0, 0, 0, 270, 0, 270, 0, 270, 0, 270, 0, 225, 999, 270, 0, 90, 45, 270, 315, 90, 0, 270, 270, 315, 90, 45, 270, 0, 90, 0, 270, 0, 0, 270, 0, 135, 0, 315, 270, 270, 180, 999, 270, 180, 270, 0, 0, 0, 0, 0, 45, 180, 135, 0, 90, 999, 0, 0, 45, 180, 135, 0, 90, 999, 0, 0, 45, 180, 135, 0, 90, 999, 0, 90, 999, 0, 90, 0, 270, 0, 90, 0, 270, 0, 45, 180, 135, 0, 0, 0, 45, 180, 135, 0, 90, 999, 0, 45, 180, 135, 0, 45, 180, 90, 0, 90, 0, 270, 0, 90, 0, 270, 135, 0, 45, 180, 135, 0, 90, 999, 0, 0, 45, 180, 135, 0, 90, 999, 0, 0, 45, 180, 135, 0, 90, 999, 0, 90, 999, 0, 90, 0, 270, 0, 90, 0, 270, 0, 45, 180, 135, 0, 90, 999, 0, 0, 45, 180, 135, 0, 90, 999, 0, 0, 45, 180, 135, 0, 90, 999, 0, 90, 999, 0, 90, 0, 90, 0, 270, 0, 0, 0, 90, 0, 270, 270, 0, 90, 90, 0, 270, 0, 45, 180, 135, 0, 90, 999, 0, 90, 90, 0, 270, 270, 0, 90, 999, 0, 45, 180, 135, 0, 90, 999, 0, 90, 90, 0, 225, 90, 90, 0, 270, 270, 0, 90, 90, 0, 270, 270, 0, 90, 0, 0, 0, 0, 0, 0, 0, 0, 0, 45, 180, 135, 0, 90, 999, 0, 0, 45, 180, 135, 0, 90, 999, 0, 0, 45, 180, 135, 0, 90, 999, 0, 90, 999, 0, 90, 0, 270, 0, 90, 0, 270, 0, 45, 180, 135, 0, 90, 999, 0, 0, 0, 45, 180, 90, 0, 0, 0, 0, 90, 0, 270, 0, 90, 0, 90, 0, 270, 0, 45, 180, 135, 0, 90, 999, 0, 0, 0, 45, 180, 90, 0, 0, 0, 45, 180, 90, 0, 90, 0, 270, 0, 270, 0, 0, 0, 45, 180, 135, 0, 90, 999, 0, 0, 0, 45, 180, 90, 0, 0, 0, 45, 180, 90, 0, 90, 0, 270, 0, 0, 90, 999, 0, 90, 999, 0, 45, 180, 135, 0, 90, 999, 0, 0, 45, 180, 135, 0, 90, 999, 0, 0, 45, 180, 135, 0, 90, 999, 0, 90, 999, 0, 90, 0, 270, 0, 0, 0, 45, 180, 135, 0, 90, 999, 0, 0, 45, 180, 135, 0, 90, 999, 0, 0, 45, 180, 135, 0, 90, 999, 0, 90, 999, 0, 0, 0, 90, 999, 0, 90, 999, 0, 45, 180, 135, 0, 90, 999, 0, 0, 45, 180, 135, 0, 90, 999, 0, 0, 45, 180, 135, 0, 90, 999, 0, 90, 999, 0, 90, 0, 270, 0, 0, 0, 45, 180, 135, 0, 90, 999, 0, 0, 45, 180, 135, 0, 90, 999, 0, 0, 45, 180, 135, 0, 90, 999, 0, 90, 999, 0, 0, 0, 0, 90],
"settings":
{
"version": 9 ,
"artist": "GUMI",
"specialArtistType": "None",
"artistPermission": "",
"song": "随神之侧",
"author": "tls",
"separateCountdownTime": "Enabled",
"previewImage": "hqdefault.jpg",
"previewIcon": "",
"previewIconColor": "003f52",
"previewSongStart": 0,
"previewSongDuration": 10,
"seizureWarning": "Disabled",
"levelDesc": "说说看你的关卡是什么样的吧!",
"levelTags": "",
"artistLinks": "",
"difficulty": 1,
"songFilename": "shende.wav",
"bpm": 135,
"volume": 70,
"offset": 458,
"pitch": 100,
"hitsound": "Kick",
"hitsoundVolume": 100,
"countdownTicks": 4,
"trackColorType": "Single",
"trackColor": "debb7b",
"secondaryTrackColor": "ffffff",
"trackColorAnimDuration": 2,
"trackColorPulse": "None",
"trackPulseLength": 10,
"trackStyle": "Standard",
"trackAnimation": "None",
"beatsAhead": 3,
"trackDisappearAnimation": "None",
"beatsBehind": 4,
"backgroundColor": "000000",
"showDefaultBGIfNoImage": "Enabled",
"bgImage": "",
"bgImageColor": "ffffff",
"parallax": [100, 100],
"bgDisplayMode": "FitToScreen",
"lockRot": "Disabled",
"loopBG": "Disabled",
"unscaledSize": 100,
"relativeTo": "Player",
"position": [0, 0],
"rotation": 0,
"zoom": 100,
"bgVideo": "",
"loopVideo": "Disabled",
"vidOffset": 0,
"floorIconOutlines": "Disabled",
"stickToFloors": "Disabled",
"planetEase": "Linear",
"planetEaseParts": 1,
"customClass": "",
"legacyFlash": false ,
"legacySpriteTiles": false
},
"actions":
[
{ "floor": 13, "eventType": "Twirl" },
{ "floor": 14, "eventType": "Twirl" },
{ "floor": 15, "eventType": "Twirl" },
{ "floor": 16, "eventType": "Twirl" },
{ "floor": 17, "eventType": "Twirl" },
{ "floor": 18, "eventType": "Twirl" },
{ "floor": 19, "eventType": "Twirl" },
{ "floor": 20, "eventType": "Twirl" },
{ "floor": 29, "eventType": "Twirl" },
{ "floor": 31, "eventType": "Twirl" },
{ "floor": 37, "eventType": "Twirl" },
{ "floor": 39, "eventType": "Twirl" },
{ "floor": 45, "eventType": "Twirl" },
{ "floor": 47, "eventType": "Twirl" },
{ "floor": 54, "eventType": "Twirl" },
{ "floor": 57, "eventType": "Twirl" },
{ "floor": 61, "eventType": "Twirl" },
{ "floor": 64, "eventType": "Twirl" },
{ "floor": 69, "eventType": "Twirl" },
{ "floor": 71, "eventType": "Twirl" },
{ "floor": 77, "eventType": "Twirl" },
{ "floor": 79, "eventType": "Twirl" },
{ "floor": 85, "eventType": "Twirl" },
{ "floor": 87, "eventType": "Twirl" },
{ "floor": 94, "eventType": "Twirl" },
{ "floor": 103, "eventType": "Twirl" },
{ "floor": 105, "eventType": "Twirl" },
{ "floor": 109, "eventType": "Twirl" },
{ "floor": 111, "eventType": "Twirl" },
{ "floor": 113, "eventType": "Twirl" },
{ "floor": 115, "eventType": "Twirl" },
{ "floor": 116, "eventType": "Twirl" },
{ "floor": 120, "eventType": "Twirl" },
{ "floor": 122, "eventType": "Twirl" },
{ "floor": 124, "eventType": "Twirl" },
{ "floor": 126, "eventType": "Twirl" },
{ "floor": 128, "eventType": "Twirl" },
{ "floor": 130, "eventType": "Twirl" },
{ "floor": 133, "eventType": "Twirl" },
{ "floor": 135, "eventType": "Twirl" },
{ "floor": 137, "eventType": "Twirl" },
{ "floor": 139, "eventType": "Twirl" },
{ "floor": 141, "eventType": "Twirl" },
{ "floor": 142, "eventType": "Twirl" },
{ "floor": 145, "eventType": "Twirl" },
{ "floor": 147, "eventType": "Twirl" },
{ "floor": 158, "eventType": "Twirl" },
{ "floor": 160, "eventType": "Twirl" },
{ "floor": 162, "eventType": "Twirl" },
{ "floor": 165, "eventType": "Twirl" },
{ "floor": 167, "eventType": "Twirl" },
{ "floor": 169, "eventType": "Twirl" },
{ "floor": 171, "eventType": "Twirl" },
{ "floor": 173, "eventType": "Twirl" },
{ "floor": 178, "eventType": "Twirl" },
{ "floor": 181, "eventType": "Twirl" },
{ "floor": 183, "eventType": "Twirl" },
{ "floor": 185, "eventType": "Twirl" },
{ "floor": 187, "eventType": "Twirl" },
{ "floor": 189, "eventType": "Twirl" },
{ "floor": 191, "eventType": "Twirl" },
{ "floor": 193, "eventType": "Twirl" },
{ "floor": 196, "eventType": "Twirl" },
{ "floor": 198, "eventType": "Twirl" },
{ "floor": 201, "eventType": "Twirl" },
{ "floor": 203, "eventType": "Twirl" },
{ "floor": 205, "eventType": "Twirl" },
{ "floor": 207, "eventType": "Twirl" },
{ "floor": 215, "eventType": "Twirl" },
{ "floor": 219, "eventType": "Twirl" },
{ "floor": 234, "eventType": "Twirl" },
{ "floor": 239, "eventType": "Twirl" },
{ "floor": 246, "eventType": "Twirl" },
{ "floor": 248, "eventType": "Twirl" },
{ "floor": 256, "eventType": "Twirl" },
{ "floor": 258, "eventType": "Twirl" },
{ "floor": 261, "eventType": "Twirl" },
{ "floor": 263, "eventType": "Twirl" },
{ "floor": 265, "eventType": "Twirl" },
{ "floor": 266, "eventType": "Twirl" },
{ "floor": 267, "eventType": "Twirl" },
{ "floor": 269, "eventType": "Twirl" },
{ "floor": 273, "eventType": "Twirl" },
{ "floor": 274, "eventType": "Twirl" },
{ "floor": 280, "eventType": "Twirl" },
{ "floor": 282, "eventType": "Twirl" },
{ "floor": 288, "eventType": "Twirl" },
{ "floor": 290, "eventType": "Twirl" },
{ "floor": 296, "eventType": "Twirl" },
{ "floor": 298, "eventType": "Twirl" },
{ "floor": 305, "eventType": "Twirl" },
{ "floor": 307, "eventType": "Twirl" },
{ "floor": 309, "eventType": "Twirl" },
{ "floor": 311, "eventType": "Twirl" },
{ "floor": 314, "eventType": "Twirl" },
{ "floor": 316, "eventType": "Twirl" },
{ "floor": 328, "eventType": "Twirl" },
{ "floor": 330, "eventType": "Twirl" },
{ "floor": 344, "eventType": "Twirl" },
{ "floor": 346, "eventType": "Twirl" },
{ "floor": 352, "eventType": "Twirl" },
{ "floor": 354, "eventType": "Twirl" },
{ "floor": 360, "eventType": "Twirl" },
{ "floor": 362, "eventType": "Twirl" },
{ "floor": 369, "eventType": "Twirl" },
{ "floor": 371, "eventType": "Twirl" },
{ "floor": 373, "eventType": "Twirl" },
{ "floor": 375, "eventType": "Twirl" },
{ "floor": 378, "eventType": "Twirl" },
{ "floor": 380, "eventType": "Twirl" },
{ "floor": 386, "eventType": "Twirl" },
{ "floor": 388, "eventType": "Twirl" },
{ "floor": 394, "eventType": "Twirl" },
{ "floor": 396, "eventType": "Twirl" },
{ "floor": 403, "eventType": "Twirl" },
{ "floor": 416, "eventType": "Twirl" },
{ "floor": 418, "eventType": "Twirl" },
{ "floor": 420, "eventType": "Twirl" },
{ "floor": 422, "eventType": "Twirl" },
{ "floor": 425, "eventType": "Twirl" },
{ "floor": 427, "eventType": "Twirl" },
{ "floor": 428, "eventType": "Twirl" },
{ "floor": 430, "eventType": "Twirl" },
{ "floor": 432, "eventType": "Twirl" },
{ "floor": 434, "eventType": "Twirl" },
{ "floor": 436, "eventType": "Twirl" },
{ "floor": 439, "eventType": "Twirl" },
{ "floor": 441, "eventType": "Twirl" },
{ "floor": 443, "eventType": "Twirl" },
{ "floor": 445, "eventType": "Twirl" },
{ "floor": 447, "eventType": "Twirl" },
{ "floor": 449, "eventType": "Twirl" },
{ "floor": 451, "eventType": "Twirl" },
{ "floor": 454, "eventType": "Twirl" },
{ "floor": 457, "eventType": "Twirl" },
{ "floor": 460, "eventType": "Twirl" },
{ "floor": 462, "eventType": "Twirl" },
{ "floor": 464, "eventType": "Twirl" },
{ "floor": 467, "eventType": "Twirl" },
{ "floor": 471, "eventType": "Twirl" },
{ "floor": 475, "eventType": "Twirl" },
{ "floor": 478, "eventType": "Twirl" },
{ "floor": 480, "eventType": "Twirl" },
{ "floor": 482, "eventType": "Twirl" },
{ "floor": 484, "eventType": "Twirl" },
{ "floor": 486, "eventType": "Twirl" },
{ "floor": 488, "eventType": "Twirl" },
{ "floor": 490, "eventType": "Twirl" },
{ "floor": 493, "eventType": "Twirl" },
{ "floor": 495, "eventType": "Twirl" },
{ "floor": 497, "eventType": "Twirl" },
{ "floor": 499, "eventType": "Twirl" },
{ "floor": 501, "eventType": "Twirl" },
{ "floor": 503, "eventType": "Twirl" },
{ "floor": 505, "eventType": "Twirl" },
{ "floor": 513, "eventType": "Twirl" },
{ "floor": 516, "eventType": "Twirl" },
{ "floor": 522, "eventType": "Twirl" },
{ "floor": 524, "eventType": "Twirl" },
{ "floor": 526, "eventType": "Twirl" },
{ "floor": 528, "eventType": "Twirl" },
{ "floor": 532, "eventType": "Twirl" },
{ "floor": 534, "eventType": "Twirl" },
{ "floor": 536, "eventType": "Twirl" },
{ "floor": 538, "eventType": "Twirl" },
{ "floor": 542, "eventType": "Twirl" },
{ "floor": 544, "eventType": "Twirl" },
{ "floor": 546, "eventType": "Twirl" },
{ "floor": 548, "eventType": "Twirl" },
{ "floor": 550, "eventType": "Twirl" },
{ "floor": 553, "eventType": "Twirl" },
{ "floor": 555, "eventType": "Twirl" },
{ "floor": 557, "eventType": "Twirl" },
{ "floor": 559, "eventType": "Twirl" },
{ "floor": 564, "eventType": "Twirl" },
{ "floor": 571, "eventType": "Twirl" },
{ "floor": 572, "eventType": "Twirl" },
{ "floor": 574, "eventType": "Twirl" },
{ "floor": 580, "eventType": "Twirl" },
{ "floor": 582, "eventType": "Twirl" },
{ "floor": 588, "eventType": "Twirl" },
{ "floor": 590, "eventType": "Twirl" },
{ "floor": 596, "eventType": "Twirl" },
{ "floor": 598, "eventType": "Twirl" },
{ "floor": 605, "eventType": "Twirl" },
{ "floor": 607, "eventType": "Twirl" },
{ "floor": 609, "eventType": "Twirl" },
{ "floor": 611, "eventType": "Twirl" },
{ "floor": 614, "eventType": "Twirl" },
{ "floor": 616, "eventType": "Twirl" },
{ "floor": 620, "eventType": "Twirl" },
{ "floor": 622, "eventType": "Twirl" },
{ "floor": 627, "eventType": "Twirl" },
{ "floor": 629, "eventType": "Twirl" },
{ "floor": 631, "eventType": "Twirl" },
{ "floor": 633, "eventType": "Twirl" },
{ "floor": 634, "eventType": "Twirl" },
{ "floor": 636, "eventType": "Twirl" },
{ "floor": 637, "eventType": "Twirl" },
{ "floor": 642, "eventType": "Twirl" },
{ "floor": 644, "eventType": "Twirl" },
{ "floor": 646, "eventType": "Twirl" },
{ "floor": 652, "eventType": "Twirl" },
{ "floor": 654, "eventType": "Twirl" },
{ "floor": 660, "eventType": "Twirl" },
{ "floor": 662, "eventType": "Twirl" },
{ "floor": 669, "eventType": "Twirl" },
{ "floor": 671, "eventType": "Twirl" },
{ "floor": 673, "eventType": "Twirl" },
{ "floor": 675, "eventType": "Twirl" },
{ "floor": 678, "eventType": "Twirl" },
{ "floor": 680, "eventType": "Twirl" },
{ "floor": 686, "eventType": "Twirl" },
{ "floor": 688, "eventType": "Twirl" },
{ "floor": 694, "eventType": "Twirl" },
{ "floor": 696, "eventType": "Twirl" },
{ "floor": 703, "eventType": "Twirl" },
{ "floor": 707, "eventType": "Twirl" },
{ "floor": 711, "eventType": "Twirl" },
{ "floor": 713, "eventType": "Twirl" },
{ "floor": 716, "eventType": "Twirl" },
{ "floor": 719, "eventType": "Twirl" },
{ "floor": 722, "eventType": "Twirl" },
{ "floor": 724, "eventType": "Twirl" },
{ "floor": 728, "eventType": "Twirl" },
{ "floor": 731, "eventType": "Twirl" },
{ "floor": 738, "eventType": "Twirl" },
{ "floor": 740, "eventType": "Twirl" },
{ "floor": 744, "eventType": "Twirl" },
{ "floor": 751, "eventType": "Twirl" },
{ "floor": 760, "eventType": "Twirl" },
{ "floor": 766, "eventType": "Twirl" },
{ "floor": 767, "eventType": "Twirl" },
{ "floor": 768, "eventType": "Twirl" },
{ "floor": 771, "eventType": "Twirl" },
{ "floor": 773, "eventType": "Twirl" },
{ "floor": 779, "eventType": "Twirl" },
{ "floor": 781, "eventType": "Twirl" },
{ "floor": 787, "eventType": "Twirl" },
{ "floor": 789, "eventType": "Twirl" },
{ "floor": 796, "eventType": "Twirl" },
{ "floor": 798, "eventType": "Twirl" },
{ "floor": 800, "eventType": "Twirl" },
{ "floor": 802, "eventType": "Twirl" },
{ "floor": 805, "eventType": "Twirl" },
{ "floor": 807, "eventType": "Twirl" },
{ "floor": 814, "eventType": "Twirl" },
{ "floor": 816, "eventType": "Twirl" },
{ "floor": 820, "eventType": "Twirl" },
{ "floor": 822, "eventType": "Twirl" },
{ "floor": 824, "eventType": "Twirl" },
{ "floor": 828, "eventType": "Twirl" },
{ "floor": 831, "eventType": "Twirl" },
{ "floor": 833, "eventType": "Twirl" },
{ "floor": 840, "eventType": "Twirl" },
{ "floor": 842, "eventType": "Twirl" },
{ "floor": 846, "eventType": "Twirl" },
{ "floor": 848, "eventType": "Twirl" },
{ "floor": 849, "eventType": "Twirl" },
{ "floor": 851, "eventType": "Twirl" },
{ "floor": 852, "eventType": "Twirl" },
{ "floor": 853, "eventType": "Twirl" },
{ "floor": 858, "eventType": "Twirl" },
{ "floor": 860, "eventType": "Twirl" },
{ "floor": 867, "eventType": "Twirl" },
{ "floor": 869, "eventType": "Twirl" },
{ "floor": 873, "eventType": "Twirl" },
{ "floor": 875, "eventType": "Twirl" },
{ "floor": 876, "eventType": "Twirl" },
{ "floor": 878, "eventType": "Twirl" },
{ "floor": 888, "eventType": "Twirl" },
{ "floor": 890, "eventType": "Twirl" },
{ "floor": 896, "eventType": "Twirl" },
{ "floor": 898, "eventType": "Twirl" },
{ "floor": 904, "eventType": "Twirl" },
{ "floor": 906, "eventType": "Twirl" },
{ "floor": 913, "eventType": "Twirl" },
{ "floor": 915, "eventType": "Twirl" },
{ "floor": 920, "eventType": "Twirl" },
{ "floor": 922, "eventType": "Twirl" },
{ "floor": 928, "eventType": "Twirl" },
{ "floor": 930, "eventType": "Twirl" },
{ "floor": 936, "eventType": "Twirl" },
{ "floor": 938, "eventType": "Twirl" },
{ "floor": 954, "eventType": "Twirl" },
{ "floor": 956, "eventType": "Twirl" },
{ "floor": 962, "eventType": "Twirl" },
{ "floor": 964, "eventType": "Twirl" },
{ "floor": 970, "eventType": "Twirl" },
{ "floor": 972, "eventType": "Twirl" },
{ "floor": 979, "eventType": "Twirl" },
{ "floor": 981, "eventType": "Twirl" },
{ "floor": 986, "eventType": "Twirl" },
{ "floor": 988, "eventType": "Twirl" },
{ "floor": 994, "eventType": "Twirl" },
{ "floor": 996, "eventType": "Twirl" },
{ "floor": 1002, "eventType": "Twirl" },
{ "floor": 1004, "eventType": "Twirl" }
]
"decorations":
[
]
}