{ "angleData": [0, 0, 0, 0, 0, 0, 0, 0, 0, 0, 0, 0, 0, 0, 0, 0, 0, 0, 0, 0, 0, 0, 0, 0, 0, 0, 0, 0, 0, 0, 0, 0, 0, 90, 180, 270, 0, 0, 0, 90, 180, 270, 0, 0, 0, 0, 0, 0, 0, 0, 0, 0, 0, 0, 0, 0, 0, 0, 0, 270, 0, 0, 0, 0, 0, 0, 0, 0, 0, 0, 0, 0, 0, 0, 0, 0, 0, 0, 0, 0, 0, 0, 0, 0, 0, 90, 180, 270, 0, 0, 0, 90, 180, 270, 0, 0, 0, 0, 0, 0, 0, 0, 0, 0, 0, 0, 0, 0, 0, 0, 0, 270, 0, 0, 0, 0, 0, 0, 0, 0, 0, 0, 0, 0, 0, 0, 0, 0, 0, 0, 0, 0, 0, 0, 0, 0, 0, 90, 180, 270, 0, 0, 0, 90, 180, 270, 0, 0, 0, 0, 0, 0, 0, 0, 0, 0, 0, 0, 0, 0, 0, 0, 0], "settings": { "version": 9 , "artist": "宝宝巴士", "specialArtistType": "None", "artistPermission": "", "song": "两只老虎", "author": "tls", "separateCountdownTime": "Enabled", "previewImage": "laohu.jpg", "previewIcon": "", "previewIconColor": "003f52", "previewSongStart": 0, "previewSongDuration": 10, "seizureWarning": "Disabled", "levelDesc": "说说看你的关卡是什么样的吧!", "levelTags": "", "artistLinks": "", "difficulty": 1, "songFilename": "liangzhilaohu.wav", "bpm": 125, "volume": 100, "offset": 31, "pitch": 100, "hitsound": "Kick", "hitsoundVolume": 100, "countdownTicks": 4, "trackColorType": "Single", "trackColor": "debb7b", "secondaryTrackColor": "ffffff", "trackColorAnimDuration": 2, "trackColorPulse": "None", "trackPulseLength": 10, "trackStyle": "Standard", "trackAnimation": "None", "beatsAhead": 3, "trackDisappearAnimation": "None", "beatsBehind": 4, "backgroundColor": "000000", "showDefaultBGIfNoImage": "Enabled", "bgImage": "", "bgImageColor": "ffffff", "parallax": [100, 100], "bgDisplayMode": "FitToScreen", "lockRot": "Disabled", "loopBG": "Disabled", "unscaledSize": 100, "relativeTo": "Player", "position": [0, 0], "rotation": 0, "zoom": 100, "bgVideo": "", "loopVideo": "Disabled", "vidOffset": 0, "floorIconOutlines": "Disabled", "stickToFloors": "Disabled", "planetEase": "Linear", "planetEaseParts": 1, "customClass": "", "legacyFlash": false , "legacySpriteTiles": false }, "actions": [ ] "decorations": [ ] }