187 lines
13 KiB
Plaintext
187 lines
13 KiB
Plaintext
{
|
|
"angleData": [0, 0, 0, 0, 0, 0, 90, 180, 270, 0, 0, 0, 0, 90, 180, 270, 0, 0, 0, 0, 0, 0, 0, 90, 180, 180, 180, 180, 90, 0, 0, 0, 0, 90, 999, 0, 90, 999, 0, 90, 0, 270, 0, 90, 0, 270, 0, 0, 0, 90, 999, 0, 0, 0, 0, 90, 180, 999, 0, 0, 0, 90, 0, 90, 0, 270, 0, 0, 0, 0, 0, 0, 0, 0, 0, 0, 0, 0, 90, 180, 270, 270, 0, 0, 0, 0, 0, 0, 90, 180, 270, 270, 0, 0, 0, 0, 0, 0, 90, 180, 270, 270, 0, 270, 270, 0, 90, 90, 0, 270, 180, 90, 0, 270, 270, 0, 90, 0, 0, 0, 0, 0, 90, 180, 270, 270, 0, 0, 0, 0, 0, 0, 90, 180, 270, 270, 0, 0, 0, 0, 0, 0, 90, 180, 270, 270, 0, 0, 0, 0, 0, 0, 0, 0, 0, 0, 0, 0, 0, 0, 0, 0, 0, 0, 0, 0, 90, 180, 270, 270, 0, 0, 0, 0, 0, 0, 0, 0, 0, 0, 0, 0, 0, 0, 0, 0, 0, 0, 0, 0, 0, 0, 0, 0, 0, 0, 0, 0, 0, 0, 0, 0, 0, 90, 180, 270, 0, 270, 180, 90, 0, 0, 0, 0, 0, 0, 0, 0, 0, 0, 0, 0, 0, 0, 0, 0, 0, 0, 0, 0, 0, 0, 0, 0, 0, 0, 0, 90, 180, 270, 0, 270, 180, 90, 0, 0, 0, 90, 0, 0, 0, 0, 270, 0, 0, 0, 0, 90, 180, 270, 0, 0, 0, 0, 0, 0, 0, 0, 0, 90, 180, 270, 270, 0, 0, 0, 0, 0, 0, 90, 180, 270, 270, 0, 0, 0, 0, 0, 0, 90, 180, 270, 270, 0, 270, 270, 0, 90, 90, 0, 270, 0, 90, 0, 270, 270, 0, 0, 0, 0, 0, 0, 90, 180, 270, 270, 0, 0, 0, 0, 0, 0, 90, 180, 270, 270, 0, 0, 0, 0, 0, 0, 90, 180, 270, 270, 0, 270, 0, 0, 0, 90, 0, 0, 0, 0, 0, 0, 0, 0, 0, 0, 0, 0, 0, 0, 0, 0, 90, 180, 270, 270, 0, 0, 90, 999, 0, 0, 0, 0, 90, 180, 270, 0, 0, 0, 0, 0, 0, 0, 0, 0, 0, 0, 0, 0, 0, 0, 0, 90, 180, 180, 180, 180, 90, 0, 0, 0, 0, 0, 0, 90, 180, 270, 0, 270, 180, 90, 0, 0, 0, 90, 0, 0, 0, 0, 270, 0, 0, 0, 0, 90, 0, 270, 0, 0, 0, 0, 0, 90, 0, 0, 0, 0, 270, 0, 0, 0, 0, 0, 0, 90, 180, 270, 0, 270, 180, 90, 0, 0, 0, 270, 0, 0, 0, 0, 90, 0, 0, 0, 0, 90, 180, 270, 0, 0, 0, 0, 0, 0, 0, 90, 0, 270, 0, 90, 999, 270, 270, 0, 0, 0, 0, 90, 0, 270, 0, 270, 180, 270, 270, 0, 0, 0, 0, 90, 999, 0, 90, -90, 0, 0, 270, 999, 0, 0, 0, 0, 270, 0, 0, 0, 0, 90, 999, 0, 90, 0, 0, 0, 270, 999, 0, 270, 0, 0, 0, 0, 90, 180, 270, 0, 270, 180, 90, 0, 0, 0, 0, 0, 270, 0, 0, 0, 0, 90, 0, 0, 0, 0, 270, 0, 0, 0, 0, 0, 0, 90, 0, 270, 0, 90, 0, 0, 270, 0, 90, 0, 270, 0, 0, 0, 0, 0, 0, 90, 180, 270, 0, 270, 180, 90, 0, 0, 0, 270, 0, 0, 0, 0, 90, 0, 0, 0, 0, 270, 180, 90, 0, 0, 0, 0, 0, 0, 0, 270, 0, 0, 0, 0, 90, 0, 0, 0, 0, 270, 180, 90, 0, 90, 180, 270, 0, 0, 0, 0, 0, 90, 0, 0, 0, 0, 270, 0, 0, 0, 0, 90, 999, 0, 0, 0, 0, 0, 0, 0, 0, 90, 180, 180, 180, 180, 90, 0, 0, 0, 0, 90, 180, 90, 0, 90, 180, 90, 0, 0, 0, 0, 0, 90, 999, 0, 0, 0, 0, 270, 999, 0, 0, 0, 0, 270, 999, 0, 90, 999, 0, 0, 0, 0, 0],
|
|
"settings":
|
|
{
|
|
"version": 9 ,
|
|
"artist": "泠鸢",
|
|
"specialArtistType": "None",
|
|
"artistPermission": "",
|
|
"song": "神的随波逐流",
|
|
"author": "ATLAS",
|
|
"separateCountdownTime": "Enabled",
|
|
"previewImage": "hqdefault.jpg",
|
|
"previewIcon": "",
|
|
"previewIconColor": "003f52",
|
|
"previewSongStart": 0,
|
|
"previewSongDuration": 10,
|
|
"seizureWarning": "Disabled",
|
|
"levelDesc": "说说看你的关卡是什么样的吧!",
|
|
"levelTags": "",
|
|
"artistLinks": "",
|
|
"difficulty": 1,
|
|
"songFilename": "神的随波逐流.ogg",
|
|
"bpm": 135,
|
|
"volume": 100,
|
|
"offset": 500,
|
|
"pitch": 100,
|
|
"hitsound": "Kick",
|
|
"hitsoundVolume": 100,
|
|
"countdownTicks": 4,
|
|
"trackColorType": "Single",
|
|
"trackColor": "debb7b",
|
|
"secondaryTrackColor": "ffffff",
|
|
"trackColorAnimDuration": 2,
|
|
"trackColorPulse": "None",
|
|
"trackPulseLength": 10,
|
|
"trackStyle": "Standard",
|
|
"trackAnimation": "None",
|
|
"beatsAhead": 3,
|
|
"trackDisappearAnimation": "None",
|
|
"beatsBehind": 4,
|
|
"backgroundColor": "000000",
|
|
"showDefaultBGIfNoImage": "Enabled",
|
|
"bgImage": "",
|
|
"bgImageColor": "ffffff",
|
|
"parallax": [100, 100],
|
|
"bgDisplayMode": "FitToScreen",
|
|
"lockRot": "Disabled",
|
|
"loopBG": "Disabled",
|
|
"unscaledSize": 100,
|
|
"relativeTo": "Player",
|
|
"position": [0, 0],
|
|
"rotation": 0,
|
|
"zoom": 100,
|
|
"bgVideo": "",
|
|
"loopVideo": "Disabled",
|
|
"vidOffset": 0,
|
|
"floorIconOutlines": "Disabled",
|
|
"stickToFloors": "Disabled",
|
|
"planetEase": "Linear",
|
|
"planetEaseParts": 1,
|
|
"customClass": "",
|
|
"legacyFlash": false ,
|
|
"legacySpriteTiles": false
|
|
},
|
|
"actions":
|
|
[
|
|
{ "floor": 28, "eventType": "Twirl" },
|
|
{ "floor": 30, "eventType": "Twirl" },
|
|
{ "floor": 40, "eventType": "Twirl" },
|
|
{ "floor": 42, "eventType": "Twirl" },
|
|
{ "floor": 44, "eventType": "Twirl" },
|
|
{ "floor": 46, "eventType": "Twirl" },
|
|
{ "floor": 62, "eventType": "Twirl" },
|
|
{ "floor": 63, "eventType": "Twirl" },
|
|
{ "floor": 64, "eventType": "Twirl" },
|
|
{ "floor": 66, "eventType": "Twirl" },
|
|
{ "floor": 72, "eventType": "ColorTrack", "trackColorType": "Single", "trackColor": "7df625ff", "secondaryTrackColor": "ffffff", "trackColorAnimDuration": 2, "trackColorPulse": "None", "trackPulseLength": 10, "trackStyle": "Standard", "trackTexture": "", "trackTextureScale": 1 },
|
|
{ "floor": 73, "eventType": "ColorTrack", "trackColorType": "Single", "trackColor": "debb7b", "secondaryTrackColor": "ffffff", "trackColorAnimDuration": 2, "trackColorPulse": "None", "trackPulseLength": 10, "trackStyle": "Standard", "trackTexture": "", "trackTextureScale": 1 },
|
|
{ "floor": 103, "eventType": "Twirl" },
|
|
{ "floor": 105, "eventType": "Twirl" },
|
|
{ "floor": 107, "eventType": "Twirl" },
|
|
{ "floor": 115, "eventType": "Twirl" },
|
|
{ "floor": 117, "eventType": "Twirl" },
|
|
{ "floor": 119, "eventType": "Twirl" },
|
|
{ "floor": 156, "eventType": "ColorTrack", "trackColorType": "Single", "trackColor": "e60a44ff", "secondaryTrackColor": "ffffff", "trackColorAnimDuration": 2, "trackColorPulse": "None", "trackPulseLength": 10, "trackStyle": "Standard", "trackTexture": "", "trackTextureScale": 1 },
|
|
{ "floor": 157, "eventType": "ColorTrack", "trackColorType": "Single", "trackColor": "debb7b", "secondaryTrackColor": "ffffff", "trackColorAnimDuration": 2, "trackColorPulse": "None", "trackPulseLength": 10, "trackStyle": "Standard", "trackTexture": "", "trackTextureScale": 1 },
|
|
{ "floor": 189, "eventType": "Pause", "duration": 7, "countdownTicks": 0, "angleCorrectionDir": -1 },
|
|
{ "floor": 189, "eventType": "MoveTrack", "startTile": [0, "Start"], "endTile": [-1, "ThisTile"], "duration": 7, "positionOffset": [0, -7], "angleOffset": 0, "ease": "Linear", "maxVfxOnly": "Disabled", "eventTag": "", },
|
|
{ "floor": 189, "eventType": "MoveTrack", "startTile": [1, "ThisTile"], "endTile": [9, "ThisTile"], "duration": 7, "positionOffset": [0, -7], "angleOffset": 0, "ease": "Linear", "maxVfxOnly": "Disabled", "eventTag": "", },
|
|
{ "floor": 190, "eventType": "PositionTrack", "positionOffset": [0, 7], "rotation": 0, "scale": 100, "opacity": 100, "editorOnly": "Disabled" },
|
|
{ "floor": 199, "eventType": "PositionTrack", "positionOffset": [0, -7], "rotation": 0, "scale": 100, "opacity": 100, "editorOnly": "Disabled" },
|
|
{ "floor": 207, "eventType": "Twirl" },
|
|
{ "floor": 224, "eventType": "MoveTrack", "startTile": [-10, "ThisTile"], "endTile": [-1, "ThisTile"], "duration": 2, "positionOffset": [-2, 0], "angleOffset": 0, "ease": "Linear", "maxVfxOnly": "Disabled", "eventTag": "", },
|
|
{ "floor": 224, "eventType": "Pause", "duration": 2, "countdownTicks": 0, "angleCorrectionDir": -1 },
|
|
{ "floor": 224, "eventType": "MoveTrack", "startTile": [1, "ThisTile"], "endTile": [0, "End"], "duration": 2, "positionOffset": [-2, 0], "angleOffset": 0, "ease": "Linear", "maxVfxOnly": "Disabled", "eventTag": "", },
|
|
{ "floor": 224, "eventType": "Twirl" },
|
|
{ "floor": 225, "eventType": "PositionTrack", "positionOffset": [2, 0], "rotation": 0, "scale": 100, "opacity": 100, "editorOnly": "Disabled" },
|
|
{ "floor": 241, "eventType": "Twirl" },
|
|
{ "floor": 245, "eventType": "Twirl" },
|
|
{ "floor": 248, "eventType": "Twirl" },
|
|
{ "floor": 253, "eventType": "Twirl" },
|
|
{ "floor": 262, "eventType": "Pause", "duration": 4, "countdownTicks": 0, "angleCorrectionDir": -1 },
|
|
{ "floor": 262, "eventType": "MoveTrack", "startTile": [1, "ThisTile"], "endTile": [0, "End"], "duration": 4, "positionOffset": [-10, 0], "angleOffset": 0, "ease": "Linear", "maxVfxOnly": "Disabled", "eventTag": "", },
|
|
{ "floor": 263, "eventType": "PositionTrack", "positionOffset": [8, 0], "rotation": 0, "scale": 100, "opacity": 100, "editorOnly": "Disabled" },
|
|
{ "floor": 294, "eventType": "Twirl" },
|
|
{ "floor": 296, "eventType": "Twirl" },
|
|
{ "floor": 298, "eventType": "Twirl" },
|
|
{ "floor": 301, "eventType": "Twirl" },
|
|
{ "floor": 303, "eventType": "Twirl" },
|
|
{ "floor": 305, "eventType": "Twirl" },
|
|
{ "floor": 308, "eventType": "ColorTrack", "trackColorType": "Single", "trackColor": "3b3ddbff", "secondaryTrackColor": "ffffff", "trackColorAnimDuration": 2, "trackColorPulse": "None", "trackPulseLength": 10, "trackStyle": "Standard", "trackTexture": "", "trackTextureScale": 1 },
|
|
{ "floor": 309, "eventType": "ColorTrack", "trackColorType": "Single", "trackColor": "debb7b", "secondaryTrackColor": "ffffff", "trackColorAnimDuration": 2, "trackColorPulse": "None", "trackPulseLength": 10, "trackStyle": "Standard", "trackTexture": "", "trackTextureScale": 1 },
|
|
{ "floor": 337, "eventType": "Twirl" },
|
|
{ "floor": 338, "eventType": "Twirl" },
|
|
{ "floor": 342, "eventType": "Twirl" },
|
|
{ "floor": 345, "eventType": "Twirl" },
|
|
{ "floor": 385, "eventType": "Pause", "duration": 7, "countdownTicks": 0, "angleCorrectionDir": -1 },
|
|
{ "floor": 385, "eventType": "MoveTrack", "startTile": [-9, "ThisTile"], "endTile": [-1, "ThisTile"], "duration": 7, "positionOffset": [0, -7], "angleOffset": 0, "ease": "Linear", "maxVfxOnly": "Disabled", "eventTag": "", },
|
|
{ "floor": 385, "eventType": "MoveTrack", "startTile": [1, "ThisTile"], "endTile": [0, "End"], "duration": 7, "positionOffset": [-2, -7], "angleOffset": 0, "ease": "Linear", "maxVfxOnly": "Disabled", "eventTag": "", },
|
|
{ "floor": 386, "eventType": "PositionTrack", "positionOffset": [-8, 7], "rotation": 0, "scale": 100, "opacity": 100, "editorOnly": "Disabled" },
|
|
{ "floor": 394, "eventType": "Twirl" },
|
|
{ "floor": 396, "eventType": "Twirl" },
|
|
{ "floor": 405, "eventType": "Twirl" },
|
|
{ "floor": 409, "eventType": "Twirl" },
|
|
{ "floor": 412, "eventType": "Twirl" },
|
|
{ "floor": 417, "eventType": "Twirl" },
|
|
{ "floor": 422, "eventType": "Twirl" },
|
|
{ "floor": 424, "eventType": "Twirl" },
|
|
{ "floor": 426, "eventType": "Pause", "duration": 2, "countdownTicks": 0, "angleCorrectionDir": -1 },
|
|
{ "floor": 426, "eventType": "MoveTrack", "startTile": [1, "ThisTile"], "endTile": [0, "End"], "duration": 2, "positionOffset": [0, 0], "angleOffset": 0, "ease": "Linear", "maxVfxOnly": "Disabled", "eventTag": "", },
|
|
{ "floor": 427, "eventType": "PositionTrack", "positionOffset": [-2, -7], "rotation": 0, "scale": 100, "opacity": 100, "editorOnly": "Disabled" },
|
|
{ "floor": 430, "eventType": "Twirl" },
|
|
{ "floor": 435, "eventType": "Twirl" },
|
|
{ "floor": 445, "eventType": "Twirl" },
|
|
{ "floor": 452, "eventType": "Twirl" },
|
|
{ "floor": 457, "eventType": "Twirl" },
|
|
{ "floor": 458, "eventType": "Twirl" },
|
|
{ "floor": 472, "eventType": "Twirl" },
|
|
{ "floor": 474, "eventType": "Twirl" },
|
|
{ "floor": 484, "eventType": "Twirl" },
|
|
{ "floor": 486, "eventType": "Twirl" },
|
|
{ "floor": 487, "eventType": "Twirl" },
|
|
{ "floor": 489, "eventType": "Twirl" },
|
|
{ "floor": 499, "eventType": "SetSpeed", "speedType": "Multiplier", "beatsPerMinute": 100, "bpmMultiplier": 1.333333 },
|
|
{ "floor": 500, "eventType": "SetSpeed", "speedType": "Multiplier", "beatsPerMinute": 100, "bpmMultiplier": 0.75 },
|
|
{ "floor": 501, "eventType": "Twirl" },
|
|
{ "floor": 507, "eventType": "Pause", "duration": 4, "countdownTicks": 0, "angleCorrectionDir": -1 },
|
|
{ "floor": 507, "eventType": "MoveTrack", "startTile": [1, "ThisTile"], "endTile": [0, "End"], "duration": 4, "positionOffset": [-4, 0], "angleOffset": 0, "ease": "Linear", "maxVfxOnly": "Disabled", "eventTag": "", },
|
|
{ "floor": 508, "eventType": "PositionTrack", "positionOffset": [4, 0], "rotation": 0, "scale": 100, "opacity": 100, "editorOnly": "Disabled" },
|
|
{ "floor": 509, "eventType": "Twirl" },
|
|
{ "floor": 510, "eventType": "Pause", "duration": 6.5, "countdownTicks": 0, "angleCorrectionDir": -1 },
|
|
{ "floor": 510, "eventType": "MoveTrack", "startTile": [1, "ThisTile"], "endTile": [0, "End"], "duration": 7, "positionOffset": [-4, -4], "angleOffset": 0, "ease": "Linear", "maxVfxOnly": "Disabled", "eventTag": "", },
|
|
{ "floor": 511, "eventType": "PositionTrack", "positionOffset": [0, 4], "rotation": 0, "scale": 100, "opacity": 100, "editorOnly": "Disabled" },
|
|
{ "floor": 517, "eventType": "Twirl" },
|
|
{ "floor": 524, "eventType": "Twirl" },
|
|
{ "floor": 532, "eventType": "Twirl" },
|
|
{ "floor": 541, "eventType": "Twirl" },
|
|
{ "floor": 546, "eventType": "Twirl" },
|
|
{ "floor": 551, "eventType": "Twirl" },
|
|
{ "floor": 558, "eventType": "Twirl" },
|
|
{ "floor": 560, "eventType": "Twirl" },
|
|
{ "floor": 562, "eventType": "Twirl" },
|
|
{ "floor": 565, "eventType": "Twirl" },
|
|
{ "floor": 567, "eventType": "Twirl" },
|
|
{ "floor": 569, "eventType": "Twirl" },
|
|
{ "floor": 579, "eventType": "Twirl" },
|
|
{ "floor": 586, "eventType": "Twirl" },
|
|
{ "floor": 591, "eventType": "Twirl" },
|
|
{ "floor": 606, "eventType": "Twirl" },
|
|
{ "floor": 611, "eventType": "Twirl" },
|
|
{ "floor": 619, "eventType": "Twirl" },
|
|
{ "floor": 628, "eventType": "Twirl" },
|
|
{ "floor": 633, "eventType": "Twirl" },
|
|
{ "floor": 652, "eventType": "Twirl" },
|
|
{ "floor": 654, "eventType": "Twirl" },
|
|
{ "floor": 659, "eventType": "Twirl" },
|
|
{ "floor": 661, "eventType": "Twirl" },
|
|
{ "floor": 663, "eventType": "Twirl" },
|
|
{ "floor": 665, "eventType": "Twirl" },
|
|
{ "floor": 673, "eventType": "Twirl" },
|
|
{ "floor": 684, "eventType": "Twirl" }
|
|
]
|
|
"decorations":
|
|
[
|
|
]
|
|
}
|