137 lines
8.8 KiB
Plaintext
137 lines
8.8 KiB
Plaintext
{
|
|
"angleData": [0, 90, 999, 0, 0, 0, 90, 999, 0, 90, 999, 0, 0, 0, 90, 999, 0, 90, 999, 0, 0, 0, 90, 999, 0, 90, 90, 999, 0, 0, 90, 999, 0, 90, 999, 0, 0, 0, 90, 999, 0, 90, 999, 0, 0, 0, 90, 999, 0, 90, 999, 0, 0, 0, 90, 999, 0, 90, 90, 999, 0, 0, 90, 999, 0, 90, 999, 0, 0, 0, 90, 999, 0, 90, 999, 0, 0, 0, 90, 999, 0, 90, 999, 0, 0, 0, 90, 999, 0, 90, 90, 999, 0, 0, 90, 999, 0, 90, 999, 0, 0, 0, 90, 90, 90, 999, 0, 90, 999, 0, 0, 90, 999, 0, 0, 0, 90, 999, 0, 0, 0, 0, 0, 90, 999, 0, 90, 999, 0, 0, 0, 90, 999, 0, 90, 999, 0, 0, 0, 90, 999, 0, 90, 999, 0, 90, 999, 0, 0, 90, 999, 0, 90, 999, 0, 0, 0, 90, 999, 0, 90, 999, 0, 0, 0, 90, 999, 0, 90, 999, 0, 0, 0, 90, 999, 0, 90, 999, 0, 90, 999, 0, 0, 90, 999, 0, 90, 999, 0, 0, 0, 135, 999, 90, 999, 0, 225, 999, 270, 999, 0, 135, 999, 90, 999, 0, 135, 999, 90, 999, 0, 135, 999, 90, 999, 0, 225, 999, 270, 999, 0, 135, 999, 90, 999, 0, 135, 999, 90, 999, 0, 135, 999, 90, 999, 0, 225, 999, 270, 999, 0, 135, 999, 90, 999, 0, 135, 999, 90, 999, 0, 135, 999, 90, 999, 0, 225, 999, 270, 999, 0, 135, 999, 90, 999, 0, 135, 999, 90, 999, 0, 135, 999, 90, 999, 0, 225, 999, 270, 999, 0, 135, 999, 90, 999, 0, 135, 999, 90, 999, 0, 135, 999, 90, 999, 0, 225, 999, 270, 999, 0, 135, 999, 90, 999, 0, 135, 999, 90, 999, 0, 135, 999, 90, 999, 0, 225, 999, 270, 999, 0, 135, 999, 90, 999, 0, 135, 999, 90, 999, 0, 0, 0, 0, 0, 0, 0, 0, 0, 0, 0, 0, 0, 90, 999, 0, 90, 999, 0, 90, 999, 0, 90, 999, 0, 90, 999, 0, 90, 999, 0, 90, 999, 0, 90, 999, 0, 0, 0, 0, 0, 0, 0, 0, 0, 90, 999, 0, 90, 999, 0, 90, 999, 0, 90, 999, 0, 90, 999, 0, 90, 999, 0, 90, 999, 0, 90, 999, 0, 0, 0, 0, 0, 0, 0, 0, 0, 90, 999, 0, 90, 999, 0, 90, 999, 0, 90, 999, 0, 90, 999, 0, 90, 999, 0, 90, 999, 0, 90, 999, 0, 0, 0, 0, 0, 90, 999, 0, 90, 999, 0, 0, 90, 999, 0, 90, 999, 0, 90, 999, 0, 90, 999, 0, 90, 999, 0, 90, 999, 0, 225, 999, 270, 999, 315, 999, 0, 135, 999, 90, 999, 45, 999, 0, 225, 999, 270, 999, 315, 999, 0, 135, 999, 90, 999, 45, 999, 0, 270, 999, 0, 270, 999, 0, 90, 999, 0, 90, 999, 0, 225, 999, 270, 999, 315, 999, 0, 135, 999, 90, 999, 45, 999, 0, 0, 0, 90, 999, 0, 0, 90, 999, 0, 0, 90, 999, 0, 90, 999, 0, 0, 90, 999, 0, 0, 0, 0, 90, 999, 0, 0, 90, 999, 0, 0, 90, 999, 0, 90, 999, 0, 0, 90, 999, 0, 90, 999, 0, 0, 90, 999, 0, 0, 90, 999, 0, 0, 0, 90, 90, 90, 999, 0, 90, 999, 0, 0, 90, 999, 0, 0, 0, 90, 90, 90, 999, 0, 90, 999, 0, 90, 999, 0, 90, 999, 0, 0, 0, 90, 90, 90, 999, 0, 90, 999, 0, 0, 90, 999, 0, 0, 0, 90, 90, 90, 999, 0, 90, 999, 0, 90, 999, 0, 90, 999, 0, 0, 0, 90, 999, 0, 90, 999, 0, 0, 0, 90, 999, 0, 90, 999, 0, 0, 0, 90, 999, 0, 90, 999, 0, 0, 0, 90, 999, 0, 90, 999, 0, 0, 90, 999, 0, 0, 90, 999, 0, 0, 90, 999, 0, 0, 90, 999, 0, 90, 999, 0, 90, 999, 0, 90, 999, 0, 0, 0, 0, 0, 90, 999, 0, 0, 0, 90, 90, 90, 999, 0, 90, 999, 0, 0, 90, 999, 0, 0, 0, 90, 90, 90, 999, 0, 90, 999, 0, 90, 999, 0, 90, 999, 0, 0, 0, 90, 90, 90, 999, 0, 90, 999, 0, 0, 90, 999, 0, 0, 0, 90, 90, 90, 999, 0, 0, 0, 0, 0, 0, 0, 0, 0, 0, 0, 90, 999, 0, 90, 999, 0, 90, 999, 0, 90, 999, 0, 90, 999, 0, 90, 999, 0, 90, 999, 0, 90, 999, 0, 0, 0, 0, 0, 0, 0, 0, 0, 90, 999, 0, 90, 999, 0, 90, 999, 0, 90, 999, 0, 0, 0, 0, 0],
|
|
"settings":
|
|
{
|
|
"version": 13 ,
|
|
"artist": "",
|
|
"specialArtistType": "None",
|
|
"artistPermission": "",
|
|
"song": "",
|
|
"author": "",
|
|
"separateCountdownTime": true,
|
|
"previewImage": "",
|
|
"previewIcon": "",
|
|
"previewIconColor": "003f52",
|
|
"previewSongStart": 0,
|
|
"previewSongDuration": 10,
|
|
"seizureWarning": false,
|
|
"levelDesc": "",
|
|
"levelTags": "",
|
|
"artistLinks": "",
|
|
"speedTrialAim": 0,
|
|
"difficulty": 1,
|
|
"requiredMods": [],
|
|
"songFilename": "spark.ogg",
|
|
"bpm": 175,
|
|
"volume": 100,
|
|
"offset": 1308,
|
|
"pitch": 100,
|
|
"hitsound": "Kick",
|
|
"hitsoundVolume": 100,
|
|
"countdownTicks": 4,
|
|
"trackColorType": "Single",
|
|
"trackColor": "debb7b",
|
|
"secondaryTrackColor": "ffffff",
|
|
"trackColorAnimDuration": 2,
|
|
"trackColorPulse": "None",
|
|
"trackPulseLength": 10,
|
|
"trackStyle": "Standard",
|
|
"trackTexture": "",
|
|
"trackTextureScale": 1,
|
|
"trackGlowIntensity": 100,
|
|
"trackAnimation": "None",
|
|
"beatsAhead": 3,
|
|
"trackDisappearAnimation": "None",
|
|
"beatsBehind": 4,
|
|
"backgroundColor": "000000",
|
|
"showDefaultBGIfNoImage": true,
|
|
"showDefaultBGTile": true,
|
|
"defaultBGTileColor": "101121",
|
|
"defaultBGShapeType": "Default",
|
|
"defaultBGShapeColor": "ffffff",
|
|
"bgImage": "",
|
|
"bgImageColor": "ffffff",
|
|
"parallax": [100, 100],
|
|
"bgDisplayMode": "FitToScreen",
|
|
"imageSmoothing": true,
|
|
"lockRot": false,
|
|
"loopBG": false,
|
|
"scalingRatio": 100,
|
|
"relativeTo": "Player",
|
|
"position": [0, 0],
|
|
"rotation": 0,
|
|
"zoom": 100,
|
|
"pulseOnFloor": true,
|
|
"startCamLowVFX": false,
|
|
"bgVideo": "",
|
|
"loopVideo": false,
|
|
"vidOffset": 0,
|
|
"floorIconOutlines": false,
|
|
"stickToFloors": true,
|
|
"planetEase": "Linear",
|
|
"planetEaseParts": 1,
|
|
"planetEasePartBehavior": "Mirror",
|
|
"customClass": "",
|
|
"defaultTextColor": "ffffff",
|
|
"defaultTextShadowColor": "00000050",
|
|
"congratsText": "",
|
|
"perfectText": "",
|
|
"legacyFlash": false ,
|
|
"legacyCamRelativeTo": false ,
|
|
"legacySpriteTiles": false
|
|
},
|
|
"actions":
|
|
[
|
|
{ "floor": 123, "eventType": "Checkpoint", "tileOffset": 0 },
|
|
{ "floor": 190, "eventType": "Checkpoint", "tileOffset": 0 },
|
|
{ "floor": 196, "eventType": "Twirl" },
|
|
{ "floor": 201, "eventType": "Twirl" },
|
|
{ "floor": 216, "eventType": "Twirl" },
|
|
{ "floor": 221, "eventType": "Twirl" },
|
|
{ "floor": 236, "eventType": "Twirl" },
|
|
{ "floor": 241, "eventType": "Twirl" },
|
|
{ "floor": 256, "eventType": "Twirl" },
|
|
{ "floor": 261, "eventType": "Twirl" },
|
|
{ "floor": 276, "eventType": "Twirl" },
|
|
{ "floor": 281, "eventType": "Twirl" },
|
|
{ "floor": 296, "eventType": "Twirl" },
|
|
{ "floor": 301, "eventType": "Twirl" },
|
|
{ "floor": 316, "eventType": "Twirl" },
|
|
{ "floor": 321, "eventType": "Twirl" },
|
|
{ "floor": 335, "eventType": "Checkpoint", "tileOffset": 0 },
|
|
{ "floor": 367, "eventType": "Checkpoint", "tileOffset": 0 },
|
|
{ "floor": 435, "eventType": "SetSpeed", "speedType": "Multiplier", "beatsPerMinute": 100, "bpmMultiplier": 0.5, "angleOffset": 0 },
|
|
{ "floor": 441, "eventType": "SetSpeed", "speedType": "Multiplier", "beatsPerMinute": 100, "bpmMultiplier": 0.5, "angleOffset": 0 },
|
|
{ "floor": 442, "eventType": "SetSpeed", "speedType": "Multiplier", "beatsPerMinute": 100, "bpmMultiplier": 2, "angleOffset": 0 },
|
|
{ "floor": 448, "eventType": "Checkpoint", "tileOffset": 0 },
|
|
{ "floor": 460, "eventType": "Twirl" },
|
|
{ "floor": 467, "eventType": "Twirl" },
|
|
{ "floor": 474, "eventType": "Twirl" },
|
|
{ "floor": 481, "eventType": "Twirl" },
|
|
{ "floor": 488, "eventType": "Twirl" },
|
|
{ "floor": 494, "eventType": "Twirl" },
|
|
{ "floor": 500, "eventType": "Twirl" },
|
|
{ "floor": 507, "eventType": "Twirl" },
|
|
{ "floor": 514, "eventType": "SetSpeed", "speedType": "Multiplier", "beatsPerMinute": 100, "bpmMultiplier": 0.5, "angleOffset": 0 },
|
|
{ "floor": 515, "eventType": "SetSpeed", "speedType": "Multiplier", "beatsPerMinute": 100, "bpmMultiplier": 2, "angleOffset": 0 },
|
|
{ "floor": 523, "eventType": "SetSpeed", "speedType": "Multiplier", "beatsPerMinute": 100, "bpmMultiplier": 0.5, "angleOffset": 0 },
|
|
{ "floor": 524, "eventType": "SetSpeed", "speedType": "Multiplier", "beatsPerMinute": 100, "bpmMultiplier": 2, "angleOffset": 0 },
|
|
{ "floor": 530, "eventType": "SetSpeed", "speedType": "Multiplier", "beatsPerMinute": 100, "bpmMultiplier": 0.5, "angleOffset": 0 },
|
|
{ "floor": 531, "eventType": "SetSpeed", "speedType": "Multiplier", "beatsPerMinute": 100, "bpmMultiplier": 2, "angleOffset": 0 },
|
|
{ "floor": 535, "eventType": "SetSpeed", "speedType": "Multiplier", "beatsPerMinute": 100, "bpmMultiplier": 0.25, "angleOffset": 0 },
|
|
{ "floor": 536, "eventType": "SetSpeed", "speedType": "Multiplier", "beatsPerMinute": 100, "bpmMultiplier": 4, "angleOffset": 0 },
|
|
{ "floor": 544, "eventType": "SetSpeed", "speedType": "Multiplier", "beatsPerMinute": 100, "bpmMultiplier": 0.5, "angleOffset": 0 },
|
|
{ "floor": 545, "eventType": "SetSpeed", "speedType": "Multiplier", "beatsPerMinute": 100, "bpmMultiplier": 2, "angleOffset": 0 },
|
|
{ "floor": 551, "eventType": "SetSpeed", "speedType": "Multiplier", "beatsPerMinute": 100, "bpmMultiplier": 0.5, "angleOffset": 0 },
|
|
{ "floor": 552, "eventType": "SetSpeed", "speedType": "Multiplier", "beatsPerMinute": 100, "bpmMultiplier": 2, "angleOffset": 0 },
|
|
{ "floor": 558, "eventType": "SetSpeed", "speedType": "Multiplier", "beatsPerMinute": 100, "bpmMultiplier": 0.5, "angleOffset": 0 },
|
|
{ "floor": 559, "eventType": "SetSpeed", "speedType": "Multiplier", "beatsPerMinute": 100, "bpmMultiplier": 2, "angleOffset": 0 },
|
|
{ "floor": 563, "eventType": "SetSpeed", "speedType": "Multiplier", "beatsPerMinute": 100, "bpmMultiplier": 2, "angleOffset": 0 },
|
|
{ "floor": 687, "eventType": "Checkpoint", "tileOffset": 0 },
|
|
{ "floor": 743, "eventType": "Checkpoint", "tileOffset": 0 }
|
|
],
|
|
"decorations":
|
|
[
|
|
]
|
|
}
|