six/six.adofai

149 lines
5.8 KiB
Plaintext

{
"angleData": [0, 90, 999, 0, 0, 90, 999, 0, 0, 90, 0, 270, 0, 90, 0, 0, 0, 0, 0, 0, 0, 0, 315, 999, 0, 90, 0, 90, 180, 999, 0, 135, 0, 135, 0, 90, 0, 270, 0, 0, 135, 0, 135, 0, 90, 0, 270, 0, 0, 135, 0, 135, 0, 90, 0, 90, 0, 135, 0, 135, 0, 0, 270, 0, 90, 0, 90, 0, 135, 0, 135, 0, 90, 0, 270, 0, 90, 0, 135, 0, 135, 0, 90, 0, 135, 0, 135, 0, 90, 315, 90, 315, 90, 0, 135, 0, 135, 0, 90, 315, 90, 315, 90, 0, 0, 0, 0, 270, 0, 0, 90, 0, 0, 270, 0, 0, 90, 0, 90, 0, 0, 0, 0, 0],
"settings":
{
"version": 9 ,
"artist": "ia",
"specialArtistType": "None",
"artistPermission": "",
"song": "六兆年と一夜物語",
"author": "tls",
"separateCountdownTime": "Enabled",
"previewImage": "ia.jpg",
"previewIcon": "",
"previewIconColor": "003f52",
"previewSongStart": 0,
"previewSongDuration": 10,
"seizureWarning": "Disabled",
"levelDesc": "说说看你的关卡是什么样的吧!",
"levelTags": "",
"artistLinks": "",
"difficulty": 1,
"songFilename": "six-year.wav",
"bpm": 82,
"volume": 70,
"offset": 455,
"pitch": 100,
"hitsound": "Kick",
"hitsoundVolume": 100,
"countdownTicks": 4,
"trackColorType": "Single",
"trackColor": "debb7b",
"secondaryTrackColor": "ffffff",
"trackColorAnimDuration": 2,
"trackColorPulse": "None",
"trackPulseLength": 10,
"trackStyle": "Standard",
"trackAnimation": "None",
"beatsAhead": 3,
"trackDisappearAnimation": "None",
"beatsBehind": 4,
"backgroundColor": "000000",
"showDefaultBGIfNoImage": "Enabled",
"bgImage": "",
"bgImageColor": "ffffff",
"parallax": [100, 100],
"bgDisplayMode": "FitToScreen",
"lockRot": "Disabled",
"loopBG": "Disabled",
"unscaledSize": 100,
"relativeTo": "Player",
"position": [0, 0],
"rotation": 0,
"zoom": 100,
"bgVideo": "",
"loopVideo": "Disabled",
"vidOffset": 0,
"floorIconOutlines": "Disabled",
"stickToFloors": "Disabled",
"planetEase": "Linear",
"planetEaseParts": 1,
"customClass": "",
"legacyFlash": false ,
"legacySpriteTiles": false
},
"actions":
[
{ "floor": 9, "eventType": "SetSpeed", "speedType": "Bpm", "beatsPerMinute": 78, "bpmMultiplier": 1 },
{ "floor": 10, "eventType": "Twirl" },
{ "floor": 12, "eventType": "Twirl" },
{ "floor": 14, "eventType": "Twirl" },
{ "floor": 14, "eventType": "SetSpeed", "speedType": "Bpm", "beatsPerMinute": 70, "bpmMultiplier": 1 },
{ "floor": 16, "eventType": "SetSpeed", "speedType": "Bpm", "beatsPerMinute": 156, "bpmMultiplier": 2 },
{ "floor": 22, "eventType": "SetSpeed", "speedType": "Bpm", "beatsPerMinute": 72, "bpmMultiplier": 1 },
{ "floor": 25, "eventType": "Twirl" },
{ "floor": 26, "eventType": "Pause", "duration": 2, "countdownTicks": 0, "angleCorrectionDir": -1 },
{ "floor": 26, "eventType": "AnimateTrack", "trackAnimation": "Assemble", "beatsAhead": 1, "trackDisappearAnimation": "None", "beatsBehind": 4 },
{ "floor": 27, "eventType": "SetSpeed", "speedType": "Bpm", "beatsPerMinute": 186, "bpmMultiplier": 1 },
{ "floor": 28, "eventType": "AnimateTrack", "trackAnimation": "None", "beatsAhead": 3, "trackDisappearAnimation": "None", "beatsBehind": 4 },
{ "floor": 32, "eventType": "Twirl" },
{ "floor": 33, "eventType": "Twirl" },
{ "floor": 34, "eventType": "Twirl" },
{ "floor": 35, "eventType": "Twirl" },
{ "floor": 36, "eventType": "Twirl" },
{ "floor": 38, "eventType": "Twirl" },
{ "floor": 41, "eventType": "Twirl" },
{ "floor": 42, "eventType": "Twirl" },
{ "floor": 43, "eventType": "Twirl" },
{ "floor": 44, "eventType": "Twirl" },
{ "floor": 45, "eventType": "Twirl" },
{ "floor": 47, "eventType": "Twirl" },
{ "floor": 50, "eventType": "Twirl" },
{ "floor": 51, "eventType": "Twirl" },
{ "floor": 52, "eventType": "Twirl" },
{ "floor": 53, "eventType": "Twirl" },
{ "floor": 54, "eventType": "Twirl" },
{ "floor": 55, "eventType": "Twirl" },
{ "floor": 56, "eventType": "Twirl" },
{ "floor": 57, "eventType": "Twirl" },
{ "floor": 58, "eventType": "Twirl" },
{ "floor": 59, "eventType": "Twirl" },
{ "floor": 60, "eventType": "Twirl" },
{ "floor": 63, "eventType": "Twirl" },
{ "floor": 65, "eventType": "Twirl" },
{ "floor": 66, "eventType": "Twirl" },
{ "floor": 67, "eventType": "Twirl" },
{ "floor": 68, "eventType": "Twirl" },
{ "floor": 69, "eventType": "Twirl" },
{ "floor": 70, "eventType": "Twirl" },
{ "floor": 71, "eventType": "Twirl" },
{ "floor": 72, "eventType": "Twirl" },
{ "floor": 73, "eventType": "Twirl" },
{ "floor": 75, "eventType": "Twirl" },
{ "floor": 77, "eventType": "Twirl" },
{ "floor": 78, "eventType": "Twirl" },
{ "floor": 79, "eventType": "Twirl" },
{ "floor": 80, "eventType": "Twirl" },
{ "floor": 81, "eventType": "Twirl" },
{ "floor": 82, "eventType": "Twirl" },
{ "floor": 83, "eventType": "Twirl" },
{ "floor": 84, "eventType": "Twirl" },
{ "floor": 85, "eventType": "Twirl" },
{ "floor": 86, "eventType": "Twirl" },
{ "floor": 87, "eventType": "Twirl" },
{ "floor": 88, "eventType": "Twirl" },
{ "floor": 89, "eventType": "Twirl" },
{ "floor": 90, "eventType": "Twirl" },
{ "floor": 91, "eventType": "Twirl" },
{ "floor": 92, "eventType": "Twirl" },
{ "floor": 93, "eventType": "Twirl" },
{ "floor": 94, "eventType": "Twirl" },
{ "floor": 95, "eventType": "Twirl" },
{ "floor": 96, "eventType": "Twirl" },
{ "floor": 97, "eventType": "Twirl" },
{ "floor": 98, "eventType": "Twirl" },
{ "floor": 99, "eventType": "Twirl" },
{ "floor": 100, "eventType": "Twirl" },
{ "floor": 101, "eventType": "Twirl" },
{ "floor": 102, "eventType": "Twirl" },
{ "floor": 103, "eventType": "Twirl" },
{ "floor": 108, "eventType": "Twirl" },
{ "floor": 111, "eventType": "Twirl" },
{ "floor": 114, "eventType": "Twirl" },
{ "floor": 117, "eventType": "Twirl" }
]
"decorations":
[
]
}