adofai-miku-woxianglashi/lashi.adofai

97 lines
4.9 KiB
Plaintext

{
"angleData": [0, 90, 999, 0, 90, 999, 0, 90, 999, 0, 90, 999, 0, 90, 999, 0, 90, 999, 0, 90, 999, 0, 90, 999, 0, 90, 999, 0, 90, 999, 0, 90, 999, 0, 90, 999, 0, 90, 999, 0, 90, 999, 0, 90, 90, 90, 180, 999, 90, 180, 999, 90, 180, 999, 90, 90, 180, 999, 90, 180, 999, 90, 180, 999, 90, 90, 180, 999, 90, 180, 999, 90, 180, 999, 90, 90, 180, 999, 90, 180, 999, 90, 180, 999, 90, 180, 999, 90, 180, 999, 90, 90, 180, 999, 90, 90, 180, 999, 90, 90, 180, 999, 90, 0, 0, 90, 999, 0, 90, 999, 0, 90, 999, 0, 90, 315, 315, 45, 999, 315, 45, 45, 135, 999, 45, 45, 45, 315, 45, 999, 315, 180, 270, 0, 999, 270, 0, 0, 0, 270, 0, 90, 90, 0, 270, 0, 90, 90, 135, 135, 135, 45, 45, 315, 999, 45, 45, 45, 135, 45, 315, 90, 0, 270, 0, 90, 90, 90, 0, 90, 90, 180, 999, 90, 180, 999, 90, 180, 180],
"settings":
{
"version": 11 ,
"artist": "",
"specialArtistType": "None",
"artistPermission": "",
"song": "我想拉屎",
"author": "tls",
"separateCountdownTime": "Enabled",
"previewImage": "",
"previewIcon": "",
"previewIconColor": "003f52",
"previewSongStart": 0,
"previewSongDuration": 10,
"seizureWarning": "Disabled",
"levelDesc": "",
"levelTags": "",
"artistLinks": "",
"difficulty": 1,
"songFilename": "woxianglashi.wav",
"bpm": 185,
"volume": 100,
"offset": 228,
"pitch": 100,
"hitsound": "Kick",
"hitsoundVolume": 100,
"countdownTicks": 4,
"trackColorType": "Single",
"trackColor": "debb7b",
"secondaryTrackColor": "ffffff",
"trackColorAnimDuration": 2,
"trackColorPulse": "None",
"trackPulseLength": 10,
"trackStyle": "Standard",
"trackAnimation": "None",
"beatsAhead": 3,
"trackDisappearAnimation": "None",
"beatsBehind": 4,
"backgroundColor": "000000",
"showDefaultBGIfNoImage": "Enabled",
"bgImage": "",
"bgImageColor": "ffffff",
"parallax": [100, 100],
"bgDisplayMode": "FitToScreen",
"lockRot": "Disabled",
"loopBG": "Disabled",
"unscaledSize": 100,
"relativeTo": "Player",
"position": [0, 0],
"rotation": 0,
"zoom": 100,
"bgVideo": "mov.mov",
"loopVideo": "Disabled",
"vidOffset": 1600,
"floorIconOutlines": "Disabled",
"stickToFloors": "Enabled",
"planetEase": "Linear",
"planetEaseParts": 1,
"planetEasePartBehavior": "Mirror",
"customClass": "",
"legacyFlash": false ,
"legacyCamRelativeTo": false ,
"legacySpriteTiles": false
},
"actions":
[
{ "floor": 115, "eventType": "SetSpeed", "speedType": "Multiplier", "beatsPerMinute": 100, "bpmMultiplier": 0.5 },
{ "floor": 116, "eventType": "SetSpeed", "speedType": "Multiplier", "beatsPerMinute": 100, "bpmMultiplier": 2 },
{ "floor": 127, "eventType": "SetSpeed", "speedType": "Multiplier", "beatsPerMinute": 100, "bpmMultiplier": 0.5 },
{ "floor": 128, "eventType": "SetSpeed", "speedType": "Multiplier", "beatsPerMinute": 100, "bpmMultiplier": 2 },
{ "floor": 131, "eventType": "SetSpeed", "speedType": "Multiplier", "beatsPerMinute": 100, "bpmMultiplier": 0.5 },
{ "floor": 133, "eventType": "SetSpeed", "speedType": "Multiplier", "beatsPerMinute": 100, "bpmMultiplier": 2 },
{ "floor": 139, "eventType": "SetSpeed", "speedType": "Multiplier", "beatsPerMinute": 100, "bpmMultiplier": 0.5 },
{ "floor": 140, "eventType": "SetSpeed", "speedType": "Multiplier", "beatsPerMinute": 100, "bpmMultiplier": 2 },
{ "floor": 143, "eventType": "Twirl" },
{ "floor": 145, "eventType": "Twirl" },
{ "floor": 148, "eventType": "SetSpeed", "speedType": "Multiplier", "beatsPerMinute": 100, "bpmMultiplier": 0.5 },
{ "floor": 148, "eventType": "Pause", "duration": 2, "countdownTicks": 0, "angleCorrectionDir": -1 },
{ "floor": 148, "eventType": "MoveTrack", "startTile": [0, "ThisTile"], "endTile": [0, "ThisTile"], "gapLength": 0, "duration": 2, "positionOffset": [0, 2], "angleOffset": 0, "ease": "Linear", "maxVfxOnly": "Disabled", "eventTag": "", },
{ "floor": 149, "eventType": "SetSpeed", "speedType": "Multiplier", "beatsPerMinute": 100, "bpmMultiplier": 2 },
{ "floor": 149, "eventType": "PositionTrack", "positionOffset": [0, 2], "relativeTo": [0, "ThisTile"], "rotation": 0, "scale": 100, "opacity": 100, "justThisTile": "Disabled", "editorOnly": "Disabled" },
{ "floor": 151, "eventType": "Twirl" },
{ "floor": 158, "eventType": "SetSpeed", "speedType": "Multiplier", "beatsPerMinute": 100, "bpmMultiplier": 0.5 },
{ "floor": 159, "eventType": "SetSpeed", "speedType": "Multiplier", "beatsPerMinute": 100, "bpmMultiplier": 2 },
{ "floor": 161, "eventType": "SetSpeed", "speedType": "Multiplier", "beatsPerMinute": 100, "bpmMultiplier": 0.5 },
{ "floor": 163, "eventType": "SetSpeed", "speedType": "Multiplier", "beatsPerMinute": 100, "bpmMultiplier": 2 },
{ "floor": 164, "eventType": "Twirl" },
{ "floor": 168, "eventType": "SetSpeed", "speedType": "Multiplier", "beatsPerMinute": 100, "bpmMultiplier": 0.5 },
{ "floor": 169, "eventType": "SetSpeed", "speedType": "Multiplier", "beatsPerMinute": 100, "bpmMultiplier": 2 }
]
"decorations":
[
]
}