adofai-enchanted-love/level.adofai

108 lines
6.0 KiB
Plaintext
Raw Normal View History

2022-09-08 14:53:57 +00:00
{
"angleData": [0, 270, 0, 270, 0, 270, 0, 270, 0, 270, 0, 270, 0, 270, 0, 0, 0, 270, 0, 270, 0, 270, 0, 270, 0, 270, 0, 270, 0, 270, 0, 270, 0, 270, 0, 270, 0, 270, 0, 270, 0, 270, 0, 270, 0, 0, 0, 0, 0, 0, 0, 0, 0, 0, 0, 0, 0, 0, 0, 0, 0, 0, 0, 90, 180, 180, 180, 180, 90, 0, 0, 0, 0, 90, 180, 180, 180, 180, 180, 180, 180, 180, 90, 0, 0, 0, 0, 0, 0, 0, 0, 0, -180, 90, 0, 0, 90, 180, 180, 180, 180, 90, 0, 0, 0, 0, 90, 180, 180, 180, 180, 90, 0, 0, 0, 0, 90, 180, 180, 180, 180, 90, 0, 0, 0, 0, 90, 180, 180, 180, 180, 180, 180, 180, 180, 180, 180, 180, 180, 90, 0, 0, 0, 0, 90, 180, 180, 180, 180, 90, 0, 0, 0, 0, 90, 180, 180, 180, 180, 90, 0, 0, 0, 0, 90, 180, 180, 180, 180, 90, 0, 0, 0, 0, 90, 180, 180, 180, 180, 180, 180, 180, 180, 180, 270, 999, 180, 180, 180, 180, 180, 180, 180, 180],
"settings":
{
"version": 10 ,
"artist": "",
"specialArtistType": "None",
"artistPermission": "",
"song": "",
"author": "",
"separateCountdownTime": "Enabled",
"previewImage": "",
"previewIcon": "",
"previewIconColor": "003f52",
"previewSongStart": 0,
"previewSongDuration": 10,
"seizureWarning": "Disabled",
"levelDesc": "",
"levelTags": "",
"artistLinks": "",
"difficulty": 1,
"songFilename": "love.ogg",
"bpm": 95,
"volume": 100,
"offset": 30,
"pitch": 100,
"hitsound": "Kick",
"hitsoundVolume": 100,
"countdownTicks": 4,
"trackColorType": "Single",
"trackColor": "debb7b",
"secondaryTrackColor": "ffffff",
"trackColorAnimDuration": 2,
"trackColorPulse": "None",
"trackPulseLength": 10,
"trackStyle": "Standard",
"trackAnimation": "None",
"beatsAhead": 3,
"trackDisappearAnimation": "None",
"beatsBehind": 4,
"backgroundColor": "000000",
"showDefaultBGIfNoImage": "Enabled",
"bgImage": "",
"bgImageColor": "ffffff",
"parallax": [100, 100],
"bgDisplayMode": "FitToScreen",
"lockRot": "Disabled",
"loopBG": "Disabled",
"unscaledSize": 100,
"relativeTo": "Player",
"position": [0, 0],
"rotation": 0,
"zoom": 100,
"bgVideo": "",
"loopVideo": "Disabled",
"vidOffset": 0,
"floorIconOutlines": "Disabled",
"stickToFloors": "Enabled",
"planetEase": "Linear",
"planetEaseParts": 1,
"planetEasePartBehavior": "Mirror",
"customClass": "",
"legacyFlash": false ,
"legacySpriteTiles": false
},
"actions":
[
{ "floor": 33, "eventType": "Flash", "duration": 1, "plane": "Background", "startColor": "ffffff", "startOpacity": 50, "endColor": "ffffff", "endOpacity": 0, "angleOffset": 0, "ease": "Linear", "eventTag": "" },
{ "floor": 49, "eventType": "SetSpeed", "speedType": "Multiplier", "beatsPerMinute": 100, "bpmMultiplier": 0.25 },
{ "floor": 49, "eventType": "AnimateTrack", "trackAnimation": "Grow", "beatsAhead": 1, "trackDisappearAnimation": "None", "beatsBehind": 2 },
{ "floor": 51, "eventType": "SetSpeed", "speedType": "Multiplier", "beatsPerMinute": 100, "bpmMultiplier": 2 },
{ "floor": 53, "eventType": "SetSpeed", "speedType": "Multiplier", "beatsPerMinute": 100, "bpmMultiplier": 2 },
{ "floor": 57, "eventType": "Flash", "duration": 1, "plane": "Background", "startColor": "ffffff", "startOpacity": 50, "endColor": "ffffff", "endOpacity": 0, "angleOffset": 0, "ease": "Linear", "eventTag": "" },
{ "floor": 68, "eventType": "Twirl" },
{ "floor": 73, "eventType": "Twirl" },
{ "floor": 82, "eventType": "Twirl" },
{ "floor": 89, "eventType": "Pause", "duration": 3, "countdownTicks": 0, "angleCorrectionDir": -1 },
{ "floor": 89, "eventType": "AnimateTrack", "trackAnimation": "Grow", "beatsAhead": 1, "trackDisappearAnimation": "None", "beatsBehind": 4 },
{ "floor": 89, "eventType": "ColorTrack", "trackColorType": "Single", "trackColor": "debb7b", "secondaryTrackColor": "ffffff", "trackColorAnimDuration": 2, "trackColorPulse": "None", "trackPulseLength": 10, "trackStyle": "Gems", "trackTexture": "", "trackTextureScale": 1 },
{ "floor": 90, "eventType": "ColorTrack", "trackColorType": "Single", "trackColor": "debb7b", "secondaryTrackColor": "ffffff", "trackColorAnimDuration": 2, "trackColorPulse": "None", "trackPulseLength": 10, "trackStyle": "Standard", "trackTexture": "", "trackTextureScale": 1 },
{ "floor": 91, "eventType": "AnimateTrack", "trackAnimation": "Grow", "beatsAhead": 3, "trackDisappearAnimation": "None", "beatsBehind": 4 },
{ "floor": 96, "eventType": "Twirl" },
{ "floor": 101, "eventType": "Twirl" },
{ "floor": 106, "eventType": "Twirl" },
{ "floor": 111, "eventType": "Twirl" },
{ "floor": 116, "eventType": "Twirl" },
{ "floor": 121, "eventType": "Twirl" },
{ "floor": 126, "eventType": "Twirl" },
{ "floor": 129, "eventType": "SetFilter", "filter": "Rain", "enabled": "Enabled", "intensity": 100, "duration": 0, "ease": "Linear", "disableOthers": "Disabled", "angleOffset": 0, "eventTag": "" },
{ "floor": 129, "eventType": "SetFilter", "filter": "Grayscale", "enabled": "Enabled", "intensity": 100, "duration": 0, "ease": "Linear", "disableOthers": "Disabled", "angleOffset": 0, "eventTag": "" },
{ "floor": 137, "eventType": "SetFilter", "filter": "Grayscale", "enabled": "Disabled", "intensity": 100, "duration": 0, "ease": "Linear", "disableOthers": "Disabled", "angleOffset": 0, "eventTag": "" },
{ "floor": 137, "eventType": "SetFilter", "filter": "Rain", "enabled": "Disabled", "intensity": 100, "duration": 0, "ease": "Linear", "disableOthers": "Disabled", "angleOffset": 0, "eventTag": "" },
{ "floor": 137, "eventType": "Flash", "duration": 1, "plane": "Background", "startColor": "ffffff", "startOpacity": 50, "endColor": "ffffff", "endOpacity": 0, "angleOffset": 90, "ease": "Linear", "eventTag": "" },
{ "floor": 139, "eventType": "Twirl" },
{ "floor": 144, "eventType": "Twirl" },
{ "floor": 149, "eventType": "Twirl" },
{ "floor": 154, "eventType": "Twirl" },
{ "floor": 159, "eventType": "Twirl" },
{ "floor": 164, "eventType": "Twirl" },
{ "floor": 169, "eventType": "Twirl" },
{ "floor": 174, "eventType": "Twirl" },
{ "floor": 177, "eventType": "SetSpeed", "speedType": "Multiplier", "beatsPerMinute": 100, "bpmMultiplier": 0.5 }
]
"decorations":
[
]
}